osu file format v13

[General]
AudioFilename: Heroes of Our Time.mp3
AudioLeadIn: 2000
PreviewTime: 82596
Countdown: 0
SampleSet: Normal
StackLeniency: 0.7
Mode: 3
LetterboxInBreaks: 0
SpecialStyle: 0
WidescreenStoryboard: 1

[Editor]
DistanceSpacing: 1
BeatDivisor: 4
GridSize: 8
TimelineZoom: 2.299999

[Metadata]
Title:Heroes of Our Time
TitleUnicode:Heroes of Our Time
Artist:DragonForce
ArtistUnicode:DragonForce
Creator:Skalim
Version:Marathon Legend
Source:
Tags:Dragon Force Ultra Beatdown beatmap project discography speed power metal marathon
BeatmapID:415541
BeatmapSetID:171841

[Difficulty]
HPDrainRate:9
CircleSize:7
OverallDifficulty:8
ApproachRate:9
SliderMultiplier:1.6
SliderTickRate:2

[Events]
//Background and Video events
0,0,"dragon.jpg",0,0
//Break Periods
2,332465,341265
//Storyboard Layer 0 (Background)
//Storyboard Layer 1 (Fail)
//Storyboard Layer 2 (Pass)
//Storyboard Layer 3 (Foreground)
//Storyboard Sound Samples
//Background Colour Transformations
3,100,163,162,255

[TimingPoints]
380,300,4,1,1,35,1,0
8780,-66.6666666666667,4,1,1,35,0,0
8855,-222.222222222221,4,1,1,35,0,0
8930,-66.6666666666667,4,1,1,35,0,0
9230,-100,4,1,1,35,0,0
9305,-222.222222222221,4,1,1,35,0,0
9380,-66.6666666666667,4,1,1,35,0,0
9455,-222.222222222221,4,1,1,35,0,0
9530,-66.6666666666667,4,1,1,35,0,0
9830,-100,4,1,1,35,0,0
9905,-222.222222222221,4,1,1,35,0,0
9980,-100,4,1,1,35,0,0
17180,-100,4,1,1,25,0,0
18380,-100,4,1,1,35,0,0
30980,-66.6666666666667,4,1,1,35,0,0
31130,-111.111111111111,4,1,1,35,0,0
31205,-285.714285714284,4,1,1,35,0,0
31280,-66.6666666666667,4,1,1,35,0,0
31430,-111.111111111111,4,1,1,35,0,0
31505,-285.714285714284,4,1,1,35,0,0
31580,-100,4,1,1,35,0,0
35780,-66.6666666666667,4,1,1,35,0,0
35930,-111.111111111111,4,1,1,35,0,0
36005,-285.714285714284,4,1,1,35,0,0
36080,-66.6666666666667,4,1,1,35,0,0
36230,-111.111111111111,4,1,1,35,0,0
36305,-285.714285714284,4,1,1,35,0,0
36380,-100,4,1,1,35,0,0
42380,-111.111111111111,4,1,1,35,0,0
42455,-142.857142857143,4,1,1,35,0,0
44780,-100,4,1,1,40,0,0
63980,-100,4,1,1,35,0,0
83180,-100,4,1,1,37,0,1
109580,-133.333333333333,4,1,1,35,0,0
110180,-500,4,1,1,35,0,0
110780,-10,4,1,1,35,0,0
111380,-500,4,1,1,35,0,0
111980,-100,4,1,1,36,0,0
126380,-100,4,1,1,33,0,0
132680,-66.6666666666667,4,1,1,35,0,0
132717,-181.818181818181,4,1,1,35,0,0
132755,-66.6666666666667,4,1,1,35,0,0
132792,-181.818181818181,4,1,1,35,0,0
132830,-66.6666666666667,4,1,1,35,0,0
132867,-181.818181818181,4,1,1,35,0,0
132905,-66.6666666666667,4,1,1,35,0,0
132942,-181.818181818181,4,1,1,35,0,0
132980,-66.6666666666667,4,1,1,35,0,0
133017,-181.818181818181,4,1,1,35,0,0
133055,-66.6666666666667,4,1,1,35,0,0
133092,-181.818181818181,4,1,1,35,0,0
133130,-66.6666666666667,4,1,1,35,0,0
133167,-181.818181818181,4,1,1,35,0,0
133205,-66.6666666666667,4,1,1,35,0,0
133242,-181.818181818181,4,1,1,35,0,0
133280,-66.6666666666667,4,1,1,35,0,0
133317,-181.818181818181,4,1,1,35,0,0
133355,-66.6666666666667,4,1,1,35,0,0
133392,-181.818181818181,4,1,1,35,0,0
133430,-66.6666666666667,4,1,1,35,0,0
133467,-181.818181818181,4,1,1,35,0,0
133505,-66.6666666666667,4,1,1,35,0,0
133542,-181.818181818181,4,1,1,35,0,0
133580,-100,4,1,1,35,0,0
171980,-100,4,1,1,40,0,1
199580,-10,4,1,1,35,0,0
200180,-500,4,1,1,35,0,0
200780,-100,4,1,1,35,0,0
222080,-103.092783505155,4,1,1,40,0,0
222230,-106.382978723404,4,1,1,40,0,0
222380,-111.111111111111,4,1,1,5,0,0
230780,-109.89010989011,4,1,1,5,0,0
230930,-108.695652173913,4,1,1,5,0,0
231080,-107.52688172043,4,1,1,5,0,0
231230,-106.382978723404,4,1,1,5,0,0
231380,-105.263157894737,4,1,1,5,0,0
231530,-104.166666666667,4,1,1,5,0,0
231680,-103.092783505155,4,1,1,5,0,0
231830,-102.040816326531,4,1,1,5,0,0
231980,-100,4,1,1,35,0,0
233111,-100,4,1,1,35,0,0
234380,-111.111111111111,4,1,1,35,0,0
237680,-107.52688172043,4,1,1,35,0,0
237830,-104.166666666667,4,1,1,35,0,0
237980,-100,4,1,1,35,0,0
238280,-111.111111111111,4,1,1,35,0,0
239180,-107.52688172043,4,1,1,35,0,0
239330,-104.166666666667,4,1,1,35,0,0
239480,-100,4,1,1,35,0,0
240380,342.857142857143,4,1,1,25,1,0
241751,-86.9565217391304,4,1,1,40,0,1
262322,-86.9565217391304,4,1,1,40,0,0
263694,-86.9565217391304,4,1,1,40,0,1
306208,-86.9565217391304,4,1,1,40,0,0
307580,-86.9565217391304,4,1,1,40,0,1
329522,-86.9565217391304,4,1,1,16,0,1
330894,-86.9565217391304,4,1,1,35,0,1
332265,300,4,1,1,35,1,0
349065,-10,4,1,1,35,0,0
350265,-500,4,1,1,35,0,0
351465,-76.9230769230769,4,1,1,35,0,0
351540,-222.222222222221,4,1,1,35,0,0
351615,-66.6666666666667,4,1,1,35,0,0
351765,-153.846153846153,4,1,1,35,0,0
351840,-285.714285714284,4,1,1,35,0,0
351915,-76.9230769230769,4,1,1,35,0,0
351990,-222.222222222221,4,1,1,35,0,0
352065,-76.9230769230769,4,1,1,35,0,0
352140,-181.818181818181,4,1,1,35,0,0
352215,-66.6666666666667,4,1,1,35,0,0
352365,-153.846153846153,4,1,1,35,0,0
352440,-285.714285714284,4,1,1,35,0,0
352515,-76.9230769230769,4,1,1,35,0,0
352590,-222.222222222221,4,1,1,35,0,0
352665,-76.9230769230769,4,1,1,35,0,0
352740,-222.222222222221,4,1,1,35,0,0
352815,-66.6666666666667,4,1,1,35,0,0
352965,-153.846153846153,4,1,1,35,0,0
353040,-285.714285714284,4,1,1,35,0,0
353115,-76.9230769230769,4,1,1,35,0,0
353190,-222.222222222221,4,1,1,35,0,0
353265,-76.9230769230769,4,1,1,35,0,0
353340,-222.222222222221,4,1,1,35,0,0
353415,-76.9230769230769,4,1,1,35,0,0
353490,-222.222222222221,4,1,1,35,0,0
353565,-100,4,1,1,35,0,0
353865,-76.9230769230769,4,1,1,35,0,0
353940,-222.222222222221,4,1,1,35,0,0
354015,-66.6666666666667,4,1,1,35,0,0
354165,-153.846153846153,4,1,1,35,0,0
354240,-285.714285714284,4,1,1,35,0,0
354315,-76.9230769230769,4,1,1,35,0,0
354390,-222.222222222221,4,1,1,35,0,0
354465,-76.9230769230769,4,1,1,35,0,0
354540,-222.222222222221,4,1,1,35,0,0
354615,-66.6666666666667,4,1,1,35,0,0
354765,-153.846153846153,4,1,1,35,0,0
354840,-285.714285714284,4,1,1,35,0,0
354915,-76.9230769230769,4,1,1,35,0,0
354990,-222.222222222221,4,1,1,35,0,0
355065,-76.9230769230769,4,1,1,35,0,0
355140,-222.222222222221,4,1,1,35,0,0
355215,-66.6666666666667,4,1,1,35,0,0
355365,-153.846153846153,4,1,1,35,0,0
355440,-285.714285714284,4,1,1,35,0,0
355515,-76.9230769230769,4,1,1,35,0,0
355590,-222.222222222221,4,1,1,35,0,0
355665,-76.9230769230769,4,1,1,35,0,0
355740,-222.222222222221,4,1,1,35,0,0
355815,-100,4,1,1,35,0,0
356265,-66.6666666666667,4,1,1,35,0,0
356415,-100,4,1,1,35,0,0
356490,-153.846153846153,4,1,1,35,0,0
356527,-399.999999999997,4,1,1,35,0,0
356565,-66.6666666666667,4,1,1,35,0,0
356715,-100,4,1,1,35,0,0
356790,-153.846153846153,4,1,1,35,0,0
356827,-400,4,1,1,35,0,0
356865,-66.6666666666667,4,1,1,35,0,0
357015,-100,4,1,1,35,0,0
357090,-153.846153846153,4,1,1,35,0,0
357127,-399.999999999997,4,1,1,35,0,0
357165,-66.6666666666667,4,1,1,35,0,0
357315,-100,4,1,1,35,0,0
357390,-153.846153846153,4,1,1,35,0,0
357427,-285.714285714284,4,1,1,35,0,0
357465,-66.6666666666667,4,1,1,35,0,0
357615,-100,4,1,1,35,0,0
357690,-153.846153846153,4,1,1,35,0,0
357727,-399.999999999997,4,1,1,35,0,0
357765,-66.6666666666667,4,1,1,35,0,0
357915,-100,4,1,1,35,0,0
357990,-153.846153846153,4,1,1,35,0,0
358027,-399.999999999997,4,1,1,35,0,0
358065,-66.6666666666667,4,1,1,35,0,0
358215,-100,4,1,1,35,0,0
358290,-153.846153846153,4,1,1,35,0,0
358327,-399.999999999997,4,1,1,35,0,0
358365,-66.6666666666667,4,1,1,35,0,0
358515,-100,4,1,1,35,0,0
358590,-153.846153846153,4,1,1,35,0,0
358627,-399.999999999997,4,1,1,35,0,0
358665,-100,4,1,1,35,0,0
361065,-133.333333333333,4,1,1,35,0,0
363465,-100,4,1,1,40,0,1
391065,-100,4,1,1,40,0,0
392265,-100,4,1,1,30,0,0
406670,600,4,1,1,35,1,1
409070,631.578947368421,4,1,1,35,1,1
410964,736.196319018405,4,1,1,35,1,1
414644,821.917808219178,4,1,1,35,1,1
419575,845.070422535211,4,1,1,35,1,1
421687,689.655172413793,4,1,1,35,1,0
424445,666.666666666667,4,1,1,35,1,0

[Colours]
Combo1 : 0,174,174
Combo2 : 128,255,255
Combo3 : 0,128,192
Combo4 : 240,240,240

[HitObjects]
109,192,380,5,8,0:0:0:0:
256,192,380,1,0,0:0:0:0:
402,192,380,1,8,0:0:0:0:
109,192,530,1,8,0:0:0:0:
256,192,530,1,0,0:0:0:0:
402,192,530,1,8,0:0:0:0:
109,192,680,1,8,0:0:0:0:
256,192,680,1,0,0:0:0:0:
402,192,680,1,8,0:0:0:0:
475,192,830,1,0,0:0:0:0:
475,192,980,1,0,0:0:0:0:
402,192,1130,1,0,0:0:0:0:
329,192,1280,1,0,0:0:0:0:
256,192,1430,1,0,0:0:0:0:
109,192,1580,1,12,0:0:0:0:
36,192,1580,128,4,2780:0:0:0:0:
182,192,1580,1,8,0:0:0:0:
475,192,1580,1,0,0:0:0:0:
402,192,1730,1,0,0:0:0:0:
329,192,1805,1,0,0:0:0:0:
402,192,1880,1,0,0:0:0:0:
475,192,2030,1,0,0:0:0:0:
475,192,2180,1,0,0:0:0:0:
402,192,2330,1,0,0:0:0:0:
329,192,2480,1,0,0:0:0:0:
256,192,2630,1,0,0:0:0:0:
182,192,2780,1,0,0:0:0:0:
402,192,2780,1,8,0:0:0:0:
475,192,2780,1,8,0:0:0:0:
109,192,2930,1,0,0:0:0:0:
256,192,3005,1,0,0:0:0:0:
182,192,3080,1,0,0:0:0:0:
402,192,3080,1,8,0:0:0:0:
475,192,3080,1,8,0:0:0:0:
109,192,3230,1,0,0:0:0:0:
109,192,3380,1,0,0:0:0:0:
475,192,3530,1,0,0:0:0:0:
329,192,3680,1,0,0:0:0:0:
182,192,3830,1,0,0:0:0:0:
402,192,3980,1,8,0:0:0:0:
329,192,3980,1,0,0:0:0:0:
256,192,3980,1,8,0:0:0:0:
36,192,3980,128,0,4205:0:0:0:0:
475,192,4205,1,0,0:0:0:0:
402,192,4205,128,0,4430:0:0:0:0:
36,192,4430,1,0,0:0:0:0:
109,192,4430,128,0,4580:0:0:0:0:
182,192,4580,1,8,0:0:0:0:
256,192,4580,1,0,0:0:0:0:
329,192,4580,1,8,0:0:0:0:
475,192,4580,128,0,4880:0:0:0:0:
109,192,4880,1,0,0:0:0:0:
256,192,4880,128,0,5180:0:0:0:0:
475,192,5180,128,8,6380:0:0:0:0:
329,192,5180,1,4,0:0:0:0:
402,192,5180,1,4,0:0:0:0:
36,192,5180,1,8,0:0:0:0:
109,192,5330,1,0,0:0:0:0:
182,192,5405,1,0,0:0:0:0:
109,192,5480,1,0,0:0:0:0:
36,192,5630,1,0,0:0:0:0:
36,192,5780,1,0,0:0:0:0:
109,192,5930,1,0,0:0:0:0:
182,192,6080,1,0,0:0:0:0:
256,192,6230,1,0,0:0:0:0:
329,192,6380,1,8,0:0:0:0:
36,192,6380,1,4,0:0:0:0:
109,192,6380,1,12,0:0:0:0:
402,192,6530,1,0,0:0:0:0:
256,192,6605,1,0,0:0:0:0:
402,192,6680,1,0,0:0:0:0:
109,192,6830,1,0,0:0:0:0:
109,192,6980,1,0,0:0:0:0:
182,192,7130,1,0,0:0:0:0:
256,192,7280,1,8,0:0:0:0:
329,192,7280,1,8,0:0:0:0:
475,192,7280,1,0,0:0:0:0:
182,192,7430,1,8,0:0:0:0:
402,192,7430,1,8,0:0:0:0:
329,192,7430,1,0,0:0:0:0:
256,192,7580,1,4,0:0:0:0:
109,192,7580,1,8,0:0:0:0:
36,192,7580,128,4,8780:0:0:0:0:
475,192,7580,1,8,0:0:0:0:
329,192,7730,1,0,0:0:0:0:
402,192,7805,1,0,0:0:0:0:
329,192,7880,1,0,0:0:0:0:
109,192,8030,1,0,0:0:0:0:
182,192,8180,1,0,0:0:0:0:
475,192,8330,1,0,0:0:0:0:
402,192,8480,1,0,0:0:0:0:
329,192,8630,1,0,0:0:0:0:
256,192,8780,1,8,0:0:0:0:
182,192,8780,1,8,0:0:0:0:
402,192,8780,1,0,0:0:0:0:
256,192,8930,1,8,0:0:0:0:
329,192,8930,1,8,0:0:0:0:
109,192,8930,1,0,0:0:0:0:
256,192,9380,1,8,0:0:0:0:
329,192,9380,1,8,0:0:0:0:
36,192,9380,1,0,0:0:0:0:
256,192,9530,1,8,0:0:0:0:
182,192,9530,1,8,0:0:0:0:
475,192,9530,1,0,0:0:0:0:
109,192,9980,128,0,12380:0:0:0:0:
182,192,9980,1,4,0:0:0:0:
256,192,9980,1,0,0:0:0:0:
475,192,9980,1,0,0:0:0:0:
329,192,10130,1,0,0:0:0:0:
402,192,10280,1,2,0:0:0:0:
36,192,10280,1,2,0:0:0:0:
329,192,10430,1,0,0:0:0:0:
182,192,10580,1,2,0:0:0:0:
475,192,10580,1,2,0:0:0:0:
256,192,10730,1,0,0:0:0:0:
36,192,10880,1,2,0:0:0:0:
329,192,10880,1,2,0:0:0:0:
402,192,11030,1,0,0:0:0:0:
475,192,11180,1,2,0:0:0:0:
256,192,11180,1,2,0:0:0:0:
182,192,11330,1,0,0:0:0:0:
36,192,11480,1,2,0:0:0:0:
256,192,11480,1,2,0:0:0:0:
329,192,11630,1,0,0:0:0:0:
475,192,11780,1,2,0:0:0:0:
402,192,11780,1,2,0:0:0:0:
182,192,11855,1,0,0:0:0:0:
475,192,11930,1,2,0:0:0:0:
329,192,11930,1,2,0:0:0:0:
182,192,12005,1,0,0:0:0:0:
475,192,12080,1,2,0:0:0:0:
256,192,12080,1,0,0:0:0:0:
182,192,12155,1,0,0:0:0:0:
475,192,12230,1,2,0:0:0:0:
329,192,12230,1,0,0:0:0:0:
256,192,12305,1,0,0:0:0:0:
402,192,12380,128,0,13580:0:0:0:0:
36,192,12380,1,2,0:0:0:0:
475,192,12380,1,0,0:0:0:0:
256,192,12530,1,0,0:0:0:0:
182,192,12680,1,2,0:0:0:0:
475,192,12680,1,2,0:0:0:0:
109,192,12830,1,0,0:0:0:0:
182,192,12980,1,2,0:0:0:0:
256,192,12980,1,2,0:0:0:0:
36,192,13130,1,0,0:0:0:0:
109,192,13280,1,2,0:0:0:0:
475,192,13280,1,2,0:0:0:0:
182,192,13430,1,0,0:0:0:0:
182,192,13580,128,0,14780:0:0:0:0:
329,192,13580,128,0,14780:0:0:0:0:
36,192,13580,128,0,13880:0:0:0:0:
256,192,13580,1,4,0:0:0:0:
475,192,13580,1,8,0:0:0:0:
109,192,13880,1,8,0:0:0:0:
256,192,13880,1,4,0:0:0:0:
475,192,13880,128,0,14180:0:0:0:0:
256,192,14180,1,8,0:0:0:0:
402,192,14180,1,4,0:0:0:0:
36,192,14180,128,0,14480:0:0:0:0:
109,192,14480,1,4,0:0:0:0:
256,192,14480,1,0,0:0:0:0:
475,192,14480,128,0,14780:0:0:0:0:
36,192,14780,128,0,16430:0:0:0:0:
256,192,14780,1,8,0:0:0:0:
402,192,14780,1,4,0:0:0:0:
109,192,14930,1,0,0:0:0:0:
182,192,15080,1,2,0:0:0:0:
329,192,15080,1,2,0:0:0:0:
402,192,15230,1,0,0:0:0:0:
329,192,15380,1,2,0:0:0:0:
475,192,15380,1,2,0:0:0:0:
256,192,15530,1,0,0:0:0:0:
329,192,15680,1,2,0:0:0:0:
182,192,15680,1,2,0:0:0:0:
109,192,15830,1,0,0:0:0:0:
182,192,15980,1,2,0:0:0:0:
256,192,15980,1,2,0:0:0:0:
475,192,16130,1,0,0:0:0:0:
402,192,16280,1,2,0:0:0:0:
329,192,16280,1,2,0:0:0:0:
475,192,16430,1,0,0:0:0:0:
36,192,16580,1,0,0:0:0:0:
109,192,16617,1,0,0:0:0:0:
182,192,16655,1,0,0:0:0:0:
256,192,16692,1,0,0:0:0:0:
475,192,16730,1,0,0:0:0:0:
402,192,16767,1,0,0:0:0:0:
329,192,16805,1,0,0:0:0:0:
256,192,16842,1,0,0:0:0:0:
36,192,16880,1,0,0:0:0:0:
109,192,16917,1,0,0:0:0:0:
182,192,16955,1,0,0:0:0:0:
256,192,16992,1,0,0:0:0:0:
475,192,17030,1,0,0:0:0:0:
402,192,17067,1,0,0:0:0:0:
329,192,17105,1,0,0:0:0:0:
256,192,17142,1,0,0:0:0:0:
36,192,17180,1,8,0:0:0:0:
182,192,17180,1,8,0:0:0:0:
109,192,17255,1,8,0:0:0:0:
256,192,17330,1,8,0:0:0:0:
475,192,17330,1,8,0:0:0:0:
329,192,17405,1,8,0:0:0:0:
475,192,17480,1,8,0:0:0:0:
402,192,17555,1,8,0:0:0:0:
256,192,17630,1,8,0:0:0:0:
36,192,17630,1,8,0:0:0:0:
182,192,17705,1,8,0:0:0:0:
109,192,17780,1,8,0:0:0:0:
329,192,17780,1,8,0:0:0:0:
402,192,17855,1,8,0:0:0:0:
475,192,17930,1,8,0:0:0:0:
36,192,18005,1,8,0:0:0:0:
109,192,18080,1,8,0:0:0:0:
402,192,18080,1,8,0:0:0:0:
329,192,18155,1,8,0:0:0:0:
256,192,18230,1,8,0:0:0:0:
182,192,18305,1,8,0:0:0:0:
36,192,18380,1,2,0:0:0:0:
109,192,18380,1,0,0:0:0:0:
402,192,18455,1,2,0:0:0:0:
475,192,18455,1,0,0:0:0:0:
182,192,18530,1,2,0:0:0:0:
256,192,18530,1,0,0:0:0:0:
329,192,18605,1,2,0:0:0:0:
402,192,18605,1,0,0:0:0:0:
36,192,18680,1,2,0:0:0:0:
109,192,18680,1,0,0:0:0:0:
402,192,18755,1,2,0:0:0:0:
475,192,18755,1,0,0:0:0:0:
109,192,18830,1,2,0:0:0:0:
182,192,18830,1,0,0:0:0:0:
256,192,18905,1,2,0:0:0:0:
329,192,18905,1,0,0:0:0:0:
36,192,18980,1,2,0:0:0:0:
109,192,18980,1,0,0:0:0:0:
402,192,19055,1,2,0:0:0:0:
475,192,19055,1,0,0:0:0:0:
109,192,19130,1,2,0:0:0:0:
182,192,19130,1,0,0:0:0:0:
329,192,19205,1,2,0:0:0:0:
402,192,19205,1,0,0:0:0:0:
182,192,19280,1,2,0:0:0:0:
256,192,19280,1,0,0:0:0:0:
402,192,19355,1,2,0:0:0:0:
475,192,19355,1,0,0:0:0:0:
109,192,19430,1,0,0:0:0:0:
36,192,19430,1,2,0:0:0:0:
402,192,19505,1,0,0:0:0:0:
329,192,19505,1,2,0:0:0:0:
182,192,19580,1,2,0:0:0:0:
475,192,19580,128,0,21980:0:0:0:0:
109,192,19580,1,2,0:0:0:0:
256,192,19730,1,0,0:0:0:0:
36,192,19880,1,2,0:0:0:0:
329,192,19880,1,2,0:0:0:0:
109,192,20030,1,0,0:0:0:0:
182,192,20180,1,2,0:0:0:0:
402,192,20180,1,2,0:0:0:0:
329,192,20330,1,0,0:0:0:0:
36,192,20480,1,2,0:0:0:0:
256,192,20480,1,2,0:0:0:0:
402,192,20630,1,0,0:0:0:0:
256,192,20780,1,2,0:0:0:0:
329,192,20780,1,2,0:0:0:0:
36,192,20930,1,0,0:0:0:0:
109,192,21080,1,2,0:0:0:0:
182,192,21080,1,2,0:0:0:0:
256,192,21230,1,0,0:0:0:0:
182,192,21380,1,2,0:0:0:0:
402,192,21380,1,2,0:0:0:0:
329,192,21455,1,0,0:0:0:0:
256,192,21530,1,0,0:0:0:0:
36,192,21680,1,2,0:0:0:0:
182,192,21680,1,2,0:0:0:0:
109,192,21755,1,0,0:0:0:0:
36,192,21830,1,2,0:0:0:0:
256,192,21830,1,2,0:0:0:0:
109,192,21905,1,0,0:0:0:0:
402,192,21980,128,0,23180:0:0:0:0:
36,192,21980,1,2,0:0:0:0:
329,192,21980,1,2,0:0:0:0:
256,192,22130,1,0,0:0:0:0:
109,192,22280,1,2,0:0:0:0:
329,192,22280,1,2,0:0:0:0:
182,192,22430,1,0,0:0:0:0:
36,192,22580,1,2,0:0:0:0:
256,192,22580,1,2,0:0:0:0:
109,192,22730,1,0,0:0:0:0:
36,192,22880,1,2,0:0:0:0:
329,192,22880,1,2,0:0:0:0:
182,192,23030,1,0,0:0:0:0:
36,192,23180,128,0,24380:0:0:0:0:
329,192,23180,1,8,0:0:0:0:
475,192,23180,1,0,0:0:0:0:
256,192,23180,1,4,0:0:0:0:
182,192,23480,128,0,24380:0:0:0:0:
475,192,23480,1,8,0:0:0:0:
109,192,23480,1,0,0:0:0:0:
402,192,23480,1,4,0:0:0:0:
256,192,23780,1,4,0:0:0:0:
475,192,23780,1,0,0:0:0:0:
329,192,23780,1,8,0:0:0:0:
109,192,24080,1,0,0:0:0:0:
402,192,24080,1,4,0:0:0:0:
475,192,24080,1,8,0:0:0:0:
402,192,24380,128,0,26780:0:0:0:0:
329,192,24380,1,2,0:0:0:0:
475,192,24380,1,2,0:0:0:0:
109,192,24530,1,0,0:0:0:0:
36,192,24680,1,2,0:0:0:0:
256,192,24680,1,2,0:0:0:0:
329,192,24830,1,0,0:0:0:0:
36,192,24980,1,2,0:0:0:0:
475,192,24980,1,2,0:0:0:0:
256,192,25055,1,0,0:0:0:0:
109,192,25130,1,0,0:0:0:0:
329,192,25205,1,0,0:0:0:0:
182,192,25280,1,2,0:0:0:0:
256,192,25280,1,2,0:0:0:0:
109,192,25430,1,0,0:0:0:0:
36,192,25580,1,2,0:0:0:0:
475,192,25580,1,2,0:0:0:0:
182,192,25655,1,0,0:0:0:0:
256,192,25730,1,0,0:0:0:0:
36,192,25880,1,0,0:0:0:0:
475,192,25880,1,0,0:0:0:0:
329,192,25955,1,0,0:0:0:0:
256,192,26030,1,0,0:0:0:0:
475,192,26180,1,2,0:0:0:0:
329,192,26180,1,2,0:0:0:0:
256,192,26255,1,0,0:0:0:0:
182,192,26330,1,0,0:0:0:0:
256,192,26405,1,0,0:0:0:0:
36,192,26480,1,2,0:0:0:0:
329,192,26480,1,2,0:0:0:0:
109,192,26555,1,0,0:0:0:0:
182,192,26630,1,0,0:0:0:0:
109,192,26705,1,0,0:0:0:0:
36,192,26780,1,0,0:0:0:0:
475,192,26780,1,0,0:0:0:0:
256,192,26780,1,0,0:0:0:0:
402,192,26855,1,0,0:0:0:0:
329,192,26930,1,0,0:0:0:0:
109,192,27005,1,0,0:0:0:0:
182,192,27080,1,0,0:0:0:0:
402,192,27155,1,0,0:0:0:0:
329,192,27230,1,2,0:0:0:0:
36,192,27230,1,2,0:0:0:0:
109,192,27305,1,0,0:0:0:0:
256,192,27380,1,0,0:0:0:0:
402,192,27455,1,0,0:0:0:0:
475,192,27530,1,0,0:0:0:0:
256,192,27605,1,0,0:0:0:0:
36,192,27680,1,2,0:0:0:0:
329,192,27680,1,2,0:0:0:0:
109,192,27755,1,0,0:0:0:0:
256,192,27830,1,0,0:0:0:0:
402,192,27905,1,0,0:0:0:0:
36,192,27980,1,8,0:0:0:0:
475,192,27980,1,0,0:0:0:0:
109,192,28055,1,8,0:0:0:0:
402,192,28055,1,0,0:0:0:0:
182,192,28130,1,8,0:0:0:0:
329,192,28130,1,0,0:0:0:0:
109,192,28205,1,8,0:0:0:0:
402,192,28205,1,0,0:0:0:0:
36,192,28280,1,8,0:0:0:0:
475,192,28280,1,0,0:0:0:0:
182,192,28355,1,0,0:0:0:0:
256,192,28430,1,0,0:0:0:0:
329,192,28505,1,0,0:0:0:0:
36,192,28580,1,0,0:0:0:0:
475,192,28580,1,8,0:0:0:0:
182,192,28655,1,0,0:0:0:0:
329,192,28655,1,8,0:0:0:0:
36,192,28730,1,0,0:0:0:0:
475,192,28730,1,8,0:0:0:0:
329,192,28805,1,8,0:0:0:0:
182,192,28805,1,0,0:0:0:0:
475,192,28880,1,8,0:0:0:0:
36,192,28880,1,0,0:0:0:0:
329,192,28955,1,0,0:0:0:0:
256,192,29030,1,0,0:0:0:0:
182,192,29105,1,0,0:0:0:0:
36,192,29180,1,8,0:0:0:0:
475,192,29180,128,0,29280:0:0:0:0:
36,192,29280,1,8,0:0:0:0:
402,192,29280,128,0,29380:0:0:0:0:
36,192,29380,1,8,0:0:0:0:
329,192,29380,128,0,29480:0:0:0:0:
109,192,29480,1,8,0:0:0:0:
475,192,29480,128,0,29580:0:0:0:0:
109,192,29580,1,8,0:0:0:0:
402,192,29580,128,0,29680:0:0:0:0:
109,192,29680,1,8,0:0:0:0:
256,192,29680,128,0,29780:0:0:0:0:
329,192,29780,1,8,0:0:0:0:
36,192,29780,128,0,29880:0:0:0:0:
475,192,29880,1,8,0:0:0:0:
182,192,29880,128,0,29980:0:0:0:0:
329,192,29980,1,8,0:0:0:0:
36,192,29980,128,0,30080:0:0:0:0:
475,192,30080,1,8,0:0:0:0:
182,192,30080,128,0,30180:0:0:0:0:
256,192,30180,128,0,30280:0:0:0:0:
329,192,30280,128,0,30380:0:0:0:0:
36,192,30380,128,0,30480:0:0:0:0:
475,192,30380,1,8,0:0:0:0:
109,192,30480,128,0,30580:0:0:0:0:
475,192,30480,1,8,0:0:0:0:
182,192,30580,128,0,30680:0:0:0:0:
475,192,30580,1,8,0:0:0:0:
36,192,30680,128,0,30780:0:0:0:0:
402,192,30680,1,8,0:0:0:0:
109,192,30780,128,0,30880:0:0:0:0:
402,192,30780,1,8,0:0:0:0:
182,192,30880,128,0,30980:0:0:0:0:
402,192,30880,1,8,0:0:0:0:
256,192,30980,128,0,31280:0:0:0:0:
475,192,30980,128,0,31280:0:0:0:0:
36,192,30980,1,4,0:0:0:0:
109,192,30980,1,4,0:0:0:0:
329,192,31280,128,0,31580:0:0:0:0:
402,192,31280,128,0,31580:0:0:0:0:
109,192,31280,1,4,0:0:0:0:
182,192,31280,1,4,0:0:0:0:
36,192,31580,128,0,31680:0:0:0:0:
256,192,31580,1,8,0:0:0:0:
109,192,31680,128,0,31780:0:0:0:0:
329,192,31680,1,8,0:0:0:0:
182,192,31780,128,0,31880:0:0:0:0:
402,192,31780,1,8,0:0:0:0:
256,192,31880,1,8,0:0:0:0:
475,192,31880,128,0,31980:0:0:0:0:
402,192,31980,128,0,32080:0:0:0:0:
182,192,31980,1,8,0:0:0:0:
329,192,32080,128,0,32180:0:0:0:0:
109,192,32080,1,8,0:0:0:0:
36,192,32180,128,0,32280:0:0:0:0:
256,192,32180,1,8,0:0:0:0:
109,192,32280,128,0,32380:0:0:0:0:
329,192,32280,1,8,0:0:0:0:
182,192,32380,128,0,32480:0:0:0:0:
402,192,32380,1,8,0:0:0:0:
475,192,32480,128,0,32580:0:0:0:0:
256,192,32580,128,0,32680:0:0:0:0:
36,192,32680,128,0,32780:0:0:0:0:
475,192,32780,128,0,32880:0:0:0:0:
182,192,32780,1,8,0:0:0:0:
402,192,32880,128,0,32980:0:0:0:0:
109,192,32880,1,8,0:0:0:0:
329,192,32980,128,0,33080:0:0:0:0:
36,192,32980,1,8,0:0:0:0:
402,192,33080,128,0,33180:0:0:0:0:
182,192,33080,1,8,0:0:0:0:
329,192,33180,128,0,33280:0:0:0:0:
109,192,33180,1,8,0:0:0:0:
256,192,33280,128,0,33380:0:0:0:0:
36,192,33280,1,8,0:0:0:0:
329,192,33380,128,4,33680:0:0:0:0:
182,192,33380,128,0,33480:0:0:0:0:
475,192,33380,1,0,0:0:0:0:
109,192,33480,128,0,33580:0:0:0:0:
36,192,33580,128,0,33680:0:0:0:0:
402,192,33680,128,4,33980:0:0:0:0:
256,192,33680,128,0,33780:0:0:0:0:
475,192,33680,1,0,0:0:0:0:
182,192,33780,128,0,33880:0:0:0:0:
109,192,33880,128,0,33980:0:0:0:0:
36,192,33980,128,0,34080:0:0:0:0:
475,192,33980,1,8,0:0:0:0:
109,192,34080,128,0,34180:0:0:0:0:
475,192,34080,1,8,0:0:0:0:
182,192,34180,128,0,34280:0:0:0:0:
475,192,34180,1,8,0:0:0:0:
36,192,34280,128,0,34380:0:0:0:0:
402,192,34280,1,8,0:0:0:0:
109,192,34380,128,0,34480:0:0:0:0:
402,192,34380,1,8,0:0:0:0:
256,192,34480,128,0,34580:0:0:0:0:
402,192,34480,1,8,0:0:0:0:
475,192,34580,128,0,34680:0:0:0:0:
182,192,34580,1,8,0:0:0:0:
329,192,34680,128,0,34780:0:0:0:0:
36,192,34680,1,8,0:0:0:0:
475,192,34780,128,0,34880:0:0:0:0:
182,192,34780,1,8,0:0:0:0:
329,192,34880,128,0,34980:0:0:0:0:
36,192,34880,1,8,0:0:0:0:
256,192,34980,128,0,35080:0:0:0:0:
182,192,35080,128,0,35180:0:0:0:0:
36,192,35180,1,8,0:0:0:0:
475,192,35180,128,0,35280:0:0:0:0:
36,192,35280,1,8,0:0:0:0:
402,192,35280,128,0,35380:0:0:0:0:
36,192,35380,1,8,0:0:0:0:
329,192,35380,128,0,35480:0:0:0:0:
109,192,35480,1,8,0:0:0:0:
475,192,35480,128,0,35580:0:0:0:0:
109,192,35580,1,8,0:0:0:0:
402,192,35580,128,0,35680:0:0:0:0:
109,192,35680,1,8,0:0:0:0:
329,192,35680,128,0,35780:0:0:0:0:
475,192,35780,1,4,0:0:0:0:
36,192,35780,128,0,36080:0:0:0:0:
256,192,35780,128,0,36080:0:0:0:0:
402,192,35780,1,4,0:0:0:0:
402,192,36080,1,4,0:0:0:0:
109,192,36080,128,0,36380:0:0:0:0:
182,192,36080,128,0,36380:0:0:0:0:
329,192,36080,1,4,0:0:0:0:
256,192,36380,1,8,0:0:0:0:
475,192,36380,128,0,36480:0:0:0:0:
182,192,36480,1,8,0:0:0:0:
402,192,36480,128,0,36580:0:0:0:0:
109,192,36580,1,8,0:0:0:0:
329,192,36580,128,0,36680:0:0:0:0:
36,192,36680,128,0,36780:0:0:0:0:
256,192,36680,1,8,0:0:0:0:
329,192,36780,1,8,0:0:0:0:
109,192,36780,128,0,36880:0:0:0:0:
402,192,36880,1,8,0:0:0:0:
182,192,36880,128,0,36980:0:0:0:0:
256,192,36980,1,8,0:0:0:0:
475,192,36980,128,0,37080:0:0:0:0:
182,192,37080,1,8,0:0:0:0:
402,192,37080,128,0,37180:0:0:0:0:
109,192,37180,1,8,0:0:0:0:
329,192,37180,128,0,37280:0:0:0:0:
36,192,37280,128,0,37380:0:0:0:0:
256,192,37380,128,0,37480:0:0:0:0:
475,192,37480,128,0,37580:0:0:0:0:
329,192,37580,1,8,0:0:0:0:
36,192,37580,128,0,37680:0:0:0:0:
402,192,37680,1,8,0:0:0:0:
109,192,37680,128,0,37780:0:0:0:0:
475,192,37780,1,8,0:0:0:0:
182,192,37780,128,0,37880:0:0:0:0:
329,192,37880,1,8,0:0:0:0:
109,192,37880,128,0,37980:0:0:0:0:
402,192,37980,1,8,0:0:0:0:
182,192,37980,128,0,38080:0:0:0:0:
475,192,38080,1,8,0:0:0:0:
256,192,38080,128,0,38180:0:0:0:0:
182,192,38180,128,4,38480:0:0:0:0:
329,192,38180,128,0,38280:0:0:0:0:
36,192,38180,1,0,0:0:0:0:
402,192,38280,128,0,38380:0:0:0:0:
475,192,38380,128,0,38480:0:0:0:0:
109,192,38480,128,4,38780:0:0:0:0:
256,192,38480,128,0,38580:0:0:0:0:
36,192,38480,1,0,0:0:0:0:
329,192,38580,128,0,38680:0:0:0:0:
402,192,38680,128,0,38780:0:0:0:0:
475,192,38780,128,8,38855:0:0:0:0:
402,192,38855,128,0,38930:0:0:0:0:
329,192,38930,128,0,39005:0:0:0:0:
256,192,39005,128,0,39080:0:0:0:0:
182,192,39080,128,0,39155:0:0:0:0:
109,192,39155,128,0,39230:0:0:0:0:
36,192,39230,128,0,39305:0:0:0:0:
109,192,39305,128,0,39380:0:0:0:0:
475,192,39380,128,0,39455:0:0:0:0:
182,192,39380,1,8,0:0:0:0:
256,192,39380,1,8,0:0:0:0:
402,192,39455,128,0,39530:0:0:0:0:
329,192,39530,128,0,39605:0:0:0:0:
109,192,39530,1,8,0:0:0:0:
36,192,39530,1,8,0:0:0:0:
256,192,39605,128,0,39680:0:0:0:0:
182,192,39680,128,0,39755:0:0:0:0:
109,192,39755,128,0,39830:0:0:0:0:
36,192,39830,128,0,39905:0:0:0:0:
109,192,39905,128,0,39980:0:0:0:0:
182,192,39980,128,0,41330:0:0:0:0:
475,192,39980,128,0,41330:0:0:0:0:
256,192,39980,1,0,0:0:0:0:
402,192,39980,1,0,0:0:0:0:
36,192,41330,1,8,0:0:0:0:
256,192,41330,1,2,0:0:0:0:
109,192,41480,1,8,0:0:0:0:
256,192,41480,1,2,0:0:0:0:
182,192,41630,1,8,0:0:0:0:
256,192,41630,1,2,0:0:0:0:
256,192,41780,1,8,0:0:0:0:
475,192,41780,1,2,0:0:0:0:
402,192,41930,1,8,0:0:0:0:
256,192,41930,1,2,0:0:0:0:
329,192,42080,1,2,0:0:0:0:
256,192,42080,1,8,0:0:0:0:
256,192,42230,1,8,0:0:0:0:
182,192,42230,1,2,0:0:0:0:
109,192,42380,1,8,0:0:0:0:
402,192,42380,1,2,0:0:0:0:
256,192,42380,128,0,42530:0:0:0:0:
36,192,42530,128,0,42680:0:0:0:0:
475,192,42680,128,0,42830:0:0:0:0:
402,192,42830,128,0,42980:0:0:0:0:
256,192,42980,128,0,43130:0:0:0:0:
109,192,43130,128,0,43280:0:0:0:0:
36,192,43280,128,0,43430:0:0:0:0:
182,192,43430,128,0,43580:0:0:0:0:
329,192,43580,128,0,43730:0:0:0:0:
475,192,43730,128,0,43880:0:0:0:0:
329,192,43880,128,0,44030:0:0:0:0:
182,192,44030,128,0,44180:0:0:0:0:
109,192,44180,128,0,44330:0:0:0:0:
256,192,44330,128,0,44480:0:0:0:0:
402,192,44480,128,0,44630:0:0:0:0:
256,192,44630,128,0,44780:0:0:0:0:
109,192,44780,1,0,0:0:0:0:
329,192,44780,1,2,0:0:0:0:
402,192,44780,1,2,0:0:0:0:
182,192,44930,1,0,0:0:0:0:
36,192,45080,1,0,0:0:0:0:
329,192,45080,1,2,0:0:0:0:
402,192,45080,1,2,0:0:0:0:
109,192,45155,1,0,0:0:0:0:
182,192,45230,1,0,0:0:0:0:
256,192,45305,1,0,0:0:0:0:
329,192,45380,1,0,0:0:0:0:
402,192,45380,1,2,0:0:0:0:
475,192,45380,1,2,0:0:0:0:
256,192,45530,1,0,0:0:0:0:
182,192,45680,1,2,0:0:0:0:
475,192,45680,1,0,0:0:0:0:
109,192,45680,1,2,0:0:0:0:
402,192,45755,1,0,0:0:0:0:
329,192,45830,1,0,0:0:0:0:
256,192,45905,1,0,0:0:0:0:
182,192,45980,1,2,0:0:0:0:
36,192,45980,1,2,0:0:0:0:
109,192,45980,128,0,46130:0:0:0:0:
256,192,46130,1,0,0:0:0:0:
402,192,46280,128,0,46430:0:0:0:0:
329,192,46280,1,8,0:0:0:0:
475,192,46280,1,8,0:0:0:0:
256,192,46430,1,0,0:0:0:0:
36,192,46580,128,2,46730:0:0:0:0:
109,192,46580,1,2,0:0:0:0:
475,192,46580,1,2,0:0:0:0:
182,192,46730,128,0,46880:0:0:0:0:
256,192,46730,1,0,0:0:0:0:
329,192,46880,128,0,47180:0:0:0:0:
402,192,46880,1,8,0:0:0:0:
475,192,46880,1,8,0:0:0:0:
256,192,47030,1,0,0:0:0:0:
36,192,47180,1,2,0:0:0:0:
109,192,47180,1,2,0:0:0:0:
402,192,47180,1,0,0:0:0:0:
182,192,47330,1,0,0:0:0:0:
256,192,47480,1,2,0:0:0:0:
475,192,47480,1,0,0:0:0:0:
329,192,47480,1,2,0:0:0:0:
402,192,47555,1,0,0:0:0:0:
182,192,47630,1,0,0:0:0:0:
329,192,47705,1,0,0:0:0:0:
109,192,47780,1,2,0:0:0:0:
36,192,47780,1,2,0:0:0:0:
256,192,47780,1,0,0:0:0:0:
329,192,47930,1,0,0:0:0:0:
256,192,48080,1,2,0:0:0:0:
182,192,48080,1,2,0:0:0:0:
36,192,48080,1,0,0:0:0:0:
109,192,48155,1,0,0:0:0:0:
329,192,48230,1,0,0:0:0:0:
182,192,48305,1,0,0:0:0:0:
402,192,48380,1,2,0:0:0:0:
475,192,48380,1,2,0:0:0:0:
36,192,48380,128,0,48530:0:0:0:0:
109,192,48530,1,0,0:0:0:0:
329,192,48680,128,0,48830:0:0:0:0:
256,192,48680,1,8,0:0:0:0:
182,192,48680,1,8,0:0:0:0:
109,192,48830,1,0,0:0:0:0:
475,192,48980,128,0,49130:0:0:0:0:
182,192,48980,1,2,0:0:0:0:
402,192,48980,1,2,0:0:0:0:
329,192,49130,128,0,49280:0:0:0:0:
256,192,49130,1,0,0:0:0:0:
182,192,49280,128,0,49580:0:0:0:0:
36,192,49280,1,8,0:0:0:0:
109,192,49280,1,8,0:0:0:0:
256,192,49430,1,0,0:0:0:0:
475,192,49580,1,2,0:0:0:0:
36,192,49580,128,0,51980:0:0:0:0:
329,192,49730,1,0,0:0:0:0:
256,192,49730,1,0,0:0:0:0:
109,192,49880,1,8,0:0:0:0:
475,192,49880,1,0,0:0:0:0:
256,192,49955,1,8,0:0:0:0:
109,192,50030,1,8,0:0:0:0:
475,192,50180,1,0,0:0:0:0:
329,192,50330,1,2,0:0:0:0:
402,192,50330,1,2,0:0:0:0:
109,192,50480,1,8,0:0:0:0:
475,192,50480,1,0,0:0:0:0:
256,192,50555,1,8,0:0:0:0:
109,192,50630,1,8,0:0:0:0:
182,192,50780,1,0,0:0:0:0:
109,192,50930,1,2,0:0:0:0:
329,192,50930,1,2,0:0:0:0:
182,192,51080,1,8,0:0:0:0:
475,192,51080,1,0,0:0:0:0:
256,192,51155,1,8,0:0:0:0:
329,192,51230,1,8,0:0:0:0:
182,192,51380,1,0,0:0:0:0:
329,192,51530,1,2,0:0:0:0:
109,192,51530,1,2,0:0:0:0:
182,192,51680,1,8,0:0:0:0:
475,192,51680,1,0,0:0:0:0:
256,192,51755,1,8,0:0:0:0:
329,192,51830,1,8,0:0:0:0:
109,192,51980,1,0,0:0:0:0:
475,192,51980,1,8,0:0:0:0:
256,192,52055,1,0,0:0:0:0:
329,192,52055,1,8,0:0:0:0:
109,192,52130,1,0,0:0:0:0:
475,192,52130,1,8,0:0:0:0:
256,192,52205,1,0,0:0:0:0:
329,192,52205,1,8,0:0:0:0:
182,192,52280,1,2,0:0:0:0:
329,192,52355,1,2,0:0:0:0:
182,192,52430,1,2,0:0:0:0:
329,192,52505,1,2,0:0:0:0:
36,192,52580,1,8,0:0:0:0:
402,192,52580,1,0,0:0:0:0:
182,192,52655,1,8,0:0:0:0:
256,192,52655,1,0,0:0:0:0:
36,192,52730,1,8,0:0:0:0:
402,192,52730,1,0,0:0:0:0:
182,192,52805,1,8,0:0:0:0:
256,192,52805,1,0,0:0:0:0:
329,192,52880,1,2,0:0:0:0:
182,192,52955,1,2,0:0:0:0:
329,192,53030,1,2,0:0:0:0:
182,192,53105,1,2,0:0:0:0:
256,192,53180,1,2,0:0:0:0:
36,192,53180,128,0,53480:0:0:0:0:
475,192,53180,128,0,53480:0:0:0:0:
256,192,53330,1,8,0:0:0:0:
182,192,53405,1,2,0:0:0:0:
329,192,53405,1,8,0:0:0:0:
109,192,53480,1,0,0:0:0:0:
402,192,53480,1,8,0:0:0:0:
256,192,53555,1,2,0:0:0:0:
109,192,53630,1,0,0:0:0:0:
402,192,53630,1,8,0:0:0:0:
256,192,53705,1,2,0:0:0:0:
402,192,53780,1,8,0:0:0:0:
109,192,53780,1,0,0:0:0:0:
256,192,53855,1,2,0:0:0:0:
402,192,53930,1,8,0:0:0:0:
109,192,53930,1,0,0:0:0:0:
36,192,54080,128,0,54230:0:0:0:0:
182,192,54080,1,8,0:0:0:0:
109,192,54230,128,0,54380:0:0:0:0:
256,192,54230,1,8,0:0:0:0:
329,192,54380,1,2,0:0:0:0:
475,192,54380,1,2,0:0:0:0:
402,192,54380,1,0,0:0:0:0:
182,192,54455,1,2,0:0:0:0:
256,192,54530,1,2,0:0:0:0:
329,192,54605,1,2,0:0:0:0:
36,192,54680,1,2,0:0:0:0:
402,192,54680,1,0,0:0:0:0:
109,192,54680,1,2,0:0:0:0:
256,192,54755,1,2,0:0:0:0:
475,192,54830,1,2,0:0:0:0:
256,192,54905,1,2,0:0:0:0:
109,192,54980,1,0,0:0:0:0:
402,192,54980,1,2,0:0:0:0:
475,192,54980,1,2,0:0:0:0:
256,192,55055,1,2,0:0:0:0:
182,192,55130,1,2,0:0:0:0:
109,192,55205,1,2,0:0:0:0:
475,192,55280,1,0,0:0:0:0:
402,192,55280,1,2,0:0:0:0:
36,192,55280,1,2,0:0:0:0:
256,192,55355,1,2,0:0:0:0:
36,192,55430,1,2,0:0:0:0:
256,192,55505,1,2,0:0:0:0:
475,192,55580,1,2,0:0:0:0:
329,192,55580,128,0,55730:0:0:0:0:
402,192,55580,1,2,0:0:0:0:
256,192,55730,1,0,0:0:0:0:
182,192,55880,128,0,56030:0:0:0:0:
36,192,55880,1,8,0:0:0:0:
109,192,55880,1,8,0:0:0:0:
256,192,56030,1,0,0:0:0:0:
475,192,56180,128,0,56330:0:0:0:0:
329,192,56180,1,2,0:0:0:0:
36,192,56180,1,2,0:0:0:0:
402,192,56330,128,0,56480:0:0:0:0:
256,192,56330,1,0,0:0:0:0:
329,192,56480,128,0,56780:0:0:0:0:
182,192,56480,1,8,0:0:0:0:
36,192,56480,1,8,0:0:0:0:
109,192,56630,1,0,0:0:0:0:
36,192,56780,1,0,0:0:0:0:
402,192,56780,1,2,0:0:0:0:
475,192,56780,1,2,0:0:0:0:
109,192,56855,1,2,0:0:0:0:
256,192,56930,1,2,0:0:0:0:
402,192,57005,1,2,0:0:0:0:
36,192,57080,1,0,0:0:0:0:
329,192,57080,1,2,0:0:0:0:
475,192,57080,1,2,0:0:0:0:
256,192,57155,1,2,0:0:0:0:
109,192,57230,1,2,0:0:0:0:
329,192,57305,1,2,0:0:0:0:
36,192,57380,1,2,0:0:0:0:
475,192,57380,1,2,0:0:0:0:
182,192,57380,1,0,0:0:0:0:
402,192,57455,1,2,0:0:0:0:
256,192,57530,1,2,0:0:0:0:
109,192,57605,1,2,0:0:0:0:
182,192,57680,1,2,0:0:0:0:
36,192,57680,1,2,0:0:0:0:
475,192,57680,1,0,0:0:0:0:
256,192,57755,1,2,0:0:0:0:
402,192,57830,1,2,0:0:0:0:
182,192,57905,1,2,0:0:0:0:
475,192,57980,1,2,0:0:0:0:
329,192,57980,1,2,0:0:0:0:
36,192,57980,128,0,58130:0:0:0:0:
109,192,58130,1,0,0:0:0:0:
475,192,58280,128,0,58430:0:0:0:0:
329,192,58280,1,8,0:0:0:0:
402,192,58280,1,8,0:0:0:0:
256,192,58430,1,0,0:0:0:0:
36,192,58580,128,0,58730:0:0:0:0:
475,192,58580,1,2,0:0:0:0:
182,192,58580,1,2,0:0:0:0:
109,192,58730,128,0,58880:0:0:0:0:
256,192,58730,1,0,0:0:0:0:
182,192,58880,128,0,59180:0:0:0:0:
475,192,58880,1,8,0:0:0:0:
329,192,58880,1,8,0:0:0:0:
402,192,59030,1,0,0:0:0:0:
256,192,59180,1,2,0:0:0:0:
329,192,59180,1,2,0:0:0:0:
475,192,59180,128,0,61580:0:0:0:0:
36,192,59180,1,0,0:0:0:0:
109,192,59330,1,0,0:0:0:0:
402,192,59480,128,2,59555:0:0:0:0:
182,192,59480,1,2,0:0:0:0:
329,192,59555,128,0,59630:0:0:0:0:
256,192,59630,128,0,59705:0:0:0:0:
182,192,59705,128,0,59780:0:0:0:0:
36,192,59780,1,2,0:0:0:0:
109,192,59930,1,0,0:0:0:0:
402,192,60080,128,2,60155:0:0:0:0:
182,192,60080,1,2,0:0:0:0:
329,192,60155,128,0,60230:0:0:0:0:
256,192,60230,128,0,60305:0:0:0:0:
182,192,60305,128,0,60380:0:0:0:0:
36,192,60380,1,2,0:0:0:0:
109,192,60530,1,0,0:0:0:0:
182,192,60680,1,2,0:0:0:0:
329,192,60680,1,2,0:0:0:0:
109,192,60830,1,0,0:0:0:0:
36,192,60980,1,8,0:0:0:0:
109,192,61055,1,0,0:0:0:0:
182,192,61130,1,0,0:0:0:0:
402,192,61205,1,0,0:0:0:0:
329,192,61280,1,8,0:0:0:0:
256,192,61355,1,0,0:0:0:0:
36,192,61430,1,8,0:0:0:0:
109,192,61505,1,0,0:0:0:0:
182,192,61580,1,8,0:0:0:0:
402,192,61580,1,2,0:0:0:0:
109,192,61655,1,8,0:0:0:0:
329,192,61655,1,2,0:0:0:0:
36,192,61730,1,8,0:0:0:0:
256,192,61730,1,2,0:0:0:0:
109,192,61805,1,8,0:0:0:0:
329,192,61805,1,2,0:0:0:0:
402,192,61880,1,2,0:0:0:0:
182,192,61880,1,8,0:0:0:0:
36,192,61955,1,0,0:0:0:0:
475,192,61955,1,2,0:0:0:0:
109,192,62030,1,0,0:0:0:0:
402,192,62030,1,2,0:0:0:0:
329,192,62105,1,2,0:0:0:0:
182,192,62105,1,0,0:0:0:0:
36,192,62180,1,0,0:0:0:0:
256,192,62180,1,2,0:0:0:0:
109,192,62255,1,2,0:0:0:0:
182,192,62330,1,2,0:0:0:0:
402,192,62405,1,2,0:0:0:0:
329,192,62480,1,2,0:0:0:0:
109,192,62480,1,0,0:0:0:0:
36,192,62555,1,2,0:0:0:0:
256,192,62630,1,2,0:0:0:0:
182,192,62705,1,2,0:0:0:0:
329,192,62780,1,8,0:0:0:0:
475,192,62780,1,8,0:0:0:0:
402,192,62855,1,2,0:0:0:0:
109,192,62930,1,10,0:0:0:0:
36,192,63005,1,2,0:0:0:0:
182,192,63080,1,8,0:0:0:0:
475,192,63080,1,8,0:0:0:0:
256,192,63155,1,2,0:0:0:0:
402,192,63230,1,10,0:0:0:0:
256,192,63305,1,2,0:0:0:0:
36,192,63380,1,8,0:0:0:0:
182,192,63380,1,8,0:0:0:0:
475,192,63380,1,0,0:0:0:0:
402,192,63455,1,2,0:0:0:0:
329,192,63530,1,10,0:0:0:0:
256,192,63605,1,2,0:0:0:0:
36,192,63680,1,8,0:0:0:0:
109,192,63680,1,8,0:0:0:0:
182,192,63755,1,2,0:0:0:0:
256,192,63830,1,10,0:0:0:0:
329,192,63905,1,2,0:0:0:0:
402,192,63980,1,2,0:0:0:0:
475,192,63980,1,2,0:0:0:0:
36,192,63980,1,8,0:0:0:0:
109,192,63980,1,8,0:0:0:0:
256,192,64130,1,0,0:0:0:0:
109,192,64430,1,0,0:0:0:0:
402,192,64580,1,0,0:0:0:0:
256,192,64730,1,0,0:0:0:0:
475,192,64880,1,0,0:0:0:0:
329,192,65030,1,0,0:0:0:0:
256,192,65330,1,0,0:0:0:0:
182,192,65480,1,0,0:0:0:0:
36,192,65630,1,0,0:0:0:0:
109,192,65780,1,0,0:0:0:0:
329,192,65930,1,0,0:0:0:0:
475,192,66080,1,0,0:0:0:0:
329,192,66230,1,0,0:0:0:0:
109,192,66380,128,8,66980:0:0:0:0:
402,192,66380,128,8,66980:0:0:0:0:
182,192,66680,128,8,66980:0:0:0:0:
256,192,66830,128,8,66980:0:0:0:0:
329,192,66980,1,0,0:0:0:0:
182,192,67130,1,0,0:0:0:0:
329,192,67280,1,2,0:0:0:0:
256,192,67430,1,2,0:0:0:0:
182,192,67580,1,2,0:0:0:0:
329,192,67580,1,8,0:0:0:0:
109,192,67880,1,2,0:0:0:0:
402,192,68030,1,2,0:0:0:0:
109,192,68180,1,8,0:0:0:0:
256,192,68180,1,8,0:0:0:0:
36,192,68330,1,0,0:0:0:0:
402,192,68480,1,2,0:0:0:0:
475,192,68630,1,2,0:0:0:0:
36,192,68780,1,8,0:0:0:0:
256,192,68780,1,2,0:0:0:0:
182,192,68930,1,0,0:0:0:0:
402,192,69080,128,0,69230:0:0:0:0:
109,192,69080,1,2,0:0:0:0:
256,192,69230,1,2,0:0:0:0:
182,192,69380,1,8,0:0:0:0:
36,192,69380,1,8,0:0:0:0:
402,192,69530,128,0,69680:0:0:0:0:
109,192,69530,1,0,0:0:0:0:
182,192,69680,1,2,0:0:0:0:
402,192,69830,128,0,69980:0:0:0:0:
36,192,69830,1,2,0:0:0:0:
109,192,69980,1,8,0:0:0:0:
256,192,69980,1,2,0:0:0:0:
329,192,70130,1,0,0:0:0:0:
475,192,70280,128,0,70430:0:0:0:0:
182,192,70280,1,2,0:0:0:0:
109,192,70430,1,2,0:0:0:0:
36,192,70580,1,8,0:0:0:0:
329,192,70580,1,8,0:0:0:0:
475,192,70730,128,0,70880:0:0:0:0:
256,192,70730,1,0,0:0:0:0:
109,192,70880,1,2,0:0:0:0:
475,192,71030,128,0,71180:0:0:0:0:
182,192,71030,1,2,0:0:0:0:
256,192,71180,1,2,0:0:0:0:
402,192,71180,1,8,0:0:0:0:
36,192,71255,1,2,0:0:0:0:
329,192,71330,1,2,0:0:0:0:
109,192,71405,1,2,0:0:0:0:
402,192,71480,1,2,0:0:0:0:
36,192,71555,1,2,0:0:0:0:
256,192,71630,1,8,0:0:0:0:
182,192,71630,1,2,0:0:0:0:
475,192,71705,1,2,0:0:0:0:
109,192,71780,1,2,0:0:0:0:
402,192,71855,1,2,0:0:0:0:
182,192,71930,1,2,0:0:0:0:
475,192,72005,1,2,0:0:0:0:
256,192,72080,1,2,0:0:0:0:
329,192,72080,1,8,0:0:0:0:
182,192,72155,1,2,0:0:0:0:
402,192,72230,1,2,0:0:0:0:
109,192,72305,1,2,0:0:0:0:
256,192,72380,1,8,0:0:0:0:
36,192,72380,1,2,0:0:0:0:
182,192,72380,1,8,0:0:0:0:
329,192,72455,1,0,0:0:0:0:
402,192,72530,1,8,0:0:0:0:
475,192,72605,1,0,0:0:0:0:
256,192,72680,1,8,0:0:0:0:
36,192,72680,1,2,0:0:0:0:
109,192,72680,1,8,0:0:0:0:
329,192,72755,1,0,0:0:0:0:
402,192,72830,1,8,0:0:0:0:
475,192,72905,1,0,0:0:0:0:
256,192,72980,1,8,0:0:0:0:
36,192,72980,1,2,0:0:0:0:
182,192,72980,1,8,0:0:0:0:
329,192,73055,1,0,0:0:0:0:
402,192,73130,1,8,0:0:0:0:
475,192,73205,1,0,0:0:0:0:
402,192,73280,1,8,0:0:0:0:
109,192,73280,1,8,0:0:0:0:
256,192,73280,1,2,0:0:0:0:
329,192,73355,1,0,0:0:0:0:
256,192,73430,1,8,0:0:0:0:
182,192,73505,1,0,0:0:0:0:
109,192,73580,1,2,0:0:0:0:
475,192,73580,128,4,74480:0:0:0:0:
402,192,73580,1,4,0:0:0:0:
36,192,73580,1,8,0:0:0:0:
36,192,73880,1,8,0:0:0:0:
182,192,73880,1,2,0:0:0:0:
402,192,74030,128,0,74480:0:0:0:0:
329,192,74180,128,0,74480:0:0:0:0:
182,192,74180,1,2,0:0:0:0:
256,192,74180,1,8,0:0:0:0:
109,192,74480,1,8,0:0:0:0:
182,192,74480,1,2,0:0:0:0:
329,192,74780,1,2,0:0:0:0:
36,192,74780,1,8,0:0:0:0:
475,192,75080,1,8,0:0:0:0:
36,192,75080,128,0,75380:0:0:0:0:
256,192,75080,1,2,0:0:0:0:
182,192,75380,128,0,75680:0:0:0:0:
329,192,75380,1,2,0:0:0:0:
402,192,75380,1,8,0:0:0:0:
329,192,75680,128,0,75980:0:0:0:0:
109,192,75680,1,2,0:0:0:0:
475,192,75680,1,8,0:0:0:0:
36,192,75980,128,0,76880:0:0:0:0:
182,192,75980,1,2,0:0:0:0:
109,192,75980,1,8,0:0:0:0:
256,192,76055,1,2,0:0:0:0:
329,192,76130,1,2,0:0:0:0:
402,192,76205,1,2,0:0:0:0:
182,192,76280,1,2,0:0:0:0:
256,192,76280,1,8,0:0:0:0:
329,192,76355,1,2,0:0:0:0:
109,192,76430,128,0,76880:0:0:0:0:
402,192,76430,1,2,0:0:0:0:
475,192,76505,1,2,0:0:0:0:
182,192,76580,128,0,76880:0:0:0:0:
256,192,76580,1,8,0:0:0:0:
329,192,76580,1,2,0:0:0:0:
475,192,76655,1,2,0:0:0:0:
256,192,76730,1,2,0:0:0:0:
475,192,76805,1,2,0:0:0:0:
256,192,76880,1,8,0:0:0:0:
329,192,76880,1,2,0:0:0:0:
475,192,76955,1,2,0:0:0:0:
402,192,77030,1,2,0:0:0:0:
329,192,77105,1,2,0:0:0:0:
182,192,77180,1,8,0:0:0:0:
256,192,77180,1,2,0:0:0:0:
402,192,77255,1,2,0:0:0:0:
329,192,77330,1,2,0:0:0:0:
256,192,77405,1,2,0:0:0:0:
182,192,77480,1,2,0:0:0:0:
109,192,77480,1,8,0:0:0:0:
329,192,77555,1,2,0:0:0:0:
256,192,77630,1,2,0:0:0:0:
182,192,77705,1,2,0:0:0:0:
109,192,77780,1,2,0:0:0:0:
36,192,77780,1,8,0:0:0:0:
402,192,77855,1,2,0:0:0:0:
329,192,77930,1,2,0:0:0:0:
256,192,78005,1,2,0:0:0:0:
182,192,78080,1,2,0:0:0:0:
109,192,78080,1,8,0:0:0:0:
329,192,78155,1,2,0:0:0:0:
256,192,78230,1,2,0:0:0:0:
182,192,78305,1,2,0:0:0:0:
329,192,78380,128,4,78680:0:0:0:0:
36,192,78380,1,8,0:0:0:0:
109,192,78380,1,2,0:0:0:0:
402,192,78380,128,4,78680:0:0:0:0:
109,192,78680,1,2,0:0:0:0:
256,192,78680,1,2,0:0:0:0:
109,192,78830,1,2,0:0:0:0:
256,192,78830,1,2,0:0:0:0:
109,192,78980,1,2,0:0:0:0:
256,192,78980,1,2,0:0:0:0:
256,192,79130,1,2,0:0:0:0:
402,192,79130,1,2,0:0:0:0:
402,192,79280,1,2,0:0:0:0:
256,192,79280,1,2,0:0:0:0:
402,192,79430,1,2,0:0:0:0:
256,192,79430,1,2,0:0:0:0:
36,192,79580,1,8,0:0:0:0:
182,192,79580,1,2,0:0:0:0:
329,192,79580,1,2,0:0:0:0:
36,192,79730,1,8,0:0:0:0:
182,192,79730,1,2,0:0:0:0:
329,192,79730,1,2,0:0:0:0:
36,192,79880,1,8,0:0:0:0:
256,192,79880,1,2,0:0:0:0:
402,192,79880,1,2,0:0:0:0:
36,192,80030,1,8,0:0:0:0:
256,192,80030,1,2,0:0:0:0:
402,192,80030,1,2,0:0:0:0:
475,192,80180,1,8,0:0:0:0:
182,192,80180,1,2,0:0:0:0:
329,192,80180,1,2,0:0:0:0:
329,192,80330,1,2,0:0:0:0:
182,192,80330,1,2,0:0:0:0:
475,192,80330,1,8,0:0:0:0:
475,192,80480,1,8,0:0:0:0:
109,192,80480,1,0,0:0:0:0:
256,192,80480,1,0,0:0:0:0:
256,192,80630,1,0,0:0:0:0:
109,192,80630,1,0,0:0:0:0:
475,192,80630,1,8,0:0:0:0:
182,192,80780,128,0,81980:0:0:0:0:
329,192,80780,128,0,81980:0:0:0:0:
36,192,80780,1,2,0:0:0:0:
109,192,80855,1,2,0:0:0:0:
256,192,80930,1,2,0:0:0:0:
402,192,81005,1,2,0:0:0:0:
475,192,81080,1,2,0:0:0:0:
36,192,81155,1,2,0:0:0:0:
109,192,81230,1,2,0:0:0:0:
256,192,81305,1,2,0:0:0:0:
402,192,81380,1,2,0:0:0:0:
475,192,81455,1,2,0:0:0:0:
402,192,81530,1,2,0:0:0:0:
256,192,81605,1,2,0:0:0:0:
109,192,81680,1,2,0:0:0:0:
36,192,81755,1,2,0:0:0:0:
475,192,81830,1,2,0:0:0:0:
402,192,81905,1,2,0:0:0:0:
36,192,81980,1,0,0:0:0:0:
109,192,81980,1,8,0:0:0:0:
402,192,82055,1,8,0:0:0:0:
475,192,82055,1,0,0:0:0:0:
329,192,82130,1,0,0:0:0:0:
182,192,82205,1,0,0:0:0:0:
475,192,82280,1,0,0:0:0:0:
402,192,82280,1,8,0:0:0:0:
36,192,82355,1,0,0:0:0:0:
109,192,82355,1,8,0:0:0:0:
182,192,82430,1,0,0:0:0:0:
329,192,82505,1,0,0:0:0:0:
36,192,82580,1,0,0:0:0:0:
109,192,82580,128,0,82880:0:0:0:0:
182,192,82580,1,8,0:0:0:0:
475,192,82655,1,0,0:0:0:0:
329,192,82655,1,8,0:0:0:0:
256,192,82730,1,0,0:0:0:0:
182,192,82805,1,0,0:0:0:0:
402,192,82880,128,4,83180:0:0:0:0:
329,192,82880,1,8,0:0:0:0:
475,192,82880,1,8,0:0:0:0:
36,192,83180,128,0,85580:0:0:0:0:
182,192,83180,1,0,0:0:0:0:
109,192,83330,1,8,0:0:0:0:
256,192,83330,1,2,0:0:0:0:
402,192,83480,1,0,0:0:0:0:
329,192,83555,1,0,0:0:0:0:
109,192,83630,1,8,0:0:0:0:
256,192,83630,1,2,0:0:0:0:
402,192,83780,1,0,0:0:0:0:
329,192,83930,1,2,0:0:0:0:
475,192,83930,1,8,0:0:0:0:
182,192,84080,1,0,0:0:0:0:
256,192,84155,1,0,0:0:0:0:
329,192,84230,1,2,0:0:0:0:
475,192,84230,1,8,0:0:0:0:
109,192,84380,1,0,0:0:0:0:
182,192,84530,1,8,0:0:0:0:
329,192,84530,1,2,0:0:0:0:
475,192,84680,1,0,0:0:0:0:
402,192,84755,1,0,0:0:0:0:
182,192,84830,1,8,0:0:0:0:
329,192,84830,1,2,0:0:0:0:
475,192,84980,1,0,0:0:0:0:
402,192,85130,1,8,0:0:0:0:
256,192,85130,1,2,0:0:0:0:
109,192,85280,1,0,0:0:0:0:
182,192,85355,1,0,0:0:0:0:
256,192,85430,1,2,0:0:0:0:
402,192,85430,1,8,0:0:0:0:
329,192,85580,128,0,87980:0:0:0:0:
475,192,85580,1,8,0:0:0:0:
109,192,85580,1,2,0:0:0:0:
182,192,85655,1,2,0:0:0:0:
256,192,85730,1,2,0:0:0:0:
36,192,85805,1,2,0:0:0:0:
402,192,85880,1,2,0:0:0:0:
109,192,85880,1,8,0:0:0:0:
256,192,85955,1,2,0:0:0:0:
182,192,86030,1,2,0:0:0:0:
109,192,86105,1,2,0:0:0:0:
475,192,86180,1,2,0:0:0:0:
256,192,86180,1,8,0:0:0:0:
182,192,86255,1,2,0:0:0:0:
109,192,86330,1,2,0:0:0:0:
182,192,86405,1,2,0:0:0:0:
36,192,86480,128,0,86780:0:0:0:0:
256,192,86480,1,2,0:0:0:0:
475,192,86555,1,2,0:0:0:0:
402,192,86630,1,2,0:0:0:0:
182,192,86705,1,2,0:0:0:0:
109,192,86780,128,0,87230:0:0:0:0:
256,192,86780,1,2,0:0:0:0:
402,192,86855,1,2,0:0:0:0:
475,192,86930,1,2,0:0:0:0:
182,192,87005,1,2,0:0:0:0:
256,192,87080,1,2,0:0:0:0:
475,192,87155,1,2,0:0:0:0:
182,192,87230,128,0,87980:0:0:0:0:
402,192,87230,1,2,0:0:0:0:
36,192,87305,1,2,0:0:0:0:
402,192,87380,1,2,0:0:0:0:
109,192,87455,1,2,0:0:0:0:
475,192,87530,1,2,0:0:0:0:
36,192,87605,1,2,0:0:0:0:
256,192,87680,128,0,87980:0:0:0:0:
402,192,87680,1,2,0:0:0:0:
109,192,87755,1,2,0:0:0:0:
475,192,87830,1,2,0:0:0:0:
36,192,87905,1,2,0:0:0:0:
475,192,87980,128,0,90380:0:0:0:0:
402,192,87980,1,0,0:0:0:0:
36,192,88130,1,2,0:0:0:0:
182,192,88130,1,8,0:0:0:0:
329,192,88280,1,0,0:0:0:0:
256,192,88355,1,0,0:0:0:0:
36,192,88430,1,2,0:0:0:0:
182,192,88430,1,8,0:0:0:0:
109,192,88580,1,0,0:0:0:0:
256,192,88730,1,8,0:0:0:0:
402,192,88730,1,2,0:0:0:0:
109,192,88880,1,0,0:0:0:0:
182,192,88955,1,0,0:0:0:0:
256,192,89030,1,8,0:0:0:0:
402,192,89030,1,2,0:0:0:0:
182,192,89180,1,0,0:0:0:0:
109,192,89330,1,8,0:0:0:0:
36,192,89330,1,2,0:0:0:0:
256,192,89480,1,0,0:0:0:0:
329,192,89555,1,0,0:0:0:0:
36,192,89630,1,8,0:0:0:0:
402,192,89630,1,2,0:0:0:0:
256,192,89780,1,0,0:0:0:0:
329,192,89930,1,2,0:0:0:0:
402,192,89930,1,8,0:0:0:0:
182,192,90080,1,0,0:0:0:0:
109,192,90155,1,0,0:0:0:0:
36,192,90230,1,2,0:0:0:0:
402,192,90230,1,8,0:0:0:0:
109,192,90380,128,0,90530:0:0:0:0:
256,192,90380,1,0,0:0:0:0:
182,192,90380,1,0,0:0:0:0:
329,192,90530,1,0,0:0:0:0:
182,192,90680,128,0,90830:0:0:0:0:
475,192,90680,1,0,0:0:0:0:
256,192,90680,1,0,0:0:0:0:
402,192,90830,1,0,0:0:0:0:
36,192,90980,128,0,91130:0:0:0:0:
256,192,90980,1,0,0:0:0:0:
109,192,91130,128,0,91280:0:0:0:0:
329,192,91130,1,0,0:0:0:0:
402,192,91280,128,0,91430:0:0:0:0:
182,192,91280,1,0,0:0:0:0:
475,192,91430,128,0,91580:0:0:0:0:
256,192,91430,1,0,0:0:0:0:
36,192,91580,128,0,92180:0:0:0:0:
182,192,91580,1,8,0:0:0:0:
256,192,91655,1,8,0:0:0:0:
329,192,91730,1,8,0:0:0:0:
402,192,91805,1,8,0:0:0:0:
109,192,91880,1,8,0:0:0:0:
182,192,91955,1,8,0:0:0:0:
256,192,92030,1,8,0:0:0:0:
329,192,92105,1,8,0:0:0:0:
182,192,92180,128,0,92780:0:0:0:0:
256,192,92180,1,0,0:0:0:0:
402,192,92255,1,0,0:0:0:0:
256,192,92330,1,0,0:0:0:0:
402,192,92405,1,0,0:0:0:0:
329,192,92480,1,8,0:0:0:0:
475,192,92555,1,8,0:0:0:0:
329,192,92630,1,8,0:0:0:0:
475,192,92705,1,8,0:0:0:0:
36,192,92780,128,0,95180:0:0:0:0:
109,192,92780,1,0,0:0:0:0:
256,192,92930,1,2,0:0:0:0:
475,192,92930,1,8,0:0:0:0:
182,192,93080,1,0,0:0:0:0:
109,192,93155,1,0,0:0:0:0:
256,192,93230,1,8,0:0:0:0:
475,192,93230,1,2,0:0:0:0:
402,192,93380,1,0,0:0:0:0:
329,192,93530,1,8,0:0:0:0:
109,192,93530,1,2,0:0:0:0:
256,192,93680,1,0,0:0:0:0:
182,192,93755,1,0,0:0:0:0:
109,192,93830,1,8,0:0:0:0:
329,192,93830,1,2,0:0:0:0:
402,192,93980,1,0,0:0:0:0:
109,192,94130,1,2,0:0:0:0:
329,192,94130,1,8,0:0:0:0:
402,192,94280,1,0,0:0:0:0:
475,192,94355,1,0,0:0:0:0:
109,192,94430,1,2,0:0:0:0:
329,192,94430,1,8,0:0:0:0:
182,192,94580,1,0,0:0:0:0:
256,192,94730,1,8,0:0:0:0:
475,192,94730,1,2,0:0:0:0:
329,192,94880,1,0,0:0:0:0:
402,192,94955,1,0,0:0:0:0:
256,192,95030,1,8,0:0:0:0:
475,192,95030,1,2,0:0:0:0:
256,192,95180,128,0,97580:0:0:0:0:
109,192,95180,1,0,0:0:0:0:
36,192,95330,1,8,0:0:0:0:
182,192,95330,1,2,0:0:0:0:
402,192,95480,1,0,0:0:0:0:
109,192,95555,1,0,0:0:0:0:
475,192,95630,1,2,0:0:0:0:
329,192,95630,1,0,0:0:0:0:
182,192,95780,1,0,0:0:0:0:
109,192,95930,1,8,0:0:0:0:
402,192,95930,1,2,0:0:0:0:
36,192,96080,128,0,96155:0:0:0:0:
475,192,96080,128,0,96155:0:0:0:0:
36,192,96230,128,0,96305:0:0:0:0:
475,192,96230,128,0,96305:0:0:0:0:
36,192,96380,128,0,97580:0:0:0:0:
475,192,96380,128,0,97580:0:0:0:0:
109,192,96380,1,0,0:0:0:0:
182,192,96530,1,8,0:0:0:0:
329,192,96680,1,0,0:0:0:0:
402,192,96755,1,0,0:0:0:0:
329,192,96830,1,0,0:0:0:0:
109,192,96830,1,8,0:0:0:0:
402,192,96980,1,0,0:0:0:0:
329,192,97130,1,8,0:0:0:0:
182,192,97280,1,0,0:0:0:0:
109,192,97355,1,0,0:0:0:0:
402,192,97430,1,8,0:0:0:0:
182,192,97430,1,0,0:0:0:0:
109,192,97580,128,0,98780:0:0:0:0:
329,192,97580,1,0,0:0:0:0:
402,192,97730,1,8,0:0:0:0:
475,192,97730,1,2,0:0:0:0:
182,192,97880,1,0,0:0:0:0:
256,192,97955,1,0,0:0:0:0:
475,192,98030,1,2,0:0:0:0:
36,192,98030,1,8,0:0:0:0:
329,192,98180,1,0,0:0:0:0:
182,192,98330,1,2,0:0:0:0:
256,192,98330,1,8,0:0:0:0:
475,192,98480,1,0,0:0:0:0:
402,192,98555,1,0,0:0:0:0:
256,192,98630,1,8,0:0:0:0:
36,192,98630,1,2,0:0:0:0:
402,192,98780,128,0,99980:0:0:0:0:
182,192,98780,1,0,0:0:0:0:
256,192,98930,1,8,0:0:0:0:
475,192,98930,1,2,0:0:0:0:
36,192,99080,1,0,0:0:0:0:
109,192,99155,1,0,0:0:0:0:
182,192,99230,1,2,0:0:0:0:
256,192,99230,1,8,0:0:0:0:
329,192,99380,1,0,0:0:0:0:
256,192,99530,1,8,0:0:0:0:
475,192,99530,1,2,0:0:0:0:
36,192,99680,1,0,0:0:0:0:
109,192,99755,1,0,0:0:0:0:
182,192,99830,1,2,0:0:0:0:
256,192,99830,1,8,0:0:0:0:
36,192,99980,128,0,101180:0:0:0:0:
109,192,99980,1,0,0:0:0:0:
329,192,100130,1,2,0:0:0:0:
182,192,100130,1,8,0:0:0:0:
402,192,100280,1,0,0:0:0:0:
475,192,100355,1,0,0:0:0:0:
109,192,100430,1,2,0:0:0:0:
329,192,100430,1,8,0:0:0:0:
256,192,100580,1,0,0:0:0:0:
329,192,100730,1,8,0:0:0:0:
475,192,100730,1,2,0:0:0:0:
109,192,100880,1,0,0:0:0:0:
182,192,100955,1,0,0:0:0:0:
475,192,101030,1,2,0:0:0:0:
256,192,101030,1,8,0:0:0:0:
402,192,101180,128,0,101255:0:0:0:0:
109,192,101180,1,0,0:0:0:0:
402,192,101330,128,0,101405:0:0:0:0:
182,192,101330,1,0,0:0:0:0:
402,192,101480,128,0,101555:0:0:0:0:
109,192,101480,1,0,0:0:0:0:
475,192,101630,128,0,101780:0:0:0:0:
36,192,101630,1,8,0:0:0:0:
256,192,101630,1,0,0:0:0:0:
109,192,101705,1,8,0:0:0:0:
329,192,101780,128,0,101855:0:0:0:0:
182,192,101780,1,8,0:0:0:0:
329,192,101930,128,0,102005:0:0:0:0:
109,192,101930,1,0,0:0:0:0:
329,192,102080,128,0,102230:0:0:0:0:
36,192,102080,1,8,0:0:0:0:
256,192,102080,1,0,0:0:0:0:
109,192,102155,1,8,0:0:0:0:
182,192,102230,1,8,0:0:0:0:
36,192,102380,128,0,104780:0:0:0:0:
475,192,102380,1,0,0:0:0:0:
329,192,102530,1,2,0:0:0:0:
256,192,102530,1,8,0:0:0:0:
109,192,102680,1,0,0:0:0:0:
182,192,102755,1,0,0:0:0:0:
256,192,102830,1,8,0:0:0:0:
475,192,102830,1,2,0:0:0:0:
329,192,102980,1,0,0:0:0:0:
182,192,103130,1,8,0:0:0:0:
109,192,103130,1,2,0:0:0:0:
475,192,103280,1,0,0:0:0:0:
402,192,103355,1,0,0:0:0:0:
109,192,103430,1,2,0:0:0:0:
329,192,103430,1,8,0:0:0:0:
182,192,103580,128,0,104780:0:0:0:0:
475,192,103580,128,0,103730:0:0:0:0:
256,192,103580,1,0,0:0:0:0:
329,192,103880,128,0,104030:0:0:0:0:
109,192,103880,1,0,0:0:0:0:
256,192,104180,128,0,104330:0:0:0:0:
475,192,104180,1,0,0:0:0:0:
329,192,104330,128,0,104480:0:0:0:0:
402,192,104480,128,0,104630:0:0:0:0:
109,192,104480,1,0,0:0:0:0:
475,192,104630,128,0,104780:0:0:0:0:
109,192,104780,128,0,105980:0:0:0:0:
256,192,104780,1,2,0:0:0:0:
329,192,104855,1,2,0:0:0:0:
402,192,104930,1,2,0:0:0:0:
475,192,105005,1,2,0:0:0:0:
256,192,105080,1,2,0:0:0:0:
329,192,105155,1,2,0:0:0:0:
182,192,105230,128,0,105980:0:0:0:0:
402,192,105230,1,2,0:0:0:0:
475,192,105305,1,2,0:0:0:0:
256,192,105380,1,2,0:0:0:0:
329,192,105380,1,2,0:0:0:0:
329,192,105680,1,2,0:0:0:0:
256,192,105680,1,2,0:0:0:0:
475,192,105980,128,0,107180:0:0:0:0:
256,192,105980,1,2,0:0:0:0:
182,192,106055,1,2,0:0:0:0:
109,192,106130,1,2,0:0:0:0:
36,192,106205,1,2,0:0:0:0:
256,192,106280,1,2,0:0:0:0:
182,192,106355,1,2,0:0:0:0:
329,192,106430,128,0,107180:0:0:0:0:
109,192,106430,1,2,0:0:0:0:
36,192,106505,1,2,0:0:0:0:
256,192,106580,1,8,0:0:0:0:
109,192,106655,1,8,0:0:0:0:
256,192,106730,1,8,0:0:0:0:
402,192,106805,1,8,0:0:0:0:
109,192,106880,1,8,0:0:0:0:
256,192,106955,1,8,0:0:0:0:
402,192,107030,1,8,0:0:0:0:
109,192,107105,1,8,0:0:0:0:
256,192,107180,1,8,0:0:0:0:
402,192,107180,128,0,108380:0:0:0:0:
109,192,107330,1,8,0:0:0:0:
36,192,107330,1,2,0:0:0:0:
256,192,107480,1,0,0:0:0:0:
109,192,107630,1,8,0:0:0:0:
36,192,107630,1,2,0:0:0:0:
329,192,107780,1,0,0:0:0:0:
182,192,107930,1,8,0:0:0:0:
256,192,107930,1,2,0:0:0:0:
329,192,108080,1,0,0:0:0:0:
182,192,108230,1,8,0:0:0:0:
256,192,108230,1,2,0:0:0:0:
109,192,108380,128,0,109580:0:0:0:0:
475,192,108380,1,0,0:0:0:0:
36,192,108380,1,8,0:0:0:0:
402,192,108455,1,8,0:0:0:0:
329,192,108530,1,2,0:0:0:0:
182,192,108605,1,2,0:0:0:0:
256,192,108680,1,0,0:0:0:0:
36,192,108680,1,8,0:0:0:0:
329,192,108755,1,8,0:0:0:0:
475,192,108830,1,2,0:0:0:0:
402,192,108905,1,2,0:0:0:0:
329,192,108980,1,0,0:0:0:0:
36,192,108980,1,8,0:0:0:0:
182,192,109055,1,8,0:0:0:0:
256,192,109130,1,2,0:0:0:0:
329,192,109205,1,2,0:0:0:0:
475,192,109280,1,0,0:0:0:0:
36,192,109280,1,8,0:0:0:0:
402,192,109355,1,8,0:0:0:0:
329,192,109430,1,2,0:0:0:0:
182,192,109505,1,2,0:0:0:0:
256,192,109580,1,8,0:0:0:0:
36,192,109580,1,8,0:0:0:0:
109,192,110780,1,8,0:0:0:0:
256,192,110780,1,8,0:0:0:0:
402,192,110780,1,8,0:0:0:0:
36,192,111980,128,4,112430:0:0:0:0:
475,192,111980,1,8,0:0:0:0:
402,192,112055,1,8,0:0:0:0:
329,192,112130,1,0,0:0:0:0:
109,192,112130,1,8,0:0:0:0:
182,192,112205,1,2,0:0:0:0:
256,192,112280,1,2,0:0:0:0:
329,192,112355,1,2,0:0:0:0:
109,192,112430,128,0,112880:0:0:0:0:
182,192,112430,1,8,0:0:0:0:
402,192,112430,1,0,0:0:0:0:
256,192,112505,1,2,0:0:0:0:
329,192,112580,1,2,0:0:0:0:
402,192,112655,1,2,0:0:0:0:
475,192,112730,1,0,0:0:0:0:
182,192,112730,1,8,0:0:0:0:
256,192,112805,1,2,0:0:0:0:
329,192,112880,128,0,113180:0:0:0:0:
36,192,112880,1,2,0:0:0:0:
109,192,112955,1,2,0:0:0:0:
182,192,113030,1,0,0:0:0:0:
475,192,113030,1,8,0:0:0:0:
256,192,113105,1,2,0:0:0:0:
402,192,113180,128,0,113630:0:0:0:0:
36,192,113180,1,2,0:0:0:0:
109,192,113255,1,2,0:0:0:0:
182,192,113330,1,0,0:0:0:0:
475,192,113330,1,8,0:0:0:0:
329,192,113405,1,2,0:0:0:0:
256,192,113480,1,2,0:0:0:0:
182,192,113555,1,2,0:0:0:0:
475,192,113630,128,0,114080:0:0:0:0:
109,192,113630,1,8,0:0:0:0:
329,192,113630,1,0,0:0:0:0:
256,192,113705,1,2,0:0:0:0:
182,192,113780,1,2,0:0:0:0:
109,192,113855,1,2,0:0:0:0:
36,192,113930,1,8,0:0:0:0:
329,192,113930,1,0,0:0:0:0:
109,192,114005,1,2,0:0:0:0:
36,192,114080,128,0,114380:0:0:0:0:
256,192,114080,128,0,114380:0:0:0:0:
182,192,114080,1,2,0:0:0:0:
109,192,114230,1,8,0:0:0:0:
329,192,114380,128,0,114830:0:0:0:0:
182,192,114380,1,0,0:0:0:0:
475,192,114380,128,0,115580:0:0:0:0:
256,192,114530,1,8,0:0:0:0:
109,192,114530,1,2,0:0:0:0:
182,192,114680,1,0,0:0:0:0:
109,192,114830,128,0,116780:0:0:0:0:
402,192,114830,1,8,0:0:0:0:
36,192,114830,1,2,0:0:0:0:
182,192,114980,1,0,0:0:0:0:
402,192,115130,1,8,0:0:0:0:
36,192,115130,1,2,0:0:0:0:
256,192,115280,1,0,0:0:0:0:
402,192,115430,1,2,0:0:0:0:
36,192,115430,1,8,0:0:0:0:
329,192,115580,1,0,0:0:0:0:
402,192,115730,128,0,115880:0:0:0:0:
475,192,115730,1,8,0:0:0:0:
36,192,115730,1,2,0:0:0:0:
182,192,115880,1,0,0:0:0:0:
402,192,116030,128,0,116105:0:0:0:0:
36,192,116030,1,8,0:0:0:0:
402,192,116180,128,0,116255:0:0:0:0:
36,192,116180,1,2,0:0:0:0:
402,192,116330,128,0,116630:0:0:0:0:
36,192,116330,1,8,0:0:0:0:
256,192,116480,1,0,0:0:0:0:
475,192,116630,1,2,0:0:0:0:
36,192,116630,1,8,0:0:0:0:
256,192,116780,1,4,0:0:0:0:
475,192,116780,128,0,117230:0:0:0:0:
329,192,116855,1,0,0:0:0:0:
109,192,116930,1,8,0:0:0:0:
182,192,116930,1,2,0:0:0:0:
329,192,117005,1,0,0:0:0:0:
256,192,117080,1,0,0:0:0:0:
182,192,117155,1,0,0:0:0:0:
402,192,117230,128,0,117680:0:0:0:0:
36,192,117230,1,2,0:0:0:0:
109,192,117230,1,8,0:0:0:0:
182,192,117305,1,0,0:0:0:0:
256,192,117380,1,0,0:0:0:0:
329,192,117455,1,0,0:0:0:0:
182,192,117530,1,2,0:0:0:0:
109,192,117530,1,8,0:0:0:0:
36,192,117605,1,0,0:0:0:0:
256,192,117680,128,0,117980:0:0:0:0:
329,192,117680,1,0,0:0:0:0:
109,192,117755,1,0,0:0:0:0:
402,192,117830,1,8,0:0:0:0:
475,192,117830,1,2,0:0:0:0:
109,192,117905,1,0,0:0:0:0:
182,192,117980,128,0,118430:0:0:0:0:
329,192,117980,1,0,0:0:0:0:
475,192,118055,1,0,0:0:0:0:
36,192,118130,1,2,0:0:0:0:
402,192,118130,1,8,0:0:0:0:
329,192,118205,1,0,0:0:0:0:
475,192,118280,1,0,0:0:0:0:
329,192,118355,1,0,0:0:0:0:
109,192,118430,128,0,118880:0:0:0:0:
36,192,118430,1,2,0:0:0:0:
402,192,118430,1,8,0:0:0:0:
475,192,118505,1,0,0:0:0:0:
402,192,118580,1,0,0:0:0:0:
329,192,118655,1,0,0:0:0:0:
256,192,118730,1,8,0:0:0:0:
475,192,118730,1,2,0:0:0:0:
36,192,118880,128,0,119180:0:0:0:0:
402,192,118880,1,0,0:0:0:0:
329,192,119030,1,8,0:0:0:0:
182,192,119030,1,2,0:0:0:0:
109,192,119180,128,4,119330:0:0:0:0:
402,192,119180,1,0,0:0:0:0:
182,192,119330,128,0,119480:0:0:0:0:
475,192,119330,1,2,0:0:0:0:
256,192,119330,1,8,0:0:0:0:
329,192,119480,1,0,0:0:0:0:
256,192,119630,128,0,120380:0:0:0:0:
109,192,119630,1,8,0:0:0:0:
402,192,119630,1,2,0:0:0:0:
182,192,119780,1,0,0:0:0:0:
36,192,119930,1,8,0:0:0:0:
402,192,119930,1,2,0:0:0:0:
329,192,120080,1,0,0:0:0:0:
109,192,120230,1,8,0:0:0:0:
475,192,120230,1,2,0:0:0:0:
36,192,120380,1,8,0:0:0:0:
475,192,120380,128,0,120455:0:0:0:0:
182,192,120455,1,8,0:0:0:0:
329,192,120455,128,0,120530:0:0:0:0:
36,192,120530,1,8,0:0:0:0:
475,192,120530,128,0,120605:0:0:0:0:
256,192,120605,1,8,0:0:0:0:
402,192,120605,128,0,120680:0:0:0:0:
36,192,120680,1,8,0:0:0:0:
329,192,120680,128,0,120755:0:0:0:0:
256,192,120755,128,0,120830:0:0:0:0:
182,192,120830,128,0,120905:0:0:0:0:
109,192,120905,128,0,120980:0:0:0:0:
36,192,120980,128,0,121055:0:0:0:0:
475,192,120980,1,8,0:0:0:0:
182,192,121055,128,0,121130:0:0:0:0:
329,192,121055,1,8,0:0:0:0:
475,192,121130,1,8,0:0:0:0:
36,192,121130,128,0,121205:0:0:0:0:
256,192,121205,1,8,0:0:0:0:
109,192,121205,128,0,121280:0:0:0:0:
475,192,121280,1,8,0:0:0:0:
182,192,121280,128,4,121355:0:0:0:0:
256,192,121355,128,0,121430:0:0:0:0:
329,192,121430,128,0,121505:0:0:0:0:
402,192,121505,128,0,121580:0:0:0:0:
36,192,121580,128,0,121730:0:0:0:0:
182,192,121580,1,0,0:0:0:0:
109,192,121730,128,0,121880:0:0:0:0:
256,192,121730,1,8,0:0:0:0:
475,192,121730,1,2,0:0:0:0:
329,192,121880,1,0,0:0:0:0:
36,192,122030,128,0,122180:0:0:0:0:
402,192,122030,1,2,0:0:0:0:
182,192,122030,1,8,0:0:0:0:
109,192,122180,128,0,122330:0:0:0:0:
329,192,122180,1,0,0:0:0:0:
475,192,122330,1,2,0:0:0:0:
256,192,122330,1,8,0:0:0:0:
36,192,122480,128,0,122630:0:0:0:0:
109,192,122480,1,0,0:0:0:0:
256,192,122630,128,0,122780:0:0:0:0:
182,192,122630,1,8,0:0:0:0:
329,192,122630,1,2,0:0:0:0:
475,192,122780,128,0,122930:0:0:0:0:
36,192,122780,1,0,0:0:0:0:
402,192,122930,128,0,123080:0:0:0:0:
109,192,122930,1,8,0:0:0:0:
256,192,122930,1,2,0:0:0:0:
182,192,123080,1,0,0:0:0:0:
475,192,123230,128,0,123380:0:0:0:0:
36,192,123230,1,8,0:0:0:0:
329,192,123230,1,2,0:0:0:0:
402,192,123380,128,0,123530:0:0:0:0:
182,192,123380,1,0,0:0:0:0:
109,192,123530,1,8,0:0:0:0:
256,192,123530,1,2,0:0:0:0:
475,192,123680,128,0,123830:0:0:0:0:
256,192,123680,128,0,123830:0:0:0:0:
36,192,123680,1,0,0:0:0:0:
182,192,123830,128,8,123980:0:0:0:0:
329,192,123830,128,2,123980:0:0:0:0:
36,192,123980,128,0,124130:0:0:0:0:
475,192,123980,1,2,0:0:0:0:
402,192,124055,1,2,0:0:0:0:
109,192,124130,128,2,124280:0:0:0:0:
329,192,124130,1,8,0:0:0:0:
256,192,124205,1,2,0:0:0:0:
475,192,124280,1,2,0:0:0:0:
402,192,124355,1,2,0:0:0:0:
182,192,124430,128,8,124580:0:0:0:0:
329,192,124430,1,2,0:0:0:0:
36,192,124505,1,2,0:0:0:0:
109,192,124580,1,2,0:0:0:0:
182,192,124655,1,2,0:0:0:0:
329,192,124730,128,8,124880:0:0:0:0:
256,192,124730,1,2,0:0:0:0:
36,192,124805,1,2,0:0:0:0:
109,192,124880,1,2,0:0:0:0:
182,192,124955,1,2,0:0:0:0:
475,192,125030,128,8,125180:0:0:0:0:
402,192,125030,1,2,0:0:0:0:
256,192,125105,1,2,0:0:0:0:
402,192,125180,1,2,0:0:0:0:
256,192,125255,1,2,0:0:0:0:
329,192,125330,128,8,125480:0:0:0:0:
109,192,125330,1,2,0:0:0:0:
256,192,125405,1,2,0:0:0:0:
109,192,125480,1,2,0:0:0:0:
256,192,125555,1,2,0:0:0:0:
182,192,125630,128,8,125780:0:0:0:0:
475,192,125630,1,2,0:0:0:0:
329,192,125705,1,2,0:0:0:0:
475,192,125780,1,2,0:0:0:0:
329,192,125855,1,2,0:0:0:0:
36,192,125930,128,0,126380:0:0:0:0:
256,192,125930,128,0,126380:0:0:0:0:
109,192,125930,1,2,0:0:0:0:
182,192,125930,1,8,0:0:0:0:
109,192,126230,1,2,0:0:0:0:
182,192,126230,1,8,0:0:0:0:
475,192,126380,128,0,127580:0:0:0:0:
402,192,126380,1,8,0:0:0:0:
329,192,126455,1,8,0:0:0:0:
256,192,126530,1,8,0:0:0:0:
182,192,126605,1,8,0:0:0:0:
109,192,126680,1,8,0:0:0:0:
36,192,126755,1,8,0:0:0:0:
402,192,126830,128,0,127580:0:0:0:0:
329,192,126830,1,8,0:0:0:0:
256,192,126905,1,8,0:0:0:0:
182,192,126980,1,8,0:0:0:0:
109,192,127055,1,8,0:0:0:0:
36,192,127130,1,8,0:0:0:0:
109,192,127205,1,8,0:0:0:0:
329,192,127280,128,0,127580:0:0:0:0:
256,192,127280,1,8,0:0:0:0:
182,192,127355,1,8,0:0:0:0:
109,192,127430,1,8,0:0:0:0:
36,192,127505,1,8,0:0:0:0:
256,192,127580,128,0,127655:0:0:0:0:
182,192,127580,1,8,0:0:0:0:
36,192,127655,128,0,127730:0:0:0:0:
402,192,127730,128,0,127805:0:0:0:0:
256,192,127805,128,0,127880:0:0:0:0:
109,192,127880,128,0,127955:0:0:0:0:
475,192,127880,1,8,0:0:0:0:
256,192,127955,128,0,128030:0:0:0:0:
402,192,128030,128,0,128105:0:0:0:0:
475,192,128105,128,0,128180:0:0:0:0:
36,192,128180,128,0,128255:0:0:0:0:
256,192,128180,1,8,0:0:0:0:
109,192,128255,128,0,128330:0:0:0:0:
475,192,128330,128,0,128405:0:0:0:0:
402,192,128405,128,0,128480:0:0:0:0:
182,192,128480,128,0,128555:0:0:0:0:
36,192,128480,1,8,0:0:0:0:
109,192,128555,128,0,128630:0:0:0:0:
329,192,128630,128,0,128705:0:0:0:0:
402,192,128705,128,0,128780:0:0:0:0:
36,192,128780,1,0,0:0:0:0:
256,192,128780,1,4,0:0:0:0:
475,192,128780,1,0,0:0:0:0:
109,192,128930,1,0,0:0:0:0:
182,192,129080,1,0,0:0:0:0:
256,192,129230,1,0,0:0:0:0:
182,192,129380,1,0,0:0:0:0:
329,192,129380,1,8,0:0:0:0:
475,192,129380,1,8,0:0:0:0:
109,192,129530,1,0,0:0:0:0:
329,192,129530,1,8,0:0:0:0:
475,192,129530,1,8,0:0:0:0:
36,192,129680,1,0,0:0:0:0:
109,192,129830,1,0,0:0:0:0:
402,192,129980,1,8,0:0:0:0:
475,192,129980,1,8,0:0:0:0:
36,192,129980,1,0,0:0:0:0:
475,192,130130,1,8,0:0:0:0:
402,192,130130,1,8,0:0:0:0:
109,192,130130,1,0,0:0:0:0:
182,192,130280,1,0,0:0:0:0:
256,192,130430,1,0,0:0:0:0:
182,192,130580,1,0,0:0:0:0:
329,192,130580,1,8,0:0:0:0:
475,192,130580,1,8,0:0:0:0:
475,192,130730,1,8,0:0:0:0:
329,192,130730,1,8,0:0:0:0:
109,192,130730,1,0,0:0:0:0:
36,192,130880,1,0,0:0:0:0:
182,192,131030,1,0,0:0:0:0:
109,192,131180,128,4,131330:0:0:0:0:
256,192,131180,1,8,0:0:0:0:
402,192,131330,128,0,131480:0:0:0:0:
109,192,131480,128,0,131630:0:0:0:0:
402,192,131630,128,0,131780:0:0:0:0:
109,192,131780,128,0,131930:0:0:0:0:
402,192,131930,128,0,132080:0:0:0:0:
109,192,132080,128,0,132230:0:0:0:0:
402,192,132230,128,0,132380:0:0:0:0:
109,192,132380,128,0,132530:0:0:0:0:
402,192,132530,128,0,132680:0:0:0:0:
256,192,132680,128,4,133580:0:0:0:0:
182,192,132680,128,0,132980:0:0:0:0:
329,192,132680,128,0,132980:0:0:0:0:
109,192,132980,128,0,133280:0:0:0:0:
402,192,132980,128,0,133280:0:0:0:0:
36,192,133280,128,0,133580:0:0:0:0:
475,192,133280,128,0,133580:0:0:0:0:
109,192,133580,1,2,0:0:0:0:
402,192,133580,1,2,0:0:0:0:
182,192,133655,1,2,0:0:0:0:
475,192,133730,1,2,0:0:0:0:
402,192,133805,1,2,0:0:0:0:
329,192,133880,1,2,0:0:0:0:
36,192,133880,1,2,0:0:0:0:
109,192,133955,1,2,0:0:0:0:
329,192,134030,1,2,0:0:0:0:
256,192,134105,1,2,0:0:0:0:
182,192,134180,1,2,0:0:0:0:
475,192,134180,1,2,0:0:0:0:
402,192,134255,1,2,0:0:0:0:
36,192,134330,1,2,0:0:0:0:
109,192,134405,1,2,0:0:0:0:
182,192,134480,1,2,0:0:0:0:
402,192,134480,1,2,0:0:0:0:
329,192,134555,1,2,0:0:0:0:
182,192,134630,1,2,0:0:0:0:
256,192,134705,1,2,0:0:0:0:
402,192,134780,128,0,134930:0:0:0:0:
329,192,134780,1,2,0:0:0:0:
475,192,134780,1,2,0:0:0:0:
256,192,134930,1,0,0:0:0:0:
109,192,135080,128,0,135230:0:0:0:0:
36,192,135080,1,8,0:0:0:0:
182,192,135080,1,8,0:0:0:0:
256,192,135230,1,0,0:0:0:0:
475,192,135380,128,2,135530:0:0:0:0:
329,192,135380,1,2,0:0:0:0:
402,192,135530,128,0,135680:0:0:0:0:
256,192,135530,1,0,0:0:0:0:
329,192,135680,128,8,135980:0:0:0:0:
182,192,135680,1,8,0:0:0:0:
36,192,135830,1,0,0:0:0:0:
182,192,135980,1,2,0:0:0:0:
402,192,135980,1,2,0:0:0:0:
475,192,136055,1,2,0:0:0:0:
256,192,136130,1,2,0:0:0:0:
36,192,136205,1,2,0:0:0:0:
329,192,136280,1,2,0:0:0:0:
109,192,136280,1,2,0:0:0:0:
256,192,136355,1,2,0:0:0:0:
475,192,136430,1,2,0:0:0:0:
256,192,136505,1,2,0:0:0:0:
109,192,136580,1,2,0:0:0:0:
329,192,136580,1,2,0:0:0:0:
36,192,136655,1,2,0:0:0:0:
256,192,136730,1,2,0:0:0:0:
475,192,136805,1,2,0:0:0:0:
256,192,136880,1,2,0:0:0:0:
36,192,136880,1,2,0:0:0:0:
475,192,136955,1,2,0:0:0:0:
402,192,137030,1,2,0:0:0:0:
329,192,137105,1,2,0:0:0:0:
256,192,137180,1,2,0:0:0:0:
109,192,137180,128,0,137330:0:0:0:0:
36,192,137180,1,2,0:0:0:0:
182,192,137330,1,0,0:0:0:0:
402,192,137480,128,0,137630:0:0:0:0:
256,192,137480,1,8,0:0:0:0:
475,192,137480,1,8,0:0:0:0:
329,192,137630,1,0,0:0:0:0:
36,192,137780,128,2,137930:0:0:0:0:
182,192,137780,1,2,0:0:0:0:
109,192,137930,128,0,138080:0:0:0:0:
256,192,137930,1,0,0:0:0:0:
182,192,138080,128,8,138380:0:0:0:0:
329,192,138080,1,8,0:0:0:0:
475,192,138230,1,0,0:0:0:0:
256,192,138380,128,0,140780:0:0:0:0:
402,192,138380,1,0,0:0:0:0:
36,192,138380,128,0,140780:0:0:0:0:
329,192,138530,1,8,0:0:0:0:
475,192,138530,1,2,0:0:0:0:
182,192,138680,1,0,0:0:0:0:
109,192,138830,1,2,0:0:0:0:
329,192,138830,1,8,0:0:0:0:
402,192,138980,1,0,0:0:0:0:
475,192,139130,1,2,0:0:0:0:
329,192,139130,1,8,0:0:0:0:
182,192,139280,1,0,0:0:0:0:
109,192,139430,1,2,0:0:0:0:
329,192,139430,1,8,0:0:0:0:
182,192,139580,1,0,0:0:0:0:
402,192,139730,1,8,0:0:0:0:
475,192,139730,1,2,0:0:0:0:
329,192,139880,1,0,0:0:0:0:
182,192,140030,1,8,0:0:0:0:
109,192,140030,1,2,0:0:0:0:
329,192,140180,1,0,0:0:0:0:
402,192,140330,1,8,0:0:0:0:
475,192,140330,1,2,0:0:0:0:
329,192,140480,1,0,0:0:0:0:
109,192,140630,1,8,0:0:0:0:
402,192,140630,1,2,0:0:0:0:
182,192,140780,1,0,0:0:0:0:
475,192,140780,1,8,0:0:0:0:
329,192,140855,1,8,0:0:0:0:
475,192,140930,1,2,0:0:0:0:
256,192,141005,1,2,0:0:0:0:
36,192,141080,1,0,0:0:0:0:
329,192,141080,1,8,0:0:0:0:
182,192,141155,1,8,0:0:0:0:
329,192,141230,1,2,0:0:0:0:
256,192,141305,1,2,0:0:0:0:
182,192,141380,1,0,0:0:0:0:
475,192,141380,1,8,0:0:0:0:
329,192,141455,1,8,0:0:0:0:
475,192,141530,1,2,0:0:0:0:
256,192,141605,1,2,0:0:0:0:
36,192,141680,1,0,0:0:0:0:
329,192,141680,1,8,0:0:0:0:
182,192,141755,1,8,0:0:0:0:
329,192,141830,1,2,0:0:0:0:
475,192,141905,1,2,0:0:0:0:
402,192,141980,1,2,0:0:0:0:
36,192,141980,1,2,0:0:0:0:
402,192,142130,1,2,0:0:0:0:
109,192,142130,1,2,0:0:0:0:
402,192,142280,1,2,0:0:0:0:
182,192,142280,1,2,0:0:0:0:
402,192,142430,1,2,0:0:0:0:
256,192,142430,1,2,0:0:0:0:
475,192,142580,1,8,0:0:0:0:
36,192,142580,128,0,142730:0:0:0:0:
402,192,142655,1,8,0:0:0:0:
475,192,142730,1,8,0:0:0:0:
109,192,142730,128,0,142880:0:0:0:0:
329,192,142805,1,8,0:0:0:0:
475,192,142880,1,8,0:0:0:0:
36,192,142880,128,0,143030:0:0:0:0:
256,192,142955,1,8,0:0:0:0:
475,192,143030,1,8,0:0:0:0:
109,192,143030,128,0,143180:0:0:0:0:
182,192,143105,1,8,0:0:0:0:
475,192,143180,1,8,0:0:0:0:
36,192,143180,1,2,0:0:0:0:
329,192,143180,1,2,0:0:0:0:
256,192,143255,1,2,0:0:0:0:
109,192,143330,1,2,0:0:0:0:
329,192,143405,1,2,0:0:0:0:
182,192,143480,1,0,0:0:0:0:
475,192,143480,1,2,0:0:0:0:
402,192,143480,1,2,0:0:0:0:
36,192,143555,1,2,0:0:0:0:
182,192,143630,1,2,0:0:0:0:
36,192,143705,1,2,0:0:0:0:
475,192,143780,1,0,0:0:0:0:
182,192,143780,1,2,0:0:0:0:
329,192,143780,1,2,0:0:0:0:
256,192,143855,1,2,0:0:0:0:
402,192,143930,1,2,0:0:0:0:
182,192,144005,1,2,0:0:0:0:
329,192,144080,1,2,0:0:0:0:
36,192,144080,1,0,0:0:0:0:
109,192,144080,1,2,0:0:0:0:
475,192,144155,1,2,0:0:0:0:
329,192,144230,1,2,0:0:0:0:
475,192,144305,1,2,0:0:0:0:
329,192,144380,1,2,0:0:0:0:
109,192,144380,128,0,144530:0:0:0:0:
36,192,144380,1,2,0:0:0:0:
182,192,144530,1,0,0:0:0:0:
402,192,144680,128,0,144830:0:0:0:0:
256,192,144680,1,8,0:0:0:0:
475,192,144680,1,8,0:0:0:0:
329,192,144830,1,0,0:0:0:0:
36,192,144980,128,2,145130:0:0:0:0:
182,192,144980,1,2,0:0:0:0:
109,192,145130,128,0,145280:0:0:0:0:
256,192,145130,1,0,0:0:0:0:
182,192,145280,128,8,145580:0:0:0:0:
329,192,145280,1,8,0:0:0:0:
475,192,145430,1,0,0:0:0:0:
402,192,145580,1,2,0:0:0:0:
36,192,145580,1,0,0:0:0:0:
329,192,145580,1,2,0:0:0:0:
109,192,145655,1,2,0:0:0:0:
256,192,145730,1,2,0:0:0:0:
402,192,145805,1,2,0:0:0:0:
475,192,145880,1,2,0:0:0:0:
36,192,145880,1,2,0:0:0:0:
109,192,145880,1,2,0:0:0:0:
402,192,145955,1,2,0:0:0:0:
256,192,146030,1,2,0:0:0:0:
109,192,146105,1,2,0:0:0:0:
475,192,146180,1,2,0:0:0:0:
36,192,146180,1,0,0:0:0:0:
402,192,146180,1,2,0:0:0:0:
329,192,146255,1,2,0:0:0:0:
182,192,146330,1,2,0:0:0:0:
36,192,146405,1,2,0:0:0:0:
256,192,146480,1,2,0:0:0:0:
402,192,146480,1,2,0:0:0:0:
109,192,146480,1,0,0:0:0:0:
36,192,146555,1,2,0:0:0:0:
182,192,146630,1,2,0:0:0:0:
329,192,146705,1,2,0:0:0:0:
475,192,146780,1,2,0:0:0:0:
402,192,146780,128,0,146930:0:0:0:0:
109,192,146780,1,2,0:0:0:0:
256,192,146930,1,0,0:0:0:0:
109,192,147080,128,0,147230:0:0:0:0:
36,192,147080,1,8,0:0:0:0:
402,192,147080,1,8,0:0:0:0:
475,192,147380,128,2,147530:0:0:0:0:
329,192,147380,1,2,0:0:0:0:
402,192,147530,128,0,147680:0:0:0:0:
256,192,147530,1,0,0:0:0:0:
329,192,147680,128,8,147980:0:0:0:0:
182,192,147680,1,8,0:0:0:0:
36,192,147830,1,0,0:0:0:0:
256,192,147980,128,0,148055:0:0:0:0:
182,192,148055,128,0,148130:0:0:0:0:
109,192,148130,128,0,148205:0:0:0:0:
402,192,148130,1,8,0:0:0:0:
36,192,148205,128,0,148280:0:0:0:0:
256,192,148280,128,0,148355:0:0:0:0:
329,192,148355,128,0,148430:0:0:0:0:
402,192,148430,128,0,148505:0:0:0:0:
109,192,148430,1,8,0:0:0:0:
475,192,148505,128,0,148580:0:0:0:0:
256,192,148580,128,0,148655:0:0:0:0:
182,192,148655,128,0,148730:0:0:0:0:
109,192,148730,128,0,148805:0:0:0:0:
402,192,148730,1,8,0:0:0:0:
36,192,148805,128,0,148880:0:0:0:0:
256,192,148880,128,0,148955:0:0:0:0:
329,192,148955,128,0,149030:0:0:0:0:
402,192,149030,128,0,149105:0:0:0:0:
109,192,149030,1,8,0:0:0:0:
475,192,149105,128,0,149180:0:0:0:0:
36,192,149180,128,0,149255:0:0:0:0:
109,192,149255,128,0,149330:0:0:0:0:
182,192,149330,128,0,149405:0:0:0:0:
402,192,149330,1,8,0:0:0:0:
256,192,149405,128,0,149480:0:0:0:0:
475,192,149480,128,0,149555:0:0:0:0:
402,192,149555,128,0,149630:0:0:0:0:
329,192,149630,128,0,149705:0:0:0:0:
109,192,149630,1,8,0:0:0:0:
256,192,149705,128,0,149780:0:0:0:0:
36,192,149780,128,0,149855:0:0:0:0:
109,192,149855,128,0,149930:0:0:0:0:
182,192,149930,128,0,150005:0:0:0:0:
402,192,149930,1,8,0:0:0:0:
256,192,150005,128,0,150080:0:0:0:0:
475,192,150080,128,0,150155:0:0:0:0:
402,192,150155,128,0,150230:0:0:0:0:
109,192,150230,1,8,0:0:0:0:
329,192,150230,128,0,150305:0:0:0:0:
256,192,150305,128,0,150380:0:0:0:0:
475,192,150380,128,0,150830:0:0:0:0:
36,192,150380,1,8,0:0:0:0:
182,192,150455,1,8,0:0:0:0:
109,192,150530,1,8,0:0:0:0:
256,192,150605,1,8,0:0:0:0:
36,192,150680,1,8,0:0:0:0:
182,192,150755,1,8,0:0:0:0:
329,192,150830,128,0,150980:0:0:0:0:
109,192,150830,1,8,0:0:0:0:
256,192,150905,1,8,0:0:0:0:
402,192,150980,128,0,151280:0:0:0:0:
182,192,150980,1,8,0:0:0:0:
109,192,151055,1,8,0:0:0:0:
182,192,151130,1,8,0:0:0:0:
256,192,151205,1,8,0:0:0:0:
36,192,151280,128,0,151730:0:0:0:0:
109,192,151280,1,8,0:0:0:0:
475,192,151355,1,2,0:0:0:0:
182,192,151430,1,2,0:0:0:0:
402,192,151505,1,2,0:0:0:0:
256,192,151580,1,2,0:0:0:0:
475,192,151655,1,2,0:0:0:0:
109,192,151730,128,0,151880:0:0:0:0:
329,192,151730,1,8,0:0:0:0:
402,192,151805,1,8,0:0:0:0:
182,192,151880,128,0,152180:0:0:0:0:
475,192,151880,1,8,0:0:0:0:
402,192,151955,1,8,0:0:0:0:
329,192,152030,1,8,0:0:0:0:
256,192,152105,1,8,0:0:0:0:
475,192,152180,128,0,152330:0:0:0:0:
109,192,152180,1,2,0:0:0:0:
256,192,152255,1,2,0:0:0:0:
402,192,152330,128,0,152480:0:0:0:0:
109,192,152330,1,2,0:0:0:0:
256,192,152405,1,2,0:0:0:0:
329,192,152480,128,0,152630:0:0:0:0:
36,192,152480,1,2,0:0:0:0:
182,192,152555,1,2,0:0:0:0:
402,192,152630,128,0,152780:0:0:0:0:
36,192,152630,1,2,0:0:0:0:
182,192,152705,1,2,0:0:0:0:
36,192,152780,1,2,0:0:0:0:
475,192,152780,1,2,0:0:0:0:
256,192,152780,1,4,0:0:0:0:
36,192,152930,1,2,0:0:0:0:
475,192,152930,1,2,0:0:0:0:
256,192,152930,1,4,0:0:0:0:
109,192,153980,1,2,0:0:0:0:
256,192,153980,1,4,0:0:0:0:
402,192,153980,1,0,0:0:0:0:
256,192,154130,1,4,0:0:0:0:
402,192,154130,1,0,0:0:0:0:
109,192,154130,1,2,0:0:0:0:
36,192,155180,1,0,0:0:0:0:
475,192,155180,1,2,0:0:0:0:
256,192,155255,1,2,0:0:0:0:
36,192,155330,1,0,0:0:0:0:
475,192,155330,1,2,0:0:0:0:
256,192,155405,1,2,0:0:0:0:
36,192,155480,1,0,0:0:0:0:
475,192,155480,1,2,0:0:0:0:
256,192,155555,1,2,0:0:0:0:
36,192,155630,1,0,0:0:0:0:
475,192,155630,1,2,0:0:0:0:
256,192,155705,1,2,0:0:0:0:
109,192,155780,1,0,0:0:0:0:
402,192,155780,1,2,0:0:0:0:
256,192,155855,1,2,0:0:0:0:
109,192,155930,1,0,0:0:0:0:
402,192,155930,1,2,0:0:0:0:
256,192,156005,1,2,0:0:0:0:
109,192,156080,1,0,0:0:0:0:
402,192,156080,1,2,0:0:0:0:
256,192,156155,1,2,0:0:0:0:
109,192,156230,1,0,0:0:0:0:
402,192,156230,1,2,0:0:0:0:
256,192,156305,1,2,0:0:0:0:
109,192,156380,128,0,157580:0:0:0:0:
402,192,156380,128,0,157580:0:0:0:0:
329,192,156380,1,0,0:0:0:0:
475,192,156380,1,0,0:0:0:0:
256,192,156455,1,0,0:0:0:0:
36,192,156530,1,0,0:0:0:0:
182,192,156530,1,0,0:0:0:0:
256,192,156605,1,0,0:0:0:0:
329,192,156680,1,0,0:0:0:0:
475,192,156680,1,0,0:0:0:0:
256,192,156755,1,0,0:0:0:0:
36,192,156830,1,0,0:0:0:0:
182,192,156830,1,0,0:0:0:0:
256,192,156905,1,0,0:0:0:0:
329,192,156980,1,0,0:0:0:0:
475,192,156980,1,0,0:0:0:0:
256,192,157055,1,0,0:0:0:0:
36,192,157130,1,0,0:0:0:0:
182,192,157130,1,0,0:0:0:0:
256,192,157205,1,0,0:0:0:0:
329,192,157280,1,0,0:0:0:0:
475,192,157280,1,0,0:0:0:0:
256,192,157355,1,0,0:0:0:0:
36,192,157430,1,0,0:0:0:0:
182,192,157430,1,0,0:0:0:0:
256,192,157505,1,0,0:0:0:0:
36,192,157580,1,2,0:0:0:0:
475,192,157580,1,2,0:0:0:0:
329,192,157580,1,0,0:0:0:0:
36,192,157730,1,2,0:0:0:0:
475,192,157730,1,2,0:0:0:0:
182,192,157730,1,0,0:0:0:0:
329,192,158030,1,0,0:0:0:0:
182,192,158030,1,0,0:0:0:0:
329,192,158330,1,0,0:0:0:0:
182,192,158330,1,0,0:0:0:0:
182,192,158630,1,0,0:0:0:0:
329,192,158630,1,0,0:0:0:0:
36,192,158780,1,2,0:0:0:0:
475,192,158780,1,2,0:0:0:0:
182,192,158780,1,0,0:0:0:0:
36,192,158930,1,2,0:0:0:0:
475,192,158930,1,2,0:0:0:0:
329,192,158930,1,0,0:0:0:0:
182,192,159230,1,0,0:0:0:0:
329,192,159230,1,0,0:0:0:0:
182,192,159530,1,0,0:0:0:0:
329,192,159530,1,0,0:0:0:0:
182,192,159830,1,0,0:0:0:0:
329,192,159830,1,0,0:0:0:0:
402,192,159980,128,0,160280:0:0:0:0:
109,192,159980,128,0,160280:0:0:0:0:
256,192,159980,1,0,0:0:0:0:
475,192,160280,1,8,0:0:0:0:
329,192,160280,1,2,0:0:0:0:
182,192,160280,1,2,0:0:0:0:
475,192,160430,1,8,0:0:0:0:
329,192,160430,1,2,0:0:0:0:
182,192,160430,1,2,0:0:0:0:
475,192,160580,1,8,0:0:0:0:
402,192,160580,1,2,0:0:0:0:
109,192,160580,1,2,0:0:0:0:
36,192,160730,1,8,0:0:0:0:
402,192,160730,1,2,0:0:0:0:
109,192,160730,1,2,0:0:0:0:
36,192,160880,1,8,0:0:0:0:
329,192,160880,1,2,0:0:0:0:
182,192,160880,1,2,0:0:0:0:
36,192,161030,1,8,0:0:0:0:
329,192,161030,1,2,0:0:0:0:
182,192,161030,1,2,0:0:0:0:
36,192,161180,1,0,0:0:0:0:
475,192,161180,1,8,0:0:0:0:
402,192,161180,1,2,0:0:0:0:
256,192,161255,1,2,0:0:0:0:
36,192,161330,1,8,0:0:0:0:
109,192,161330,1,2,0:0:0:0:
475,192,161330,1,0,0:0:0:0:
109,192,161480,128,0,161780:0:0:0:0:
402,192,161480,128,0,161780:0:0:0:0:
256,192,161480,1,0,0:0:0:0:
475,192,161780,1,0,0:0:0:0:
36,192,161780,1,8,0:0:0:0:
182,192,161780,1,2,0:0:0:0:
256,192,161855,1,2,0:0:0:0:
36,192,161930,1,0,0:0:0:0:
475,192,161930,1,8,0:0:0:0:
329,192,161930,1,2,0:0:0:0:
109,192,162080,128,0,162380:0:0:0:0:
402,192,162080,128,0,162380:0:0:0:0:
256,192,162080,1,0,0:0:0:0:
36,192,162380,128,0,163580:0:0:0:0:
182,192,162380,1,0,0:0:0:0:
256,192,162530,1,8,0:0:0:0:
475,192,162530,1,2,0:0:0:0:
182,192,162680,1,0,0:0:0:0:
329,192,162830,1,8,0:0:0:0:
475,192,162830,1,2,0:0:0:0:
109,192,162980,1,0,0:0:0:0:
182,192,163130,1,8,0:0:0:0:
402,192,163130,1,2,0:0:0:0:
109,192,163280,1,0,0:0:0:0:
329,192,163430,1,8,0:0:0:0:
475,192,163430,1,2,0:0:0:0:
109,192,163580,128,0,164780:0:0:0:0:
402,192,163580,1,0,0:0:0:0:
182,192,163730,1,2,0:0:0:0:
329,192,163730,1,8,0:0:0:0:
402,192,163880,1,0,0:0:0:0:
256,192,164030,1,8,0:0:0:0:
182,192,164030,1,2,0:0:0:0:
475,192,164180,1,0,0:0:0:0:
256,192,164330,1,8,0:0:0:0:
402,192,164330,1,2,0:0:0:0:
475,192,164480,1,0,0:0:0:0:
256,192,164630,1,8,0:0:0:0:
329,192,164630,1,2,0:0:0:0:
36,192,164780,128,0,165980:0:0:0:0:
475,192,164780,128,0,165980:0:0:0:0:
182,192,164780,1,0,0:0:0:0:
402,192,164930,1,2,0:0:0:0:
256,192,164930,1,8,0:0:0:0:
329,192,165080,1,0,0:0:0:0:
109,192,165230,1,8,0:0:0:0:
402,192,165230,1,2,0:0:0:0:
256,192,165380,1,0,0:0:0:0:
402,192,165530,1,2,0:0:0:0:
109,192,165530,1,8,0:0:0:0:
182,192,165680,1,0,0:0:0:0:
329,192,165830,1,2,0:0:0:0:
256,192,165830,1,8,0:0:0:0:
109,192,165980,128,0,167180:0:0:0:0:
402,192,165980,128,0,167180:0:0:0:0:
182,192,165980,1,0,0:0:0:0:
329,192,166130,1,8,0:0:0:0:
475,192,166130,1,2,0:0:0:0:
182,192,166280,1,0,0:0:0:0:
256,192,166430,1,8,0:0:0:0:
475,192,166430,1,2,0:0:0:0:
329,192,166580,1,0,0:0:0:0:
36,192,166730,1,2,0:0:0:0:
182,192,166730,1,8,0:0:0:0:
329,192,166880,1,0,0:0:0:0:
36,192,167030,1,8,0:0:0:0:
256,192,167030,1,2,0:0:0:0:
182,192,167180,128,0,167330:0:0:0:0:
329,192,167180,128,0,167330:0:0:0:0:
36,192,167330,1,2,0:0:0:0:
475,192,167330,1,2,0:0:0:0:
182,192,167405,1,2,0:0:0:0:
329,192,167405,1,2,0:0:0:0:
36,192,167480,1,2,0:0:0:0:
475,192,167480,1,2,0:0:0:0:
182,192,167555,1,2,0:0:0:0:
329,192,167555,1,2,0:0:0:0:
36,192,167630,128,0,167780:0:0:0:0:
475,192,167630,128,0,167780:0:0:0:0:
402,192,167780,1,2,0:0:0:0:
109,192,167780,1,2,0:0:0:0:
329,192,167855,1,2,0:0:0:0:
182,192,167855,1,2,0:0:0:0:
475,192,167930,1,2,0:0:0:0:
36,192,167930,1,2,0:0:0:0:
182,192,168005,1,2,0:0:0:0:
329,192,168005,1,2,0:0:0:0:
36,192,168080,1,2,0:0:0:0:
475,192,168080,1,2,0:0:0:0:
109,192,168155,1,2,0:0:0:0:
402,192,168155,1,2,0:0:0:0:
182,192,168230,1,2,0:0:0:0:
329,192,168230,1,2,0:0:0:0:
36,192,168305,1,2,0:0:0:0:
475,192,168305,1,2,0:0:0:0:
182,192,168380,128,0,168530:0:0:0:0:
329,192,168380,128,0,168530:0:0:0:0:
109,192,168680,1,0,0:0:0:0:
182,192,168680,1,8,0:0:0:0:
329,192,168755,1,8,0:0:0:0:
402,192,168755,1,0,0:0:0:0:
109,192,168830,1,0,0:0:0:0:
182,192,168830,1,8,0:0:0:0:
36,192,168830,128,0,168980:0:0:0:0:
475,192,168830,128,0,168980:0:0:0:0:
402,192,169130,1,8,0:0:0:0:
109,192,169130,1,8,0:0:0:0:
182,192,169205,1,8,0:0:0:0:
329,192,169205,1,8,0:0:0:0:
109,192,169280,1,8,0:0:0:0:
402,192,169280,1,8,0:0:0:0:
182,192,169430,1,8,0:0:0:0:
329,192,169430,1,8,0:0:0:0:
109,192,169505,1,8,0:0:0:0:
402,192,169505,1,8,0:0:0:0:
329,192,169580,1,8,0:0:0:0:
182,192,169580,1,8,0:0:0:0:
256,192,169580,1,0,0:0:0:0:
109,192,169655,1,2,0:0:0:0:
402,192,169730,1,2,0:0:0:0:
36,192,169805,1,2,0:0:0:0:
475,192,169880,1,2,0:0:0:0:
109,192,169955,1,2,0:0:0:0:
402,192,170030,1,2,0:0:0:0:
256,192,170105,1,2,0:0:0:0:
182,192,170180,1,8,0:0:0:0:
329,192,170180,1,8,0:0:0:0:
475,192,170255,1,2,0:0:0:0:
36,192,170330,1,2,0:0:0:0:
475,192,170405,1,2,0:0:0:0:
36,192,170480,1,2,0:0:0:0:
475,192,170555,1,2,0:0:0:0:
36,192,170630,1,2,0:0:0:0:
475,192,170705,1,2,0:0:0:0:
182,192,170780,1,8,0:0:0:0:
329,192,170780,1,8,0:0:0:0:
256,192,170780,128,0,170930:0:0:0:0:
109,192,170855,1,8,0:0:0:0:
402,192,170855,1,8,0:0:0:0:
36,192,171080,1,2,0:0:0:0:
475,192,171080,1,2,0:0:0:0:
402,192,171155,1,2,0:0:0:0:
109,192,171155,1,2,0:0:0:0:
182,192,171380,1,8,0:0:0:0:
329,192,171380,1,8,0:0:0:0:
256,192,171380,128,2,171530:0:0:0:0:
402,192,171455,1,8,0:0:0:0:
109,192,171455,1,8,0:0:0:0:
329,192,171680,128,4,171980:0:0:0:0:
182,192,171680,128,4,171980:0:0:0:0:
36,192,171980,128,0,174380:0:0:0:0:
402,192,171980,1,0,0:0:0:0:
109,192,172130,1,2,0:0:0:0:
256,192,172130,1,8,0:0:0:0:
402,192,172280,1,0,0:0:0:0:
329,192,172355,1,0,0:0:0:0:
109,192,172430,1,2,0:0:0:0:
256,192,172430,1,8,0:0:0:0:
402,192,172580,1,0,0:0:0:0:
329,192,172730,1,8,0:0:0:0:
475,192,172730,1,2,0:0:0:0:
182,192,172880,1,0,0:0:0:0:
256,192,172955,1,0,0:0:0:0:
329,192,173030,1,8,0:0:0:0:
475,192,173030,1,2,0:0:0:0:
109,192,173180,1,0,0:0:0:0:
182,192,173330,1,2,0:0:0:0:
329,192,173330,1,8,0:0:0:0:
475,192,173480,1,0,0:0:0:0:
402,192,173555,1,0,0:0:0:0:
182,192,173630,1,8,0:0:0:0:
329,192,173630,1,2,0:0:0:0:
475,192,173780,1,0,0:0:0:0:
402,192,173930,1,2,0:0:0:0:
256,192,173930,1,8,0:0:0:0:
109,192,174080,1,0,0:0:0:0:
182,192,174155,1,0,0:0:0:0:
256,192,174230,1,8,0:0:0:0:
402,192,174230,1,2,0:0:0:0:
329,192,174380,128,0,176780:0:0:0:0:
109,192,174380,1,2,0:0:0:0:
256,192,174455,1,2,0:0:0:0:
475,192,174530,1,2,0:0:0:0:
109,192,174530,1,8,0:0:0:0:
36,192,174680,1,2,0:0:0:0:
256,192,174755,1,2,0:0:0:0:
402,192,174830,1,2,0:0:0:0:
36,192,174830,1,8,0:0:0:0:
256,192,174980,1,2,0:0:0:0:
109,192,175055,1,2,0:0:0:0:
475,192,175130,1,2,0:0:0:0:
256,192,175130,1,8,0:0:0:0:
36,192,175280,128,0,176780:0:0:0:0:
182,192,175280,1,2,0:0:0:0:
256,192,175355,1,2,0:0:0:0:
182,192,175430,1,8,0:0:0:0:
402,192,175430,1,2,0:0:0:0:
109,192,175580,128,0,176780:0:0:0:0:
256,192,175580,1,2,0:0:0:0:
182,192,175655,1,2,0:0:0:0:
256,192,175730,1,2,0:0:0:0:
475,192,175730,1,8,0:0:0:0:
256,192,175880,128,0,176030:0:0:0:0:
182,192,176030,128,0,176780:0:0:0:0:
402,192,176030,128,0,176180:0:0:0:0:
256,192,176180,128,0,176330:0:0:0:0:
402,192,176330,128,0,176480:0:0:0:0:
256,192,176480,128,0,176780:0:0:0:0:
475,192,176780,128,0,179180:0:0:0:0:
36,192,176930,1,8,0:0:0:0:
182,192,176930,1,2,0:0:0:0:
329,192,177080,1,0,0:0:0:0:
256,192,177155,1,0,0:0:0:0:
36,192,177230,1,2,0:0:0:0:
182,192,177230,1,8,0:0:0:0:
109,192,177380,1,0,0:0:0:0:
256,192,177530,1,8,0:0:0:0:
402,192,177530,1,2,0:0:0:0:
109,192,177680,1,0,0:0:0:0:
182,192,177755,1,0,0:0:0:0:
256,192,177830,1,8,0:0:0:0:
402,192,177830,1,2,0:0:0:0:
182,192,177980,1,0,0:0:0:0:
36,192,178130,1,2,0:0:0:0:
109,192,178130,1,8,0:0:0:0:
256,192,178280,1,0,0:0:0:0:
329,192,178355,1,0,0:0:0:0:
36,192,178430,1,8,0:0:0:0:
402,192,178430,1,2,0:0:0:0:
256,192,178580,1,0,0:0:0:0:
329,192,178730,1,8,0:0:0:0:
402,192,178730,1,2,0:0:0:0:
182,192,178880,1,0,0:0:0:0:
109,192,178955,1,0,0:0:0:0:
36,192,179030,1,8,0:0:0:0:
402,192,179030,1,2,0:0:0:0:
109,192,179180,128,0,179330:0:0:0:0:
256,192,179180,1,0,0:0:0:0:
182,192,179180,1,0,0:0:0:0:
329,192,179330,1,0,0:0:0:0:
182,192,179480,128,0,179630:0:0:0:0:
475,192,179480,1,0,0:0:0:0:
256,192,179480,1,0,0:0:0:0:
402,192,179630,1,0,0:0:0:0:
36,192,179780,128,0,179930:0:0:0:0:
256,192,179780,1,0,0:0:0:0:
109,192,179930,128,0,180080:0:0:0:0:
329,192,179930,1,0,0:0:0:0:
402,192,180080,128,0,180230:0:0:0:0:
182,192,180080,1,0,0:0:0:0:
475,192,180230,128,0,180380:0:0:0:0:
256,192,180230,1,0,0:0:0:0:
36,192,180380,128,0,180980:0:0:0:0:
109,192,180380,1,8,0:0:0:0:
329,192,180455,1,8,0:0:0:0:
182,192,180530,1,8,0:0:0:0:
402,192,180605,1,8,0:0:0:0:
256,192,180680,1,8,0:0:0:0:
475,192,180755,1,0,0:0:0:0:
402,192,180830,1,0,0:0:0:0:
329,192,180905,1,0,0:0:0:0:
182,192,180980,128,0,181580:0:0:0:0:
256,192,180980,1,0,0:0:0:0:
402,192,181055,1,0,0:0:0:0:
109,192,181130,1,8,0:0:0:0:
402,192,181205,1,8,0:0:0:0:
36,192,181280,1,8,0:0:0:0:
475,192,181355,1,8,0:0:0:0:
109,192,181430,1,8,0:0:0:0:
475,192,181505,1,8,0:0:0:0:
36,192,181580,128,0,183980:0:0:0:0:
329,192,181580,1,8,0:0:0:0:
256,192,181730,1,8,0:0:0:0:
475,192,181730,1,2,0:0:0:0:
182,192,181880,1,0,0:0:0:0:
109,192,181955,1,0,0:0:0:0:
256,192,182030,1,8,0:0:0:0:
475,192,182030,1,2,0:0:0:0:
402,192,182180,1,0,0:0:0:0:
329,192,182330,1,8,0:0:0:0:
109,192,182330,1,2,0:0:0:0:
256,192,182480,1,0,0:0:0:0:
182,192,182555,1,0,0:0:0:0:
109,192,182630,1,8,0:0:0:0:
329,192,182630,1,2,0:0:0:0:
402,192,182780,1,0,0:0:0:0:
109,192,182930,1,8,0:0:0:0:
329,192,182930,1,2,0:0:0:0:
402,192,183080,1,0,0:0:0:0:
475,192,183155,1,0,0:0:0:0:
109,192,183230,1,2,0:0:0:0:
329,192,183230,1,8,0:0:0:0:
182,192,183380,1,0,0:0:0:0:
256,192,183530,1,8,0:0:0:0:
475,192,183530,1,2,0:0:0:0:
329,192,183680,1,2,0:0:0:0:
109,192,183680,1,8,0:0:0:0:
256,192,183755,1,0,0:0:0:0:
109,192,183830,1,8,0:0:0:0:
402,192,183830,1,2,0:0:0:0:
329,192,183905,1,0,0:0:0:0:
256,192,183980,128,0,186380:0:0:0:0:
109,192,183980,1,8,0:0:0:0:
475,192,183980,1,2,0:0:0:0:
182,192,184130,1,8,0:0:0:0:
36,192,184130,1,2,0:0:0:0:
402,192,184280,1,0,0:0:0:0:
109,192,184355,1,0,0:0:0:0:
329,192,184430,1,8,0:0:0:0:
475,192,184430,1,2,0:0:0:0:
182,192,184580,1,0,0:0:0:0:
109,192,184730,1,2,0:0:0:0:
402,192,184730,1,8,0:0:0:0:
36,192,184880,128,0,184955:0:0:0:0:
475,192,184880,128,0,184955:0:0:0:0:
36,192,185030,128,0,185105:0:0:0:0:
475,192,185030,128,0,185105:0:0:0:0:
36,192,185180,128,0,186380:0:0:0:0:
475,192,185180,128,0,186380:0:0:0:0:
109,192,185180,1,0,0:0:0:0:
182,192,185330,1,8,0:0:0:0:
329,192,185480,1,0,0:0:0:0:
402,192,185555,1,0,0:0:0:0:
329,192,185630,1,8,0:0:0:0:
109,192,185630,1,2,0:0:0:0:
402,192,185780,1,0,0:0:0:0:
329,192,185930,1,8,0:0:0:0:
182,192,186080,1,0,0:0:0:0:
109,192,186155,1,0,0:0:0:0:
402,192,186230,1,2,0:0:0:0:
182,192,186230,1,8,0:0:0:0:
109,192,186380,128,0,187580:0:0:0:0:
329,192,186380,1,0,0:0:0:0:
402,192,186530,1,8,0:0:0:0:
475,192,186530,1,2,0:0:0:0:
182,192,186680,1,0,0:0:0:0:
256,192,186755,1,0,0:0:0:0:
475,192,186830,1,2,0:0:0:0:
36,192,186830,1,8,0:0:0:0:
329,192,186980,1,0,0:0:0:0:
182,192,187130,1,2,0:0:0:0:
256,192,187130,1,8,0:0:0:0:
475,192,187280,1,0,0:0:0:0:
402,192,187355,1,0,0:0:0:0:
256,192,187430,1,8,0:0:0:0:
36,192,187430,1,2,0:0:0:0:
402,192,187580,128,0,188780:0:0:0:0:
182,192,187580,1,0,0:0:0:0:
256,192,187730,1,8,0:0:0:0:
475,192,187730,1,2,0:0:0:0:
36,192,187880,1,0,0:0:0:0:
109,192,187955,1,0,0:0:0:0:
182,192,188030,1,2,0:0:0:0:
256,192,188030,1,8,0:0:0:0:
329,192,188180,1,0,0:0:0:0:
256,192,188330,1,8,0:0:0:0:
475,192,188330,1,2,0:0:0:0:
36,192,188480,1,0,0:0:0:0:
109,192,188555,1,0,0:0:0:0:
182,192,188630,1,2,0:0:0:0:
256,192,188630,1,8,0:0:0:0:
36,192,188780,128,0,189980:0:0:0:0:
109,192,188780,1,0,0:0:0:0:
329,192,188930,1,8,0:0:0:0:
182,192,188930,1,2,0:0:0:0:
402,192,189080,1,0,0:0:0:0:
475,192,189155,1,0,0:0:0:0:
109,192,189230,1,2,0:0:0:0:
329,192,189230,1,8,0:0:0:0:
256,192,189380,1,0,0:0:0:0:
329,192,189530,1,8,0:0:0:0:
475,192,189530,1,2,0:0:0:0:
109,192,189680,1,0,0:0:0:0:
182,192,189755,1,0,0:0:0:0:
475,192,189830,1,2,0:0:0:0:
256,192,189830,1,8,0:0:0:0:
109,192,189980,128,0,190055:0:0:0:0:
402,192,189980,1,0,0:0:0:0:
109,192,190130,128,0,190205:0:0:0:0:
329,192,190130,1,0,0:0:0:0:
109,192,190280,128,0,190355:0:0:0:0:
402,192,190280,1,0,0:0:0:0:
36,192,190430,128,0,190580:0:0:0:0:
256,192,190430,1,0,0:0:0:0:
475,192,190430,1,8,0:0:0:0:
402,192,190505,1,8,0:0:0:0:
182,192,190580,128,0,190655:0:0:0:0:
329,192,190580,1,8,0:0:0:0:
182,192,190730,128,0,190805:0:0:0:0:
402,192,190730,1,0,0:0:0:0:
182,192,190880,128,0,191030:0:0:0:0:
475,192,190880,1,8,0:0:0:0:
256,192,190880,1,0,0:0:0:0:
402,192,190955,1,8,0:0:0:0:
329,192,191030,1,8,0:0:0:0:
36,192,191180,128,0,193580:0:0:0:0:
475,192,191180,1,0,0:0:0:0:
402,192,191330,1,8,0:0:0:0:
329,192,191330,1,2,0:0:0:0:
109,192,191480,1,0,0:0:0:0:
182,192,191555,1,0,0:0:0:0:
329,192,191630,1,8,0:0:0:0:
475,192,191630,1,2,0:0:0:0:
256,192,191780,1,0,0:0:0:0:
182,192,191930,1,8,0:0:0:0:
109,192,191930,1,2,0:0:0:0:
475,192,192080,1,0,0:0:0:0:
402,192,192155,1,0,0:0:0:0:
109,192,192230,1,2,0:0:0:0:
256,192,192230,1,8,0:0:0:0:
182,192,192380,128,0,193580:0:0:0:0:
475,192,192380,128,0,192530:0:0:0:0:
329,192,192380,1,0,0:0:0:0:
329,192,192680,128,0,192830:0:0:0:0:
109,192,192680,1,0,0:0:0:0:
256,192,192980,128,0,193130:0:0:0:0:
475,192,192980,1,0,0:0:0:0:
329,192,193130,128,0,193280:0:0:0:0:
402,192,193280,128,0,193430:0:0:0:0:
109,192,193280,1,0,0:0:0:0:
475,192,193430,128,0,193580:0:0:0:0:
109,192,193580,128,0,194780:0:0:0:0:
256,192,193580,1,2,0:0:0:0:
329,192,193655,1,2,0:0:0:0:
402,192,193730,1,2,0:0:0:0:
475,192,193805,1,2,0:0:0:0:
256,192,193880,1,2,0:0:0:0:
329,192,193955,1,2,0:0:0:0:
182,192,194030,128,0,194780:0:0:0:0:
402,192,194030,1,2,0:0:0:0:
475,192,194105,1,2,0:0:0:0:
256,192,194180,1,2,0:0:0:0:
329,192,194180,1,2,0:0:0:0:
256,192,194480,1,2,0:0:0:0:
329,192,194480,1,2,0:0:0:0:
475,192,194780,128,0,195980:0:0:0:0:
256,192,194780,1,2,0:0:0:0:
182,192,194855,1,2,0:0:0:0:
109,192,194930,1,2,0:0:0:0:
36,192,195005,1,2,0:0:0:0:
256,192,195080,1,2,0:0:0:0:
182,192,195155,1,2,0:0:0:0:
402,192,195230,128,0,195980:0:0:0:0:
109,192,195230,1,2,0:0:0:0:
36,192,195305,1,2,0:0:0:0:
182,192,195380,1,0,0:0:0:0:
329,192,195380,1,8,0:0:0:0:
256,192,195455,1,8,0:0:0:0:
36,192,195530,1,0,0:0:0:0:
182,192,195530,1,8,0:0:0:0:
109,192,195605,1,8,0:0:0:0:
36,192,195680,1,0,0:0:0:0:
182,192,195680,1,8,0:0:0:0:
256,192,195755,1,8,0:0:0:0:
182,192,195830,1,0,0:0:0:0:
329,192,195830,1,8,0:0:0:0:
256,192,195905,1,8,0:0:0:0:
329,192,195980,128,0,197180:0:0:0:0:
182,192,195980,1,8,0:0:0:0:
109,192,196130,1,2,0:0:0:0:
36,192,196130,1,8,0:0:0:0:
256,192,196280,1,0,0:0:0:0:
109,192,196430,1,8,0:0:0:0:
36,192,196430,1,2,0:0:0:0:
402,192,196580,1,0,0:0:0:0:
182,192,196730,1,8,0:0:0:0:
256,192,196730,1,2,0:0:0:0:
402,192,196880,1,0,0:0:0:0:
182,192,197030,1,2,0:0:0:0:
256,192,197030,1,8,0:0:0:0:
109,192,197180,128,0,198380:0:0:0:0:
36,192,197180,1,8,0:0:0:0:
475,192,197180,1,0,0:0:0:0:
402,192,197255,1,8,0:0:0:0:
182,192,197330,1,2,0:0:0:0:
256,192,197405,1,2,0:0:0:0:
36,192,197480,1,8,0:0:0:0:
475,192,197480,1,0,0:0:0:0:
182,192,197555,1,8,0:0:0:0:
402,192,197630,1,2,0:0:0:0:
256,192,197705,1,2,0:0:0:0:
36,192,197780,1,8,0:0:0:0:
182,192,197780,1,0,0:0:0:0:
402,192,197855,1,8,0:0:0:0:
475,192,197930,1,2,0:0:0:0:
182,192,198005,1,2,0:0:0:0:
36,192,198080,1,8,0:0:0:0:
256,192,198080,1,0,0:0:0:0:
475,192,198155,1,8,0:0:0:0:
402,192,198230,1,2,0:0:0:0:
329,192,198305,1,2,0:0:0:0:
256,192,198380,1,2,0:0:0:0:
36,192,198380,1,8,0:0:0:0:
475,192,198455,1,2,0:0:0:0:
256,192,198530,1,2,0:0:0:0:
475,192,198605,1,2,0:0:0:0:
256,192,198680,1,2,0:0:0:0:
402,192,198755,1,2,0:0:0:0:
256,192,198830,1,2,0:0:0:0:
402,192,198905,1,2,0:0:0:0:
256,192,198980,1,10,0:0:0:0:
36,192,199055,1,2,0:0:0:0:
256,192,199130,1,2,0:0:0:0:
36,192,199205,1,2,0:0:0:0:
256,192,199280,1,10,0:0:0:0:
109,192,199355,1,2,0:0:0:0:
256,192,199430,1,2,0:0:0:0:
109,192,199505,1,2,0:0:0:0:
402,192,199580,1,8,0:0:0:0:
329,192,199580,1,2,0:0:0:0:
475,192,199580,1,2,0:0:0:0:
36,192,200780,128,4,201680:0:0:0:0:
109,192,200780,1,2,0:0:0:0:
182,192,200855,1,2,0:0:0:0:
256,192,200930,1,0,0:0:0:0:
475,192,200930,1,8,0:0:0:0:
402,192,201005,1,2,0:0:0:0:
329,192,201080,1,2,0:0:0:0:
256,192,201155,1,2,0:0:0:0:
109,192,201230,128,0,201680:0:0:0:0:
475,192,201230,1,8,0:0:0:0:
182,192,201230,1,0,0:0:0:0:
402,192,201305,1,2,0:0:0:0:
329,192,201380,1,2,0:0:0:0:
256,192,201455,1,2,0:0:0:0:
475,192,201530,1,0,0:0:0:0:
182,192,201530,1,8,0:0:0:0:
256,192,201605,1,2,0:0:0:0:
182,192,201680,128,0,201980:0:0:0:0:
329,192,201680,1,2,0:0:0:0:
402,192,201755,1,2,0:0:0:0:
256,192,201830,1,0,0:0:0:0:
109,192,201830,1,8,0:0:0:0:
329,192,201905,1,2,0:0:0:0:
475,192,201980,128,0,202880:0:0:0:0:
402,192,201980,1,2,0:0:0:0:
36,192,202055,1,2,0:0:0:0:
109,192,202130,1,8,0:0:0:0:
329,192,202130,1,0,0:0:0:0:
256,192,202205,1,2,0:0:0:0:
182,192,202280,1,2,0:0:0:0:
109,192,202355,1,2,0:0:0:0:
402,192,202430,128,0,202880:0:0:0:0:
36,192,202430,1,0,0:0:0:0:
329,192,202430,1,8,0:0:0:0:
256,192,202505,1,2,0:0:0:0:
182,192,202580,1,2,0:0:0:0:
109,192,202655,1,2,0:0:0:0:
36,192,202730,1,0,0:0:0:0:
256,192,202730,1,8,0:0:0:0:
182,192,202805,1,2,0:0:0:0:
329,192,202880,128,0,203180:0:0:0:0:
36,192,202880,1,2,0:0:0:0:
109,192,202955,1,2,0:0:0:0:
182,192,203030,1,0,0:0:0:0:
475,192,203030,1,8,0:0:0:0:
256,192,203105,1,2,0:0:0:0:
36,192,203180,128,0,203330:0:0:0:0:
402,192,203180,1,2,0:0:0:0:
109,192,203330,128,0,203480:0:0:0:0:
475,192,203330,1,8,0:0:0:0:
182,192,203330,1,2,0:0:0:0:
329,192,203480,1,0,0:0:0:0:
402,192,203555,1,0,0:0:0:0:
182,192,203630,128,0,203780:0:0:0:0:
475,192,203630,1,2,0:0:0:0:
256,192,203630,1,8,0:0:0:0:
36,192,203780,1,0,0:0:0:0:
475,192,203930,128,0,205130:0:0:0:0:
109,192,203930,1,8,0:0:0:0:
329,192,203930,1,2,0:0:0:0:
36,192,204080,1,0,0:0:0:0:
182,192,204155,1,0,0:0:0:0:
402,192,204230,128,0,205130:0:0:0:0:
109,192,204230,1,8,0:0:0:0:
256,192,204230,1,2,0:0:0:0:
329,192,204380,128,0,205130:0:0:0:0:
182,192,204380,1,0,0:0:0:0:
36,192,204530,1,2,0:0:0:0:
109,192,204530,1,0,0:0:0:0:
256,192,204680,1,0,0:0:0:0:
109,192,204755,1,0,0:0:0:0:
182,192,204830,1,8,0:0:0:0:
36,192,204830,1,0,0:0:0:0:
182,192,204980,1,8,0:0:0:0:
36,192,205130,128,0,205280:0:0:0:0:
109,192,205130,1,8,0:0:0:0:
256,192,205130,1,2,0:0:0:0:
182,192,205280,128,0,205430:0:0:0:0:
36,192,205430,128,0,205580:0:0:0:0:
402,192,205430,1,8,0:0:0:0:
256,192,205580,128,0,206480:0:0:0:0:
475,192,205580,1,2,0:0:0:0:
109,192,205655,1,2,0:0:0:0:
402,192,205730,1,8,0:0:0:0:
182,192,205730,1,2,0:0:0:0:
36,192,205805,1,2,0:0:0:0:
475,192,205880,1,2,0:0:0:0:
182,192,205955,1,2,0:0:0:0:
329,192,206030,1,2,0:0:0:0:
109,192,206030,1,8,0:0:0:0:
402,192,206105,1,2,0:0:0:0:
36,192,206180,1,2,0:0:0:0:
475,192,206255,1,2,0:0:0:0:
402,192,206330,1,8,0:0:0:0:
182,192,206330,1,2,0:0:0:0:
109,192,206405,1,2,0:0:0:0:
329,192,206480,128,0,206780:0:0:0:0:
36,192,206480,1,2,0:0:0:0:
182,192,206555,1,2,0:0:0:0:
36,192,206630,1,8,0:0:0:0:
475,192,206630,1,2,0:0:0:0:
182,192,206705,1,2,0:0:0:0:
402,192,206780,128,0,207680:0:0:0:0:
36,192,206780,1,2,0:0:0:0:
256,192,206855,1,2,0:0:0:0:
182,192,206930,1,8,0:0:0:0:
475,192,206930,1,2,0:0:0:0:
36,192,207005,1,2,0:0:0:0:
109,192,207080,1,2,0:0:0:0:
329,192,207155,1,2,0:0:0:0:
256,192,207230,1,8,0:0:0:0:
182,192,207230,128,0,207530:0:0:0:0:
475,192,207230,1,2,0:0:0:0:
109,192,207380,1,0,0:0:0:0:
36,192,207530,1,2,0:0:0:0:
256,192,207530,1,8,0:0:0:0:
329,192,207605,1,2,0:0:0:0:
475,192,207680,128,0,207830:0:0:0:0:
256,192,207680,1,2,0:0:0:0:
36,192,207755,1,2,0:0:0:0:
109,192,207830,1,8,0:0:0:0:
329,192,207830,1,2,0:0:0:0:
256,192,207905,1,2,0:0:0:0:
182,192,207980,1,2,0:0:0:0:
36,192,207980,128,0,208280:0:0:0:0:
329,192,208130,128,0,208280:0:0:0:0:
256,192,208130,1,8,0:0:0:0:
402,192,208130,1,2,0:0:0:0:
182,192,208280,1,0,0:0:0:0:
402,192,208430,128,0,208730:0:0:0:0:
475,192,208430,128,0,208730:0:0:0:0:
36,192,208430,1,8,0:0:0:0:
256,192,208430,1,2,0:0:0:0:
109,192,208580,1,0,0:0:0:0:
182,192,208730,128,0,209030:0:0:0:0:
329,192,208730,128,0,209030:0:0:0:0:
36,192,208730,1,8,0:0:0:0:
256,192,208730,1,2,0:0:0:0:
109,192,208880,1,0,0:0:0:0:
256,192,209030,1,8,0:0:0:0:
475,192,209030,1,2,0:0:0:0:
36,192,209180,1,8,0:0:0:0:
475,192,209180,1,8,0:0:0:0:
109,192,209255,1,8,0:0:0:0:
402,192,209255,1,8,0:0:0:0:
36,192,209330,1,8,0:0:0:0:
475,192,209330,1,8,0:0:0:0:
182,192,209405,1,8,0:0:0:0:
329,192,209405,1,8,0:0:0:0:
36,192,209480,1,8,0:0:0:0:
475,192,209480,1,4,0:0:0:0:
109,192,209555,1,2,0:0:0:0:
402,192,209630,1,2,0:0:0:0:
256,192,209705,1,2,0:0:0:0:
329,192,209780,1,8,0:0:0:0:
182,192,209780,1,8,0:0:0:0:
36,192,209855,1,8,0:0:0:0:
475,192,209855,1,8,0:0:0:0:
182,192,209930,1,8,0:0:0:0:
329,192,209930,1,8,0:0:0:0:
109,192,210005,1,8,0:0:0:0:
402,192,210005,1,8,0:0:0:0:
182,192,210080,1,8,0:0:0:0:
329,192,210080,1,8,0:0:0:0:
109,192,210155,1,2,0:0:0:0:
36,192,210230,1,2,0:0:0:0:
402,192,210305,1,2,0:0:0:0:
475,192,210380,1,2,0:0:0:0:
36,192,210380,128,0,210530:0:0:0:0:
109,192,210380,128,0,210455:0:0:0:0:
256,192,210455,128,0,210530:0:0:0:0:
402,192,210530,128,8,210605:0:0:0:0:
109,192,210605,128,0,210680:0:0:0:0:
256,192,210680,128,0,210755:0:0:0:0:
402,192,210755,128,0,210830:0:0:0:0:
475,192,210830,128,0,210980:0:0:0:0:
329,192,210830,128,8,210905:0:0:0:0:
256,192,210905,128,0,210980:0:0:0:0:
182,192,210980,128,0,211055:0:0:0:0:
36,192,211130,128,0,211280:0:0:0:0:
329,192,211130,128,8,211205:0:0:0:0:
256,192,211205,128,0,211280:0:0:0:0:
182,192,211280,128,0,211355:0:0:0:0:
109,192,211355,128,0,211430:0:0:0:0:
182,192,211430,128,8,211505:0:0:0:0:
329,192,211505,128,0,211580:0:0:0:0:
475,192,211580,128,0,211730:0:0:0:0:
402,192,211580,128,0,211655:0:0:0:0:
256,192,211655,128,0,211730:0:0:0:0:
109,192,211730,128,8,211805:0:0:0:0:
402,192,211805,128,0,211880:0:0:0:0:
256,192,211880,128,0,211955:0:0:0:0:
109,192,211955,128,0,212030:0:0:0:0:
36,192,212030,128,0,212180:0:0:0:0:
182,192,212030,128,8,212105:0:0:0:0:
256,192,212105,128,0,212180:0:0:0:0:
329,192,212180,128,0,212255:0:0:0:0:
475,192,212330,128,0,212480:0:0:0:0:
182,192,212330,128,8,212405:0:0:0:0:
256,192,212405,128,0,212480:0:0:0:0:
329,192,212480,128,0,212555:0:0:0:0:
402,192,212555,128,0,212630:0:0:0:0:
256,192,212630,128,8,212705:0:0:0:0:
109,192,212705,128,0,212780:0:0:0:0:
475,192,212780,128,0,212855:0:0:0:0:
402,192,212855,128,0,212930:0:0:0:0:
329,192,212930,128,0,213005:0:0:0:0:
109,192,212930,1,8,0:0:0:0:
182,192,212930,1,2,0:0:0:0:
402,192,213080,128,0,213155:0:0:0:0:
329,192,213155,128,0,213230:0:0:0:0:
256,192,213230,128,0,213305:0:0:0:0:
36,192,213230,1,2,0:0:0:0:
109,192,213230,1,8,0:0:0:0:
329,192,213380,128,0,213455:0:0:0:0:
256,192,213455,128,0,213530:0:0:0:0:
182,192,213530,128,0,213605:0:0:0:0:
402,192,213530,1,8,0:0:0:0:
475,192,213530,1,2,0:0:0:0:
256,192,213680,128,0,213755:0:0:0:0:
182,192,213755,128,0,213830:0:0:0:0:
109,192,213830,128,0,213905:0:0:0:0:
329,192,213830,1,8,0:0:0:0:
402,192,213830,1,2,0:0:0:0:
36,192,213980,128,0,214130:0:0:0:0:
256,192,213980,1,0,0:0:0:0:
109,192,214130,128,0,214280:0:0:0:0:
329,192,214130,1,8,0:0:0:0:
475,192,214130,1,2,0:0:0:0:
402,192,214280,1,0,0:0:0:0:
256,192,214430,128,0,214580:0:0:0:0:
36,192,214430,1,8,0:0:0:0:
475,192,214430,1,2,0:0:0:0:
109,192,214580,1,0,0:0:0:0:
182,192,214730,128,0,215180:0:0:0:0:
329,192,214730,128,0,215180:0:0:0:0:
36,192,214730,1,8,0:0:0:0:
475,192,214730,1,2,0:0:0:0:
256,192,214880,1,0,0:0:0:0:
475,192,215030,1,2,0:0:0:0:
36,192,215030,1,8,0:0:0:0:
109,192,215180,128,0,215330:0:0:0:0:
182,192,215330,1,2,0:0:0:0:
329,192,215330,1,8,0:0:0:0:
256,192,215405,1,2,0:0:0:0:
182,192,215480,1,8,0:0:0:0:
475,192,215480,1,2,0:0:0:0:
402,192,215555,1,2,0:0:0:0:
109,192,215630,128,0,215780:0:0:0:0:
329,192,215630,1,8,0:0:0:0:
475,192,215630,1,2,0:0:0:0:
256,192,215780,1,8,0:0:0:0:
402,192,215780,1,0,0:0:0:0:
329,192,215855,1,2,0:0:0:0:
475,192,215930,1,2,0:0:0:0:
109,192,215930,1,2,0:0:0:0:
329,192,216005,1,2,0:0:0:0:
109,192,216080,1,2,0:0:0:0:
475,192,216080,1,2,0:0:0:0:
256,192,216155,1,2,0:0:0:0:
36,192,216230,1,2,0:0:0:0:
182,192,216230,1,2,0:0:0:0:
402,192,216305,1,2,0:0:0:0:
36,192,216380,128,0,216455:0:0:0:0:
256,192,216380,128,0,216530:0:0:0:0:
475,192,216455,128,0,216530:0:0:0:0:
36,192,216530,128,8,216605:0:0:0:0:
475,192,216605,128,0,216680:0:0:0:0:
36,192,216680,128,0,216755:0:0:0:0:
475,192,216755,128,0,216830:0:0:0:0:
256,192,216830,128,8,216980:0:0:0:0:
109,192,216830,128,0,216905:0:0:0:0:
402,192,216905,128,0,216980:0:0:0:0:
36,192,216980,1,8,0:0:0:0:
109,192,216980,1,8,0:0:0:0:
329,192,217055,1,8,0:0:0:0:
402,192,217055,1,8,0:0:0:0:
182,192,217130,1,8,0:0:0:0:
109,192,217130,1,8,0:0:0:0:
402,192,217205,1,8,0:0:0:0:
329,192,217205,1,8,0:0:0:0:
256,192,217280,1,8,0:0:0:0:
182,192,217280,1,8,0:0:0:0:
475,192,217355,1,8,0:0:0:0:
402,192,217355,1,8,0:0:0:0:
182,192,217430,1,8,0:0:0:0:
109,192,217430,1,8,0:0:0:0:
402,192,217505,1,8,0:0:0:0:
329,192,217505,1,8,0:0:0:0:
36,192,217580,1,0,0:0:0:0:
182,192,217580,1,8,0:0:0:0:
256,192,217580,1,8,0:0:0:0:
109,192,217730,1,0,0:0:0:0:
475,192,217880,1,0,0:0:0:0:
329,192,218030,1,0,0:0:0:0:
36,192,218180,1,8,0:0:0:0:
109,192,218180,1,8,0:0:0:0:
182,192,218180,1,0,0:0:0:0:
36,192,218330,1,8,0:0:0:0:
109,192,218330,1,8,0:0:0:0:
475,192,218330,1,0,0:0:0:0:
256,192,218480,1,0,0:0:0:0:
36,192,218630,1,0,0:0:0:0:
329,192,218780,1,0,0:0:0:0:
402,192,218780,1,8,0:0:0:0:
475,192,218780,1,8,0:0:0:0:
256,192,218930,1,0,0:0:0:0:
475,192,218930,1,8,0:0:0:0:
402,192,218930,1,8,0:0:0:0:
36,192,219080,1,0,0:0:0:0:
182,192,219230,1,0,0:0:0:0:
329,192,219380,1,0,0:0:0:0:
36,192,219380,1,8,0:0:0:0:
109,192,219380,1,8,0:0:0:0:
182,192,219530,1,0,0:0:0:0:
36,192,219530,1,8,0:0:0:0:
109,192,219530,1,8,0:0:0:0:
329,192,219680,1,0,0:0:0:0:
475,192,219830,1,0,0:0:0:0:
109,192,219980,128,8,222380:0:0:0:0:
256,192,219980,128,8,222380:0:0:0:0:
402,192,219980,128,8,222380:0:0:0:0:
36,192,222380,1,0,0:0:0:0:
182,192,222530,1,0,0:0:0:0:
256,192,222680,1,0,0:0:0:0:
402,192,222830,1,0,0:0:0:0:
475,192,222980,1,0,0:0:0:0:
402,192,223130,1,0,0:0:0:0:
329,192,223280,1,0,0:0:0:0:
256,192,223430,1,0,0:0:0:0:
36,192,223580,1,0,0:0:0:0:
109,192,223730,1,0,0:0:0:0:
182,192,223880,1,0,0:0:0:0:
329,192,224030,1,0,0:0:0:0:
475,192,224180,1,0,0:0:0:0:
329,192,224330,1,0,0:0:0:0:
256,192,224480,1,0,0:0:0:0:
182,192,224630,1,0,0:0:0:0:
36,192,224780,1,0,0:0:0:0:
182,192,224930,1,0,0:0:0:0:
329,192,225080,1,0,0:0:0:0:
402,192,225230,1,0,0:0:0:0:
109,192,225380,1,0,0:0:0:0:
182,192,225530,1,0,0:0:0:0:
329,192,225680,1,0,0:0:0:0:
475,192,225830,1,0,0:0:0:0:
36,192,225980,1,0,0:0:0:0:
182,192,226130,1,0,0:0:0:0:
329,192,226280,1,0,0:0:0:0:
402,192,226430,1,0,0:0:0:0:
475,192,226580,1,0,0:0:0:0:
402,192,226730,1,0,0:0:0:0:
182,192,226880,1,0,0:0:0:0:
109,192,227030,1,0,0:0:0:0:
36,192,227180,1,0,0:0:0:0:
182,192,227330,1,0,0:0:0:0:
329,192,227480,1,0,0:0:0:0:
402,192,227630,1,0,0:0:0:0:
475,192,227780,1,0,0:0:0:0:
329,192,227930,1,0,0:0:0:0:
182,192,228080,1,0,0:0:0:0:
475,192,228230,1,0,0:0:0:0:
36,192,228380,1,0,0:0:0:0:
182,192,228530,1,0,0:0:0:0:
256,192,228680,1,0,0:0:0:0:
329,192,228830,1,0,0:0:0:0:
475,192,228980,1,0,0:0:0:0:
329,192,229130,1,0,0:0:0:0:
182,192,229280,1,0,0:0:0:0:
402,192,229430,1,0,0:0:0:0:
36,192,229580,1,0,0:0:0:0:
109,192,229730,1,0,0:0:0:0:
182,192,229880,1,0,0:0:0:0:
329,192,230030,1,0,0:0:0:0:
475,192,230180,1,0,0:0:0:0:
256,192,230330,1,0,0:0:0:0:
402,192,230480,1,0,0:0:0:0:
475,192,230630,1,0,0:0:0:0:
256,192,230780,128,0,231980:0:0:0:0:
36,192,230780,1,0,0:0:0:0:
182,192,230930,1,0,0:0:0:0:
329,192,231080,1,0,0:0:0:0:
402,192,231230,1,0,0:0:0:0:
475,192,231380,1,0,0:0:0:0:
402,192,231530,1,0,0:0:0:0:
329,192,231680,1,0,0:0:0:0:
109,192,231830,1,0,0:0:0:0:
475,192,231980,1,8,0:0:0:0:
36,192,231980,1,0,0:0:0:0:
402,192,231980,1,8,0:0:0:0:
475,192,232130,1,0,0:0:0:0:
36,192,232130,1,8,0:0:0:0:
109,192,232130,1,8,0:0:0:0:
256,192,232280,1,0,0:0:0:0:
109,192,232430,1,0,0:0:0:0:
256,192,232580,1,0,0:0:0:0:
256,192,232730,1,0,0:0:0:0:
402,192,232880,1,0,0:0:0:0:
256,192,233030,1,0,0:0:0:0:
36,192,233180,1,0,0:0:0:0:
475,192,233180,1,8,0:0:0:0:
402,192,233180,1,8,0:0:0:0:
36,192,233330,1,8,0:0:0:0:
475,192,233330,1,0,0:0:0:0:
109,192,233330,1,8,0:0:0:0:
182,192,233480,1,0,0:0:0:0:
402,192,233630,1,0,0:0:0:0:
329,192,233780,1,0,0:0:0:0:
329,192,233930,1,0,0:0:0:0:
109,192,234080,1,0,0:0:0:0:
182,192,234230,1,0,0:0:0:0:
329,192,234380,128,4,235580:0:0:0:0:
475,192,234380,128,4,235580:0:0:0:0:
402,192,234380,1,8,0:0:0:0:
36,192,235580,128,4,236780:0:0:0:0:
182,192,235580,128,4,236180:0:0:0:0:
109,192,235580,1,8,0:0:0:0:
329,192,236180,128,4,236780:0:0:0:0:
256,192,236180,1,8,0:0:0:0:
109,192,236780,128,4,237980:0:0:0:0:
256,192,236780,128,4,237980:0:0:0:0:
182,192,236780,1,8,0:0:0:0:
36,192,237980,1,8,0:0:0:0:
475,192,237980,1,8,0:0:0:0:
36,192,238130,1,8,0:0:0:0:
475,192,238130,1,8,0:0:0:0:
36,192,238280,1,8,0:0:0:0:
475,192,238280,1,8,0:0:0:0:
109,192,239180,128,4,239480:0:0:0:0:
402,192,239180,128,4,239480:0:0:0:0:
36,192,239480,1,8,0:0:0:0:
256,192,239480,1,2,0:0:0:0:
36,192,239630,1,8,0:0:0:0:
256,192,239630,1,2,0:0:0:0:
36,192,239780,1,8,0:0:0:0:
256,192,239780,1,2,0:0:0:0:
475,192,239930,1,8,0:0:0:0:
256,192,239930,1,2,0:0:0:0:
256,192,240080,1,8,0:0:0:0:
475,192,240080,1,2,0:0:0:0:
256,192,240230,1,8,0:0:0:0:
475,192,240230,1,2,0:0:0:0:
36,192,240380,1,8,0:0:0:0:
329,192,240380,1,8,0:0:0:0:
182,192,240465,1,8,0:0:0:0:
402,192,240551,1,8,0:0:0:0:
109,192,240637,1,8,0:0:0:0:
329,192,240637,1,8,0:0:0:0:
256,192,240722,1,8,0:0:0:0:
402,192,240808,1,8,0:0:0:0:
36,192,240894,1,8,0:0:0:0:
256,192,240894,1,8,0:0:0:0:
182,192,240980,1,8,0:0:0:0:
329,192,241065,1,8,0:0:0:0:
475,192,241065,1,8,0:0:0:0:
36,192,241151,1,8,0:0:0:0:
256,192,241237,1,8,0:0:0:0:
182,192,241237,1,8,0:0:0:0:
109,192,241322,1,8,0:0:0:0:
402,192,241322,1,8,0:0:0:0:
256,192,241408,1,8,0:0:0:0:
329,192,241408,1,8,0:0:0:0:
182,192,241494,1,8,0:0:0:0:
36,192,241580,1,8,0:0:0:0:
475,192,241580,1,8,0:0:0:0:
109,192,241665,1,8,0:0:0:0:
182,192,241665,1,8,0:0:0:0:
256,192,241751,128,4,241837:0:0:0:0:
109,192,241837,128,0,241922:0:0:0:0:
402,192,241922,128,0,242008:0:0:0:0:
182,192,241922,1,8,0:0:0:0:
36,192,241922,1,0,0:0:0:0:
256,192,242008,128,0,242094:0:0:0:0:
182,192,242094,128,0,242180:0:0:0:0:
475,192,242180,128,0,242265:0:0:0:0:
36,192,242265,128,0,242351:0:0:0:0:
329,192,242265,1,8,0:0:0:0:
402,192,242265,1,0,0:0:0:0:
109,192,242351,128,0,242437:0:0:0:0:
256,192,242437,128,0,242522:0:0:0:0:
402,192,242522,128,0,242608:0:0:0:0:
475,192,242608,128,0,242694:0:0:0:0:
36,192,242608,1,8,0:0:0:0:
182,192,242608,1,0,0:0:0:0:
256,192,242694,128,0,242780:0:0:0:0:
402,192,242780,128,0,242865:0:0:0:0:
182,192,242865,128,0,242951:0:0:0:0:
329,192,242951,128,0,243037:0:0:0:0:
475,192,242951,1,8,0:0:0:0:
402,192,242951,1,0,0:0:0:0:
109,192,243037,128,0,243122:0:0:0:0:
36,192,243122,1,0,0:0:0:0:
109,192,243180,1,0,0:0:0:0:
182,192,243237,1,0,0:0:0:0:
402,192,243294,1,8,0:0:0:0:
256,192,243294,1,0,0:0:0:0:
182,192,243351,1,0,0:0:0:0:
256,192,243408,1,0,0:0:0:0:
329,192,243465,1,0,0:0:0:0:
475,192,243522,1,0,0:0:0:0:
329,192,243580,1,0,0:0:0:0:
109,192,243637,1,8,0:0:0:0:
475,192,243637,1,0,0:0:0:0:
402,192,243694,1,0,0:0:0:0:
329,192,243751,1,0,0:0:0:0:
256,192,243808,1,0,0:0:0:0:
36,192,243865,1,0,0:0:0:0:
109,192,243922,1,0,0:0:0:0:
402,192,243980,1,8,0:0:0:0:
182,192,243980,1,0,0:0:0:0:
256,192,244037,1,0,0:0:0:0:
182,192,244094,1,0,0:0:0:0:
256,192,244151,128,0,244494:0:0:0:0:
36,192,244494,1,0,0:0:0:0:
109,192,244580,1,0,0:0:0:0:
182,192,244665,1,0,0:0:0:0:
475,192,244665,1,8,0:0:0:0:
256,192,244751,1,0,0:0:0:0:
182,192,244837,1,0,0:0:0:0:
256,192,244922,1,0,0:0:0:0:
36,192,245008,1,8,0:0:0:0:
329,192,245008,1,0,0:0:0:0:
402,192,245094,1,0,0:0:0:0:
329,192,245180,1,0,0:0:0:0:
402,192,245265,1,0,0:0:0:0:
475,192,245351,1,0,0:0:0:0:
109,192,245351,1,8,0:0:0:0:
402,192,245437,1,0,0:0:0:0:
475,192,245522,1,0,0:0:0:0:
402,192,245608,1,0,0:0:0:0:
329,192,245694,1,0,0:0:0:0:
36,192,245694,1,8,0:0:0:0:
256,192,245780,1,0,0:0:0:0:
329,192,245865,1,0,0:0:0:0:
475,192,245865,128,0,246208:0:0:0:0:
182,192,245951,1,0,0:0:0:0:
402,192,246037,1,8,0:0:0:0:
329,192,246122,1,0,0:0:0:0:
182,192,246208,1,0,0:0:0:0:
402,192,246208,128,0,246551:0:0:0:0:
109,192,246294,1,0,0:0:0:0:
36,192,246380,1,8,0:0:0:0:
256,192,246465,1,0,0:0:0:0:
329,192,246551,128,0,246894:0:0:0:0:
36,192,246551,1,0,0:0:0:0:
109,192,246637,1,0,0:0:0:0:
256,192,246722,1,8,0:0:0:0:
182,192,246808,1,0,0:0:0:0:
109,192,246894,128,0,246980:0:0:0:0:
402,192,246980,128,0,247065:0:0:0:0:
109,192,247065,128,0,247151:0:0:0:0:
402,192,247151,128,0,247237:0:0:0:0:
36,192,247237,128,0,247322:0:0:0:0:
182,192,247322,128,0,247408:0:0:0:0:
109,192,247408,128,0,247494:0:0:0:0:
402,192,247408,1,8,0:0:0:0:
329,192,247408,1,0,0:0:0:0:
182,192,247494,128,0,247580:0:0:0:0:
475,192,247580,128,0,247665:0:0:0:0:
402,192,247665,128,0,247751:0:0:0:0:
329,192,247751,128,0,247837:0:0:0:0:
109,192,247751,1,8,0:0:0:0:
36,192,247751,1,0,0:0:0:0:
256,192,247837,128,0,247922:0:0:0:0:
475,192,247922,128,0,248008:0:0:0:0:
256,192,248008,128,0,248094:0:0:0:0:
402,192,248094,128,0,248180:0:0:0:0:
109,192,248094,1,8,0:0:0:0:
36,192,248094,1,0,0:0:0:0:
182,192,248180,128,0,248265:0:0:0:0:
36,192,248265,128,0,248351:0:0:0:0:
109,192,248351,128,0,248437:0:0:0:0:
402,192,248437,1,8,0:0:0:0:
182,192,248437,128,0,248522:0:0:0:0:
475,192,248437,1,0,0:0:0:0:
256,192,248522,128,0,248608:0:0:0:0:
36,192,248608,128,0,248780:0:0:0:0:
182,192,248780,128,0,248951:0:0:0:0:
402,192,248780,1,8,0:0:0:0:
256,192,248865,1,0,0:0:0:0:
36,192,248951,128,0,249122:0:0:0:0:
475,192,248951,1,0,0:0:0:0:
329,192,249037,1,0,0:0:0:0:
256,192,249122,128,0,249294:0:0:0:0:
475,192,249122,1,8,0:0:0:0:
329,192,249294,128,0,249980:0:0:0:0:
475,192,249294,128,0,249980:0:0:0:0:
109,192,249465,1,0,0:0:0:0:
182,192,249465,1,8,0:0:0:0:
109,192,249808,1,8,0:0:0:0:
36,192,249808,1,0,0:0:0:0:
36,192,249980,128,0,250322:0:0:0:0:
256,192,250151,1,2,0:0:0:0:
475,192,250237,1,2,0:0:0:0:
109,192,250322,128,0,250494:0:0:0:0:
256,192,250322,1,2,0:0:0:0:
475,192,250408,1,2,0:0:0:0:
182,192,250494,128,0,250837:0:0:0:0:
256,192,250494,1,2,0:0:0:0:
329,192,250665,1,0,0:0:0:0:
475,192,250837,128,0,251008:0:0:0:0:
36,192,250837,1,2,0:0:0:0:
256,192,250922,1,2,0:0:0:0:
402,192,251008,128,0,251180:0:0:0:0:
36,192,251008,1,2,0:0:0:0:
256,192,251094,1,2,0:0:0:0:
329,192,251180,128,0,251351:0:0:0:0:
36,192,251180,1,2,0:0:0:0:
36,192,251351,128,0,251694:0:0:0:0:
256,192,251351,128,0,251694:0:0:0:0:
109,192,251351,1,0,0:0:0:0:
182,192,251351,1,0,0:0:0:0:
109,192,251694,128,0,252037:0:0:0:0:
329,192,251694,128,0,252037:0:0:0:0:
182,192,252037,128,0,252380:0:0:0:0:
402,192,252037,128,0,252380:0:0:0:0:
256,192,252380,128,0,252722:0:0:0:0:
475,192,252380,128,0,252722:0:0:0:0:
36,192,252722,128,4,254094:0:0:0:0:
182,192,252722,128,0,253408:0:0:0:0:
329,192,252722,1,0,0:0:0:0:
402,192,252722,1,0,0:0:0:0:
256,192,252894,1,0,0:0:0:0:
475,192,252894,1,8,0:0:0:0:
402,192,252980,1,2,0:0:0:0:
109,192,253065,1,2,0:0:0:0:
475,192,253065,1,2,0:0:0:0:
256,192,253151,1,2,0:0:0:0:
329,192,253237,1,0,0:0:0:0:
475,192,253237,1,8,0:0:0:0:
402,192,253408,1,0,0:0:0:0:
109,192,253408,1,0,0:0:0:0:
256,192,253580,128,0,253751:0:0:0:0:
182,192,253580,1,8,0:0:0:0:
329,192,253751,128,0,253922:0:0:0:0:
402,192,253922,128,0,254094:0:0:0:0:
182,192,253922,1,8,0:0:0:0:
329,192,254094,128,0,254780:0:0:0:0:
475,192,254094,128,0,255294:0:0:0:0:
256,192,254094,1,0,0:0:0:0:
182,192,254265,1,8,0:0:0:0:
109,192,254265,1,0,0:0:0:0:
256,192,254351,1,2,0:0:0:0:
36,192,254437,1,2,0:0:0:0:
402,192,254437,1,2,0:0:0:0:
182,192,254522,1,2,0:0:0:0:
256,192,254608,1,0,0:0:0:0:
36,192,254608,1,8,0:0:0:0:
402,192,254780,1,0,0:0:0:0:
109,192,254780,1,0,0:0:0:0:
256,192,254951,1,8,0:0:0:0:
36,192,254951,1,0,0:0:0:0:
182,192,255037,1,2,0:0:0:0:
329,192,255208,1,2,0:0:0:0:
182,192,255294,1,0,0:0:0:0:
402,192,255294,1,8,0:0:0:0:
182,192,255465,128,0,256494:0:0:0:0:
329,192,255465,128,0,256494:0:0:0:0:
402,192,255465,1,0,0:0:0:0:
36,192,255637,1,0,0:0:0:0:
256,192,255637,1,8,0:0:0:0:
109,192,255722,1,2,0:0:0:0:
256,192,255808,1,2,0:0:0:0:
402,192,255894,1,2,0:0:0:0:
256,192,255980,1,8,0:0:0:0:
475,192,255980,1,0,0:0:0:0:
36,192,255980,128,0,256494:0:0:0:0:
109,192,256322,1,0,0:0:0:0:
402,192,256322,1,8,0:0:0:0:
475,192,256494,128,0,256837:0:0:0:0:
256,192,256494,128,4,256837:0:0:0:0:
329,192,256665,1,8,0:0:0:0:
402,192,256665,1,0,0:0:0:0:
36,192,256837,128,0,257351:0:0:0:0:
109,192,256837,1,0,0:0:0:0:
182,192,256837,1,0,0:0:0:0:
256,192,257008,1,8,0:0:0:0:
475,192,257008,1,0,0:0:0:0:
329,192,257094,1,2,0:0:0:0:
256,192,257265,1,2,0:0:0:0:
109,192,257351,1,0,0:0:0:0:
402,192,257351,1,8,0:0:0:0:
475,192,257351,128,0,257522:0:0:0:0:
182,192,257351,128,0,257865:0:0:0:0:
329,192,257522,128,0,257694:0:0:0:0:
475,192,257694,128,0,257865:0:0:0:0:
36,192,257694,1,0,0:0:0:0:
109,192,257694,1,8,0:0:0:0:
329,192,257865,128,0,258208:0:0:0:0:
256,192,257865,128,0,258208:0:0:0:0:
36,192,258037,1,0,0:0:0:0:
182,192,258037,1,0,0:0:0:0:
36,192,258208,1,2,0:0:0:0:
402,192,258294,1,2,0:0:0:0:
109,192,258380,1,2,0:0:0:0:
475,192,258465,1,2,0:0:0:0:
256,192,258551,1,2,0:0:0:0:
36,192,258637,1,2,0:0:0:0:
109,192,258722,1,2,0:0:0:0:
182,192,258808,1,2,0:0:0:0:
256,192,258894,1,2,0:0:0:0:
475,192,258980,1,2,0:0:0:0:
402,192,259065,1,2,0:0:0:0:
329,192,259151,1,2,0:0:0:0:
36,192,259237,1,2,0:0:0:0:
182,192,259322,1,2,0:0:0:0:
36,192,259408,1,2,0:0:0:0:
182,192,259494,1,2,0:0:0:0:
36,192,259580,1,2,0:0:0:0:
475,192,259580,128,0,259665:0:0:0:0:
402,192,259665,128,0,259751:0:0:0:0:
329,192,259751,128,0,259837:0:0:0:0:
256,192,259837,128,0,259922:0:0:0:0:
182,192,259922,128,0,260265:0:0:0:0:
36,192,260265,1,0,0:0:0:0:
256,192,260322,1,0,0:0:0:0:
36,192,260380,1,0,0:0:0:0:
256,192,260437,1,0,0:0:0:0:
109,192,260494,1,0,0:0:0:0:
329,192,260551,1,0,0:0:0:0:
182,192,260608,1,0,0:0:0:0:
402,192,260665,1,0,0:0:0:0:
256,192,260722,1,0,0:0:0:0:
475,192,260780,128,0,260951:0:0:0:0:
36,192,260951,1,0,0:0:0:0:
402,192,260951,1,0,0:0:0:0:
256,192,261008,1,0,0:0:0:0:
109,192,261065,1,0,0:0:0:0:
256,192,261122,1,0,0:0:0:0:
36,192,261180,1,0,0:0:0:0:
475,192,261237,1,0,0:0:0:0:
256,192,261294,1,0,0:0:0:0:
109,192,261294,1,0,0:0:0:0:
402,192,261351,1,0,0:0:0:0:
256,192,261408,1,0,0:0:0:0:
475,192,261465,1,0,0:0:0:0:
36,192,261465,1,0,0:0:0:0:
109,192,261522,1,0,0:0:0:0:
182,192,261580,1,0,0:0:0:0:
402,192,261637,1,0,0:0:0:0:
36,192,261637,1,0,0:0:0:0:
329,192,261694,1,0,0:0:0:0:
256,192,261751,1,0,0:0:0:0:
109,192,261808,1,0,0:0:0:0:
182,192,261865,1,0,0:0:0:0:
256,192,261922,1,0,0:0:0:0:
475,192,261980,1,0,0:0:0:0:
109,192,261980,1,0,0:0:0:0:
402,192,262037,1,0,0:0:0:0:
329,192,262094,1,0,0:0:0:0:
36,192,262151,1,0,0:0:0:0:
475,192,262208,1,0,0:0:0:0:
402,192,262265,1,0,0:0:0:0:
36,192,262322,128,2,262494:0:0:0:0:
256,192,262322,128,2,262665:0:0:0:0:
329,192,262322,1,0,0:0:0:0:
109,192,262494,128,8,262665:0:0:0:0:
182,192,262665,128,2,262837:0:0:0:0:
329,192,262665,128,2,263008:0:0:0:0:
256,192,262837,128,8,263008:0:0:0:0:
182,192,263008,128,2,263180:0:0:0:0:
402,192,263008,128,2,263351:0:0:0:0:
256,192,263180,128,8,263351:0:0:0:0:
329,192,263351,128,2,263522:0:0:0:0:
475,192,263351,128,2,263694:0:0:0:0:
402,192,263522,128,8,263694:0:0:0:0:
256,192,263694,128,4,263865:0:0:0:0:
36,192,263865,1,2,0:0:0:0:
475,192,263865,1,8,0:0:0:0:
329,192,263951,1,2,0:0:0:0:
109,192,264037,1,2,0:0:0:0:
256,192,264037,1,2,0:0:0:0:
402,192,264122,1,2,0:0:0:0:
182,192,264208,1,2,0:0:0:0:
475,192,264208,1,8,0:0:0:0:
402,192,264294,1,2,0:0:0:0:
182,192,264380,1,2,0:0:0:0:
36,192,264380,1,2,0:0:0:0:
329,192,264465,1,2,0:0:0:0:
109,192,264551,1,2,0:0:0:0:
402,192,264551,1,8,0:0:0:0:
36,192,264637,1,2,0:0:0:0:
182,192,264722,1,2,0:0:0:0:
475,192,264722,1,2,0:0:0:0:
329,192,264808,1,2,0:0:0:0:
475,192,264894,1,8,0:0:0:0:
36,192,264894,1,2,0:0:0:0:
182,192,264980,1,2,0:0:0:0:
256,192,265065,1,2,0:0:0:0:
109,192,265065,1,2,0:0:0:0:
329,192,265151,1,2,0:0:0:0:
256,192,265237,1,2,0:0:0:0:
475,192,265237,1,8,0:0:0:0:
402,192,265322,1,2,0:0:0:0:
256,192,265408,1,2,0:0:0:0:
109,192,265408,1,2,0:0:0:0:
402,192,265494,1,2,0:0:0:0:
256,192,265580,1,8,0:0:0:0:
36,192,265580,1,2,0:0:0:0:
109,192,265665,1,2,0:0:0:0:
256,192,265751,1,2,0:0:0:0:
402,192,265751,1,2,0:0:0:0:
109,192,265837,1,2,0:0:0:0:
256,192,265922,1,8,0:0:0:0:
475,192,265922,1,2,0:0:0:0:
182,192,266008,1,2,0:0:0:0:
109,192,266094,128,0,266437:0:0:0:0:
402,192,266437,1,2,0:0:0:0:
182,192,266437,1,0,0:0:0:0:
475,192,266522,1,2,0:0:0:0:
329,192,266608,1,8,0:0:0:0:
36,192,266608,1,2,0:0:0:0:
402,192,266694,1,2,0:0:0:0:
256,192,266780,1,2,0:0:0:0:
109,192,266780,1,2,0:0:0:0:
329,192,266865,1,2,0:0:0:0:
182,192,266951,1,8,0:0:0:0:
36,192,266951,1,2,0:0:0:0:
256,192,267037,1,2,0:0:0:0:
109,192,267122,1,2,0:0:0:0:
329,192,267122,1,2,0:0:0:0:
36,192,267208,1,2,0:0:0:0:
182,192,267294,1,2,0:0:0:0:
475,192,267294,1,8,0:0:0:0:
109,192,267380,1,2,0:0:0:0:
256,192,267465,1,2,0:0:0:0:
402,192,267465,1,2,0:0:0:0:
182,192,267551,1,2,0:0:0:0:
329,192,267637,1,2,0:0:0:0:
475,192,267637,1,8,0:0:0:0:
256,192,267722,1,2,0:0:0:0:
36,192,267808,1,0,0:0:0:0:
109,192,267865,1,0,0:0:0:0:
182,192,267922,1,0,0:0:0:0:
475,192,267980,1,8,0:0:0:0:
36,192,267980,1,2,0:0:0:0:
402,192,268037,1,0,0:0:0:0:
329,192,268094,1,0,0:0:0:0:
109,192,268151,1,0,0:0:0:0:
182,192,268208,1,0,0:0:0:0:
256,192,268265,1,0,0:0:0:0:
402,192,268322,1,8,0:0:0:0:
36,192,268322,1,2,0:0:0:0:
329,192,268380,1,0,0:0:0:0:
256,192,268437,1,0,0:0:0:0:
36,192,268494,1,0,0:0:0:0:
329,192,268551,1,0,0:0:0:0:
109,192,268608,1,0,0:0:0:0:
329,192,268665,1,2,0:0:0:0:
475,192,268665,1,8,0:0:0:0:
182,192,268722,1,0,0:0:0:0:
329,192,268780,1,0,0:0:0:0:
475,192,268837,1,0,0:0:0:0:
182,192,268894,1,0,0:0:0:0:
402,192,268951,1,0,0:0:0:0:
182,192,269008,1,8,0:0:0:0:
36,192,269008,1,2,0:0:0:0:
402,192,269065,1,0,0:0:0:0:
182,192,269122,1,0,0:0:0:0:
36,192,269180,1,2,0:0:0:0:
475,192,269180,1,2,0:0:0:0:
402,192,269265,1,2,0:0:0:0:
109,192,269351,1,2,0:0:0:0:
329,192,269351,1,8,0:0:0:0:
256,192,269437,1,2,0:0:0:0:
36,192,269522,1,2,0:0:0:0:
402,192,269608,1,2,0:0:0:0:
109,192,269694,1,2,0:0:0:0:
329,192,269694,1,8,0:0:0:0:
256,192,269780,1,2,0:0:0:0:
182,192,269865,1,2,0:0:0:0:
36,192,269865,1,2,0:0:0:0:
475,192,269951,1,2,0:0:0:0:
402,192,270037,1,8,0:0:0:0:
109,192,270037,1,2,0:0:0:0:
329,192,270122,1,2,0:0:0:0:
256,192,270208,1,2,0:0:0:0:
36,192,270208,1,2,0:0:0:0:
402,192,270294,1,2,0:0:0:0:
329,192,270380,1,8,0:0:0:0:
109,192,270380,1,2,0:0:0:0:
256,192,270465,1,2,0:0:0:0:
182,192,270551,1,2,0:0:0:0:
475,192,270551,1,2,0:0:0:0:
402,192,270637,1,2,0:0:0:0:
36,192,270722,1,2,0:0:0:0:
182,192,270722,1,8,0:0:0:0:
256,192,270808,1,2,0:0:0:0:
109,192,270894,1,2,0:0:0:0:
329,192,270894,1,2,0:0:0:0:
256,192,270980,1,2,0:0:0:0:
402,192,271065,1,8,0:0:0:0:
475,192,271065,1,2,0:0:0:0:
329,192,271151,1,2,0:0:0:0:
256,192,271237,1,2,0:0:0:0:
475,192,271237,1,2,0:0:0:0:
36,192,271322,1,2,0:0:0:0:
109,192,271408,1,2,0:0:0:0:
256,192,271408,1,8,0:0:0:0:
402,192,271494,1,2,0:0:0:0:
182,192,271580,1,2,0:0:0:0:
329,192,271580,1,2,0:0:0:0:
109,192,271665,1,2,0:0:0:0:
402,192,271665,1,2,0:0:0:0:
36,192,271751,1,8,0:0:0:0:
475,192,271751,1,2,0:0:0:0:
402,192,271837,1,2,0:0:0:0:
109,192,271837,1,2,0:0:0:0:
329,192,271922,1,0,0:0:0:0:
182,192,271922,1,0,0:0:0:0:
36,192,271922,128,0,272094:0:0:0:0:
256,192,272094,1,2,0:0:0:0:
475,192,272094,1,8,0:0:0:0:
36,192,272180,1,0,0:0:0:0:
109,192,272437,1,0,0:0:0:0:
256,192,272437,1,8,0:0:0:0:
475,192,272437,1,2,0:0:0:0:
109,192,272608,128,0,272780:0:0:0:0:
329,192,272780,1,8,0:0:0:0:
475,192,272780,1,2,0:0:0:0:
182,192,272865,128,0,273122:0:0:0:0:
256,192,273122,128,0,273294:0:0:0:0:
36,192,273122,1,2,0:0:0:0:
402,192,273122,1,8,0:0:0:0:
329,192,273294,128,0,273380:0:0:0:0:
182,192,273294,1,8,0:0:0:0:
475,192,273380,128,0,273465:0:0:0:0:
36,192,273380,1,8,0:0:0:0:
329,192,273465,128,0,273551:0:0:0:0:
182,192,273465,1,8,0:0:0:0:
36,192,273551,1,8,0:0:0:0:
182,192,273637,1,8,0:0:0:0:
475,192,273637,1,0,0:0:0:0:
402,192,273722,1,8,0:0:0:0:
329,192,273808,1,8,0:0:0:0:
256,192,273894,1,8,0:0:0:0:
109,192,273980,1,0,0:0:0:0:
402,192,273980,1,8,0:0:0:0:
182,192,274065,1,0,0:0:0:0:
329,192,274065,1,8,0:0:0:0:
109,192,274151,1,0,0:0:0:0:
402,192,274151,1,8,0:0:0:0:
329,192,274237,1,8,0:0:0:0:
182,192,274237,1,0,0:0:0:0:
475,192,274322,1,8,0:0:0:0:
36,192,274322,1,0,0:0:0:0:
109,192,274408,1,8,0:0:0:0:
402,192,274408,1,0,0:0:0:0:
182,192,274494,1,8,0:0:0:0:
329,192,274494,1,0,0:0:0:0:
109,192,274580,1,8,0:0:0:0:
402,192,274580,1,0,0:0:0:0:
182,192,274665,1,8,0:0:0:0:
329,192,274665,1,0,0:0:0:0:
475,192,274665,128,0,275180:0:0:0:0:
402,192,274837,128,0,275180:0:0:0:0:
109,192,274837,1,8,0:0:0:0:
256,192,274837,1,2,0:0:0:0:
36,192,275180,128,0,275265:0:0:0:0:
256,192,275180,1,8,0:0:0:0:
329,192,275180,1,2,0:0:0:0:
109,192,275265,128,0,275351:0:0:0:0:
182,192,275351,128,0,275865:0:0:0:0:
256,192,275522,1,8,0:0:0:0:
402,192,275522,1,2,0:0:0:0:
329,192,275608,128,0,275865:0:0:0:0:
36,192,275865,1,2,0:0:0:0:
256,192,275865,1,8,0:0:0:0:
475,192,275865,128,0,276037:0:0:0:0:
36,192,276037,128,0,276208:0:0:0:0:
109,192,276208,128,0,276551:0:0:0:0:
182,192,276208,1,8,0:0:0:0:
329,192,276208,1,2,0:0:0:0:
256,192,276551,128,0,276722:0:0:0:0:
402,192,276551,1,8,0:0:0:0:
36,192,276551,1,2,0:0:0:0:
329,192,276722,128,0,276894:0:0:0:0:
475,192,276722,128,0,277065:0:0:0:0:
256,192,276894,128,0,277065:0:0:0:0:
36,192,276894,1,2,0:0:0:0:
109,192,276894,1,8,0:0:0:0:
182,192,277065,128,0,277408:0:0:0:0:
402,192,277065,128,0,277408:0:0:0:0:
36,192,277237,1,8,0:0:0:0:
329,192,277237,1,2,0:0:0:0:
109,192,277408,1,0,0:0:0:0:
36,192,277494,1,0,0:0:0:0:
329,192,277580,1,2,0:0:0:0:
256,192,277580,1,8,0:0:0:0:
109,192,277665,1,0,0:0:0:0:
402,192,277751,1,0,0:0:0:0:
329,192,277751,1,0,0:0:0:0:
182,192,277837,1,0,0:0:0:0:
475,192,277922,1,2,0:0:0:0:
402,192,277922,1,8,0:0:0:0:
256,192,278008,1,0,0:0:0:0:
402,192,278094,1,0,0:0:0:0:
475,192,278094,1,0,0:0:0:0:
329,192,278180,1,0,0:0:0:0:
182,192,278265,1,2,0:0:0:0:
256,192,278265,1,8,0:0:0:0:
475,192,278351,1,0,0:0:0:0:
182,192,278437,1,0,0:0:0:0:
109,192,278437,1,0,0:0:0:0:
329,192,278522,1,0,0:0:0:0:
36,192,278608,1,2,0:0:0:0:
109,192,278608,1,8,0:0:0:0:
256,192,278694,1,0,0:0:0:0:
182,192,278780,128,0,279122:0:0:0:0:
329,192,278780,128,0,279122:0:0:0:0:
36,192,278951,1,2,0:0:0:0:
475,192,278951,1,8,0:0:0:0:
256,192,279122,128,0,279294:0:0:0:0:
475,192,279294,128,0,279808:0:0:0:0:
109,192,279294,1,2,0:0:0:0:
402,192,279294,1,8,0:0:0:0:
36,192,279294,128,0,280151:0:0:0:0:
182,192,279637,1,8,0:0:0:0:
329,192,279637,1,2,0:0:0:0:
402,192,279808,128,0,280151:0:0:0:0:
109,192,279980,1,8,0:0:0:0:
329,192,279980,1,2,0:0:0:0:
256,192,280151,1,0,0:0:0:0:
182,192,280151,1,0,0:0:0:0:
475,192,280237,1,0,0:0:0:0:
182,192,280322,1,8,0:0:0:0:
329,192,280322,1,2,0:0:0:0:
475,192,280408,1,0,0:0:0:0:
256,192,280494,1,0,0:0:0:0:
329,192,280494,1,0,0:0:0:0:
36,192,280580,1,0,0:0:0:0:
329,192,280665,1,2,0:0:0:0:
182,192,280665,1,8,0:0:0:0:
36,192,280751,1,0,0:0:0:0:
256,192,280837,1,0,0:0:0:0:
182,192,280837,1,0,0:0:0:0:
329,192,280922,1,0,0:0:0:0:
109,192,281008,1,8,0:0:0:0:
475,192,281008,1,2,0:0:0:0:
256,192,281094,1,0,0:0:0:0:
36,192,281180,1,0,0:0:0:0:
329,192,281180,1,0,0:0:0:0:
109,192,281265,1,0,0:0:0:0:
402,192,281351,1,2,0:0:0:0:
256,192,281351,1,8,0:0:0:0:
182,192,281437,1,0,0:0:0:0:
475,192,281522,1,0,0:0:0:0:
36,192,281522,128,0,281608:0:0:0:0:
256,192,281608,128,0,281694:0:0:0:0:
109,192,281694,128,0,281780:0:0:0:0:
329,192,281694,1,2,0:0:0:0:
182,192,281694,1,8,0:0:0:0:
402,192,281780,128,0,281865:0:0:0:0:
475,192,281865,128,0,281951:0:0:0:0:
36,192,281865,1,0,0:0:0:0:
109,192,281951,128,0,282037:0:0:0:0:
402,192,282037,128,0,282122:0:0:0:0:
329,192,282037,1,2,0:0:0:0:
182,192,282037,1,8,0:0:0:0:
256,192,282122,128,0,282208:0:0:0:0:
36,192,282208,1,0,0:0:0:0:
109,192,282294,1,0,0:0:0:0:
182,192,282380,1,8,0:0:0:0:
475,192,282380,1,2,0:0:0:0:
36,192,282465,1,0,0:0:0:0:
475,192,282551,1,0,0:0:0:0:
402,192,282637,1,0,0:0:0:0:
329,192,282722,1,8,0:0:0:0:
36,192,282722,1,2,0:0:0:0:
475,192,282808,1,0,0:0:0:0:
402,192,282894,128,0,284265:0:0:0:0:
109,192,282894,128,0,283322:0:0:0:0:
109,192,283408,128,0,283494:0:0:0:0:
109,192,283580,128,0,283751:0:0:0:0:
182,192,283837,128,0,283922:0:0:0:0:
256,192,284094,128,0,284180:0:0:0:0:
182,192,284265,128,0,284351:0:0:0:0:
475,192,284265,128,0,284351:0:0:0:0:
329,192,284351,128,0,284437:0:0:0:0:
182,192,284437,128,8,284522:0:0:0:0:
475,192,284437,128,0,284522:0:0:0:0:
329,192,284522,128,8,284608:0:0:0:0:
36,192,284608,128,8,284694:0:0:0:0:
256,192,284608,128,0,284694:0:0:0:0:
182,192,284694,128,8,284780:0:0:0:0:
475,192,284780,128,0,284865:0:0:0:0:
256,192,284780,128,8,284865:0:0:0:0:
329,192,284865,128,0,284951:0:0:0:0:
256,192,284951,128,0,285637:0:0:0:0:
36,192,284951,1,0,0:0:0:0:
109,192,284951,1,8,0:0:0:0:
402,192,285037,1,8,0:0:0:0:
475,192,285037,1,0,0:0:0:0:
109,192,285122,1,0,0:0:0:0:
182,192,285122,1,8,0:0:0:0:
329,192,285208,1,8,0:0:0:0:
402,192,285208,1,0,0:0:0:0:
36,192,285294,1,2,0:0:0:0:
475,192,285380,1,2,0:0:0:0:
109,192,285465,1,2,0:0:0:0:
402,192,285551,1,2,0:0:0:0:
36,192,285637,128,0,285808:0:0:0:0:
329,192,285637,1,2,0:0:0:0:
182,192,285808,128,0,286151:0:0:0:0:
402,192,285808,1,8,0:0:0:0:
475,192,285808,1,2,0:0:0:0:
256,192,285980,1,0,0:0:0:0:
36,192,286151,128,0,286322:0:0:0:0:
402,192,286151,1,8,0:0:0:0:
475,192,286151,1,2,0:0:0:0:
256,192,286322,128,0,286494:0:0:0:0:
329,192,286322,1,0,0:0:0:0:
36,192,286494,128,0,286665:0:0:0:0:
475,192,286494,1,8,0:0:0:0:
109,192,286494,1,2,0:0:0:0:
329,192,286580,1,2,0:0:0:0:
182,192,286665,128,0,286837:0:0:0:0:
329,192,286751,1,2,0:0:0:0:
36,192,286837,128,0,287008:0:0:0:0:
109,192,286837,1,2,0:0:0:0:
475,192,286837,1,8,0:0:0:0:
475,192,287008,128,0,287180:0:0:0:0:
109,192,287008,1,0,0:0:0:0:
256,192,287180,128,0,287351:0:0:0:0:
36,192,287180,1,8,0:0:0:0:
182,192,287180,1,2,0:0:0:0:
475,192,287351,128,0,287522:0:0:0:0:
109,192,287351,1,0,0:0:0:0:
329,192,287522,128,0,287694:0:0:0:0:
36,192,287522,1,8,0:0:0:0:
256,192,287522,1,2,0:0:0:0:
475,192,287694,128,0,287865:0:0:0:0:
109,192,287694,1,0,0:0:0:0:
256,192,287865,128,0,288037:0:0:0:0:
182,192,287865,1,8,0:0:0:0:
402,192,287865,1,2,0:0:0:0:
36,192,287951,1,2,0:0:0:0:
475,192,288037,128,0,288208:0:0:0:0:
36,192,288122,1,2,0:0:0:0:
402,192,288208,128,0,288380:0:0:0:0:
182,192,288208,1,2,0:0:0:0:
329,192,288208,1,8,0:0:0:0:
36,192,288380,1,0,0:0:0:0:
475,192,288380,128,0,288551:0:0:0:0:
109,192,288465,1,0,0:0:0:0:
256,192,288551,1,2,0:0:0:0:
402,192,288551,1,8,0:0:0:0:
109,192,288637,1,0,0:0:0:0:
329,192,288722,1,2,0:0:0:0:
36,192,288722,1,2,0:0:0:0:
475,192,288808,1,2,0:0:0:0:
182,192,288808,1,2,0:0:0:0:
329,192,288894,1,2,0:0:0:0:
36,192,288894,1,2,0:0:0:0:
182,192,288980,1,0,0:0:0:0:
475,192,289065,128,0,289408:0:0:0:0:
109,192,289065,1,2,0:0:0:0:
256,192,289065,1,2,0:0:0:0:
182,192,289151,1,2,0:0:0:0:
256,192,289237,1,2,0:0:0:0:
109,192,289237,1,8,0:0:0:0:
329,192,289322,1,2,0:0:0:0:
402,192,289408,128,0,289751:0:0:0:0:
182,192,289408,1,2,0:0:0:0:
36,192,289408,1,2,0:0:0:0:
109,192,289494,1,2,0:0:0:0:
182,192,289580,1,8,0:0:0:0:
36,192,289580,1,2,0:0:0:0:
256,192,289665,1,2,0:0:0:0:
329,192,289751,128,0,290780:0:0:0:0:
36,192,289751,1,2,0:0:0:0:
182,192,289751,1,8,0:0:0:0:
109,192,289837,1,2,0:0:0:0:
475,192,289922,1,8,0:0:0:0:
182,192,289922,1,2,0:0:0:0:
402,192,290008,1,2,0:0:0:0:
256,192,290094,1,2,0:0:0:0:
109,192,290094,1,2,0:0:0:0:
182,192,290180,1,2,0:0:0:0:
109,192,290265,1,2,0:0:0:0:
475,192,290265,1,8,0:0:0:0:
36,192,290351,1,2,0:0:0:0:
402,192,290437,128,0,290780:0:0:0:0:
182,192,290437,1,2,0:0:0:0:
109,192,290437,1,2,0:0:0:0:
36,192,290522,1,2,0:0:0:0:
182,192,290608,1,8,0:0:0:0:
109,192,290608,1,2,0:0:0:0:
256,192,290694,1,2,0:0:0:0:
475,192,290780,128,0,291122:0:0:0:0:
36,192,290780,128,0,291122:0:0:0:0:
109,192,290951,128,0,291122:0:0:0:0:
256,192,291122,1,2,0:0:0:0:
182,192,291208,1,2,0:0:0:0:
329,192,291294,1,2,0:0:0:0:
475,192,291294,1,8,0:0:0:0:
109,192,291380,1,2,0:0:0:0:
402,192,291465,1,2,0:0:0:0:
36,192,291551,1,2,0:0:0:0:
475,192,291637,1,2,0:0:0:0:
329,192,291637,1,8,0:0:0:0:
109,192,291722,1,2,0:0:0:0:
402,192,291808,1,2,0:0:0:0:
36,192,291894,1,2,0:0:0:0:
475,192,291980,1,2,0:0:0:0:
329,192,291980,1,8,0:0:0:0:
109,192,292065,1,2,0:0:0:0:
402,192,292151,1,2,0:0:0:0:
182,192,292237,1,2,0:0:0:0:
256,192,292322,1,2,0:0:0:0:
475,192,292322,1,8,0:0:0:0:
329,192,292408,1,2,0:0:0:0:
475,192,292494,1,0,0:0:0:0:
256,192,292551,1,0,0:0:0:0:
475,192,292608,1,0,0:0:0:0:
182,192,292665,1,2,0:0:0:0:
329,192,292665,1,8,0:0:0:0:
402,192,292722,1,0,0:0:0:0:
109,192,292780,1,0,0:0:0:0:
329,192,292837,1,0,0:0:0:0:
36,192,292894,1,0,0:0:0:0:
109,192,292951,1,0,0:0:0:0:
182,192,293008,128,0,293180:0:0:0:0:
475,192,293008,1,8,0:0:0:0:
329,192,293008,1,2,0:0:0:0:
256,192,293180,1,0,0:0:0:0:
329,192,293265,1,0,0:0:0:0:
256,192,293351,1,0,0:0:0:0:
182,192,293437,1,0,0:0:0:0:
256,192,293522,128,0,293694:0:0:0:0:
475,192,293522,1,0,0:0:0:0:
36,192,293608,1,0,0:0:0:0:
109,192,293694,1,2,0:0:0:0:
402,192,293694,1,8,0:0:0:0:
36,192,293865,128,0,294037:0:0:0:0:
256,192,293865,1,0,0:0:0:0:
182,192,294037,128,2,294208:0:0:0:0:
329,192,294037,1,8,0:0:0:0:
36,192,294208,128,0,294380:0:0:0:0:
402,192,294208,1,2,0:0:0:0:
256,192,294294,1,2,0:0:0:0:
182,192,294380,128,0,294551:0:0:0:0:
329,192,294380,1,8,0:0:0:0:
475,192,294380,1,2,0:0:0:0:
475,192,294551,128,0,294722:0:0:0:0:
256,192,294551,1,0,0:0:0:0:
329,192,294722,128,8,294894:0:0:0:0:
182,192,294722,1,2,0:0:0:0:
475,192,294894,128,0,295065:0:0:0:0:
109,192,294894,1,2,0:0:0:0:
256,192,294980,1,2,0:0:0:0:
329,192,295065,128,0,295237:0:0:0:0:
36,192,295065,1,2,0:0:0:0:
182,192,295065,1,8,0:0:0:0:
109,192,295237,1,8,0:0:0:0:
402,192,295237,1,8,0:0:0:0:
182,192,295322,1,8,0:0:0:0:
329,192,295322,1,8,0:0:0:0:
36,192,295408,1,2,0:0:0:0:
475,192,295494,1,2,0:0:0:0:
182,192,295580,1,2,0:0:0:0:
36,192,295665,1,2,0:0:0:0:
329,192,295751,1,2,0:0:0:0:
475,192,295837,1,2,0:0:0:0:
402,192,295922,1,8,0:0:0:0:
109,192,295922,1,8,0:0:0:0:
36,192,296008,1,8,0:0:0:0:
475,192,296008,1,8,0:0:0:0:
109,192,296094,1,8,0:0:0:0:
402,192,296094,1,8,0:0:0:0:
182,192,296180,1,8,0:0:0:0:
329,192,296180,1,8,0:0:0:0:
36,192,296265,1,8,0:0:0:0:
475,192,296265,1,8,0:0:0:0:
109,192,296351,1,2,0:0:0:0:
402,192,296437,1,2,0:0:0:0:
109,192,296522,1,2,0:0:0:0:
402,192,296608,1,2,0:0:0:0:
36,192,296608,128,0,296694:0:0:0:0:
182,192,296694,128,0,296780:0:0:0:0:
329,192,296780,128,0,296865:0:0:0:0:
109,192,296865,128,0,296951:0:0:0:0:
256,192,296951,128,0,297037:0:0:0:0:
402,192,297037,128,0,297122:0:0:0:0:
182,192,297122,128,0,297208:0:0:0:0:
329,192,297208,128,0,297294:0:0:0:0:
475,192,297294,128,0,297380:0:0:0:0:
36,192,297380,128,0,297465:0:0:0:0:
329,192,297465,128,0,297551:0:0:0:0:
109,192,297551,128,0,297637:0:0:0:0:
256,192,297637,128,0,297980:0:0:0:0:
475,192,297637,128,0,297722:0:0:0:0:
36,192,297722,128,0,297808:0:0:0:0:
402,192,297808,128,0,297894:0:0:0:0:
109,192,297894,128,0,297980:0:0:0:0:
475,192,297980,128,0,298037:0:0:0:0:
402,192,298037,128,0,298094:0:0:0:0:
256,192,298094,128,0,298151:0:0:0:0:
36,192,298151,128,0,298208:0:0:0:0:
109,192,298208,128,0,298265:0:0:0:0:
256,192,298265,128,0,298322:0:0:0:0:
329,192,298322,128,0,298380:0:0:0:0:
402,192,298380,128,0,298437:0:0:0:0:
475,192,298437,128,0,298494:0:0:0:0:
182,192,298494,128,0,298551:0:0:0:0:
109,192,298551,128,0,298608:0:0:0:0:
36,192,298608,128,0,298665:0:0:0:0:
256,192,298665,128,0,298722:0:0:0:0:
402,192,298722,128,0,298780:0:0:0:0:
475,192,298780,128,0,298837:0:0:0:0:
256,192,298837,128,0,298894:0:0:0:0:
109,192,298894,128,0,298951:0:0:0:0:
36,192,298951,128,0,299008:0:0:0:0:
109,192,299008,128,0,299065:0:0:0:0:
329,192,299065,128,0,299122:0:0:0:0:
182,192,299122,128,0,299180:0:0:0:0:
402,192,299180,128,0,299237:0:0:0:0:
256,192,299237,128,0,299294:0:0:0:0:
475,192,299294,128,0,299351:0:0:0:0:
36,192,299351,128,0,299437:0:0:0:0:
182,192,299351,1,0,0:0:0:0:
109,192,299437,128,0,299522:0:0:0:0:
182,192,299522,128,0,299608:0:0:0:0:
329,192,299522,1,0,0:0:0:0:
256,192,299608,128,0,299694:0:0:0:0:
402,192,299608,1,0,0:0:0:0:
109,192,299694,128,0,299780:0:0:0:0:
329,192,299694,1,0,0:0:0:0:
182,192,299780,128,0,299865:0:0:0:0:
475,192,299780,1,0,0:0:0:0:
256,192,299865,128,0,299951:0:0:0:0:
36,192,299865,1,0,0:0:0:0:
329,192,299951,128,0,300037:0:0:0:0:
182,192,299951,1,0,0:0:0:0:
475,192,300037,128,0,300122:0:0:0:0:
36,192,300037,128,0,300380:0:0:0:0:
402,192,300122,128,0,300208:0:0:0:0:
329,192,300208,128,0,300294:0:0:0:0:
256,192,300294,128,0,300380:0:0:0:0:
402,192,300380,128,0,300465:0:0:0:0:
109,192,300380,128,0,300722:0:0:0:0:
329,192,300465,128,0,300551:0:0:0:0:
256,192,300551,128,0,300637:0:0:0:0:
182,192,300637,128,0,300722:0:0:0:0:
256,192,300722,1,0,0:0:0:0:
475,192,300722,1,0,0:0:0:0:
329,192,300808,1,0,0:0:0:0:
109,192,300894,1,8,0:0:0:0:
256,192,300894,1,2,0:0:0:0:
36,192,300980,1,0,0:0:0:0:
182,192,301065,1,0,0:0:0:0:
402,192,301065,1,0,0:0:0:0:
256,192,301151,1,0,0:0:0:0:
109,192,301237,1,8,0:0:0:0:
329,192,301237,1,2,0:0:0:0:
36,192,301322,1,0,0:0:0:0:
182,192,301408,128,0,301751:0:0:0:0:
402,192,301580,128,0,301751:0:0:0:0:
329,192,301580,1,8,0:0:0:0:
475,192,301580,1,2,0:0:0:0:
109,192,301751,128,0,302094:0:0:0:0:
329,192,301922,128,0,302094:0:0:0:0:
256,192,301922,1,8,0:0:0:0:
402,192,301922,1,2,0:0:0:0:
475,192,302094,1,0,0:0:0:0:
36,192,302094,128,2,302180:0:0:0:0:
109,192,302180,128,2,302265:0:0:0:0:
182,192,302265,128,2,302351:0:0:0:0:
402,192,302265,1,8,0:0:0:0:
329,192,302265,1,0,0:0:0:0:
256,192,302351,128,2,302437:0:0:0:0:
475,192,302437,128,2,302522:0:0:0:0:
36,192,302437,1,0,0:0:0:0:
402,192,302522,128,2,302608:0:0:0:0:
329,192,302608,128,2,302694:0:0:0:0:
109,192,302608,1,8,0:0:0:0:
182,192,302608,1,0,0:0:0:0:
256,192,302694,128,2,302780:0:0:0:0:
475,192,302780,128,2,302865:0:0:0:0:
36,192,302780,1,0,0:0:0:0:
402,192,302865,128,2,302951:0:0:0:0:
329,192,302951,128,2,303037:0:0:0:0:
109,192,302951,1,8,0:0:0:0:
182,192,302951,1,0,0:0:0:0:
256,192,303037,128,2,303122:0:0:0:0:
329,192,303122,128,2,303208:0:0:0:0:
475,192,303122,1,0,0:0:0:0:
256,192,303208,128,2,303294:0:0:0:0:
182,192,303294,128,2,303380:0:0:0:0:
402,192,303294,1,8,0:0:0:0:
329,192,303294,1,0,0:0:0:0:
109,192,303380,128,2,303465:0:0:0:0:
36,192,303465,128,2,303551:0:0:0:0:
475,192,303465,1,0,0:0:0:0:
109,192,303551,128,2,303637:0:0:0:0:
182,192,303637,128,2,303722:0:0:0:0:
402,192,303637,1,8,0:0:0:0:
329,192,303637,1,0,0:0:0:0:
256,192,303722,128,2,303808:0:0:0:0:
475,192,303808,128,2,303894:0:0:0:0:
36,192,303808,1,0,0:0:0:0:
402,192,303894,128,2,303980:0:0:0:0:
329,192,303980,128,2,304065:0:0:0:0:
475,192,303980,128,0,304837:0:0:0:0:
109,192,303980,1,8,0:0:0:0:
182,192,303980,1,0,0:0:0:0:
256,192,304065,128,2,304151:0:0:0:0:
36,192,304151,128,2,304237:0:0:0:0:
402,192,304151,1,0,0:0:0:0:
109,192,304237,128,2,304322:0:0:0:0:
182,192,304322,128,2,304408:0:0:0:0:
329,192,304322,1,8,0:0:0:0:
36,192,304322,1,0,0:0:0:0:
256,192,304408,128,2,304494:0:0:0:0:
329,192,304494,128,0,304837:0:0:0:0:
36,192,304837,1,8,0:0:0:0:
256,192,304837,1,0,0:0:0:0:
182,192,304922,1,8,0:0:0:0:
109,192,305008,1,8,0:0:0:0:
402,192,305008,1,0,0:0:0:0:
256,192,305094,1,8,0:0:0:0:
182,192,305180,1,8,0:0:0:0:
475,192,305180,1,0,0:0:0:0:
402,192,305265,1,8,0:0:0:0:
256,192,305351,1,8,0:0:0:0:
475,192,305351,1,0,0:0:0:0:
329,192,305437,1,8,0:0:0:0:
182,192,305522,1,8,0:0:0:0:
402,192,305522,1,0,0:0:0:0:
256,192,305608,1,8,0:0:0:0:
329,192,305694,1,0,0:0:0:0:
109,192,305694,1,8,0:0:0:0:
182,192,305780,1,8,0:0:0:0:
36,192,305865,1,0,0:0:0:0:
256,192,305865,1,8,0:0:0:0:
182,192,305951,1,8,0:0:0:0:
256,192,306037,1,8,0:0:0:0:
475,192,306037,1,0,0:0:0:0:
402,192,306122,1,8,0:0:0:0:
329,192,306208,1,8,0:0:0:0:
109,192,306208,128,0,306294:0:0:0:0:
256,192,306208,128,2,306294:0:0:0:0:
475,192,306294,128,2,306380:0:0:0:0:
329,192,306380,128,2,306465:0:0:0:0:
182,192,306380,128,0,306465:0:0:0:0:
36,192,306465,128,2,306551:0:0:0:0:
256,192,306551,128,0,306637:0:0:0:0:
402,192,306551,128,2,306637:0:0:0:0:
475,192,306637,128,2,306722:0:0:0:0:
182,192,306722,128,2,306808:0:0:0:0:
36,192,306722,128,0,306808:0:0:0:0:
329,192,306808,128,2,306894:0:0:0:0:
109,192,306894,128,0,306980:0:0:0:0:
256,192,306894,128,2,306980:0:0:0:0:
36,192,306980,128,2,307065:0:0:0:0:
475,192,307065,128,0,307151:0:0:0:0:
329,192,307065,128,2,307151:0:0:0:0:
182,192,307151,128,2,307237:0:0:0:0:
256,192,307237,128,2,307322:0:0:0:0:
109,192,307237,128,0,307322:0:0:0:0:
475,192,307322,128,2,307408:0:0:0:0:
182,192,307408,128,0,307494:0:0:0:0:
402,192,307408,128,2,307494:0:0:0:0:
256,192,307494,128,2,307580:0:0:0:0:
475,192,307580,1,0,0:0:0:0:
36,192,307580,1,0,0:0:0:0:
402,192,307665,1,0,0:0:0:0:
256,192,307751,1,2,0:0:0:0:
109,192,307751,1,8,0:0:0:0:
329,192,307837,1,0,0:0:0:0:
182,192,307922,1,0,0:0:0:0:
475,192,307922,1,0,0:0:0:0:
109,192,308008,1,0,0:0:0:0:
256,192,308008,1,0,0:0:0:0:
329,192,308094,1,2,0:0:0:0:
182,192,308094,1,8,0:0:0:0:
402,192,308180,1,0,0:0:0:0:
256,192,308265,1,0,0:0:0:0:
36,192,308265,1,0,0:0:0:0:
182,192,308351,1,0,0:0:0:0:
36,192,308437,1,2,0:0:0:0:
329,192,308437,1,8,0:0:0:0:
109,192,308522,1,0,0:0:0:0:
475,192,308608,1,0,0:0:0:0:
182,192,308608,1,0,0:0:0:0:
402,192,308694,1,0,0:0:0:0:
109,192,308694,1,0,0:0:0:0:
256,192,308780,1,2,0:0:0:0:
36,192,308780,1,8,0:0:0:0:
329,192,308865,1,0,0:0:0:0:
36,192,308951,1,0,0:0:0:0:
109,192,309008,1,0,0:0:0:0:
256,192,309065,1,0,0:0:0:0:
329,192,309122,1,8,0:0:0:0:
475,192,309122,1,2,0:0:0:0:
182,192,309180,1,0,0:0:0:0:
109,192,309237,1,0,0:0:0:0:
329,192,309294,1,0,0:0:0:0:
402,192,309351,1,0,0:0:0:0:
109,192,309380,1,0,0:0:0:0:
182,192,309465,1,8,0:0:0:0:
36,192,309465,1,2,0:0:0:0:
256,192,309522,1,0,0:0:0:0:
475,192,309580,1,0,0:0:0:0:
402,192,309637,1,0,0:0:0:0:
329,192,309694,1,0,0:0:0:0:
36,192,309751,1,0,0:0:0:0:
109,192,309808,1,2,0:0:0:0:
256,192,309808,1,8,0:0:0:0:
182,192,309865,1,0,0:0:0:0:
329,192,309922,1,0,0:0:0:0:
402,192,309980,1,0,0:0:0:0:
475,192,310037,1,0,0:0:0:0:
182,192,310094,1,0,0:0:0:0:
109,192,310151,1,2,0:0:0:0:
329,192,310151,1,8,0:0:0:0:
36,192,310208,1,0,0:0:0:0:
256,192,310265,1,0,0:0:0:0:
182,192,310322,1,0,0:0:0:0:
475,192,310322,128,0,310580:0:0:0:0:
329,192,310322,128,0,311008:0:0:0:0:
109,192,310494,1,8,0:0:0:0:
36,192,310494,1,2,0:0:0:0:
402,192,310580,128,0,310751:0:0:0:0:
182,192,310837,1,2,0:0:0:0:
256,192,310837,128,0,311008:0:0:0:0:
109,192,310837,1,8,0:0:0:0:
36,192,311008,128,0,311265:0:0:0:0:
182,192,311008,128,0,311694:0:0:0:0:
402,192,311180,1,8,0:0:0:0:
475,192,311180,1,2,0:0:0:0:
109,192,311265,128,0,311522:0:0:0:0:
256,192,311522,128,0,311694:0:0:0:0:
329,192,311522,1,8,0:0:0:0:
402,192,311522,1,2,0:0:0:0:
475,192,311694,1,0,0:0:0:0:
256,192,311751,1,0,0:0:0:0:
475,192,311808,1,0,0:0:0:0:
256,192,311865,1,8,0:0:0:0:
36,192,311865,1,2,0:0:0:0:
182,192,311922,1,0,0:0:0:0:
402,192,311980,1,0,0:0:0:0:
182,192,312037,1,0,0:0:0:0:
402,192,312094,1,0,0:0:0:0:
329,192,312151,1,0,0:0:0:0:
109,192,312208,1,2,0:0:0:0:
475,192,312208,1,8,0:0:0:0:
329,192,312265,1,0,0:0:0:0:
109,192,312322,1,0,0:0:0:0:
36,192,312380,1,0,0:0:0:0:
256,192,312437,1,0,0:0:0:0:
36,192,312494,1,0,0:0:0:0:
256,192,312551,1,8,0:0:0:0:
475,192,312551,1,2,0:0:0:0:
182,192,312608,1,0,0:0:0:0:
329,192,312665,1,0,0:0:0:0:
182,192,312722,1,0,0:0:0:0:
329,192,312780,1,0,0:0:0:0:
109,192,312837,1,0,0:0:0:0:
402,192,312894,1,8,0:0:0:0:
36,192,312894,1,2,0:0:0:0:
109,192,312951,1,0,0:0:0:0:
402,192,313008,1,0,0:0:0:0:
475,192,313065,128,0,313151:0:0:0:0:
256,192,313065,1,2,0:0:0:0:
402,192,313151,128,0,313237:0:0:0:0:
182,192,313151,1,2,0:0:0:0:
329,192,313237,128,0,313322:0:0:0:0:
109,192,313237,1,2,0:0:0:0:
256,192,313322,128,0,313408:0:0:0:0:
36,192,313322,1,2,0:0:0:0:
475,192,313408,128,0,313494:0:0:0:0:
182,192,313408,1,2,0:0:0:0:
402,192,313494,128,0,313580:0:0:0:0:
36,192,313494,1,2,0:0:0:0:
329,192,313580,128,0,313665:0:0:0:0:
182,192,313580,1,2,0:0:0:0:
256,192,313665,128,0,313751:0:0:0:0:
36,192,313665,1,2,0:0:0:0:
109,192,313751,128,0,313837:0:0:0:0:
475,192,313751,1,2,0:0:0:0:
182,192,313837,128,0,313922:0:0:0:0:
402,192,313837,1,2,0:0:0:0:
256,192,313922,128,0,314008:0:0:0:0:
329,192,313922,1,2,0:0:0:0:
182,192,314008,128,0,314094:0:0:0:0:
402,192,314008,1,2,0:0:0:0:
109,192,314094,128,0,314180:0:0:0:0:
475,192,314094,1,2,0:0:0:0:
256,192,314180,128,0,314265:0:0:0:0:
329,192,314180,1,2,0:0:0:0:
36,192,314265,128,0,314351:0:0:0:0:
109,192,314265,1,2,0:0:0:0:
329,192,314351,128,0,314437:0:0:0:0:
402,192,314351,1,2,0:0:0:0:
36,192,314437,128,0,314522:0:0:0:0:
475,192,314437,1,2,0:0:0:0:
109,192,314522,128,0,314608:0:0:0:0:
402,192,314522,1,2,0:0:0:0:
182,192,314608,128,0,314694:0:0:0:0:
329,192,314608,1,2,0:0:0:0:
36,192,314694,128,0,314780:0:0:0:0:
475,192,314694,1,2,0:0:0:0:
182,192,314780,128,0,314865:0:0:0:0:
329,192,314780,1,2,0:0:0:0:
402,192,314865,1,2,0:0:0:0:
109,192,314865,128,0,314951:0:0:0:0:
36,192,314951,128,0,315037:0:0:0:0:
475,192,314951,1,2,0:0:0:0:
256,192,315037,128,0,315122:0:0:0:0:
329,192,315037,1,2,0:0:0:0:
475,192,315122,128,0,315208:0:0:0:0:
182,192,315122,1,2,0:0:0:0:
329,192,315208,128,0,315294:0:0:0:0:
36,192,315208,1,2,0:0:0:0:
402,192,315294,128,0,315380:0:0:0:0:
109,192,315294,1,2,0:0:0:0:
475,192,315380,128,0,315465:0:0:0:0:
182,192,315380,1,2,0:0:0:0:
329,192,315465,128,0,315551:0:0:0:0:
36,192,315465,1,2,0:0:0:0:
256,192,315551,128,0,315637:0:0:0:0:
182,192,315551,1,2,0:0:0:0:
402,192,315637,128,0,315722:0:0:0:0:
109,192,315637,1,2,0:0:0:0:
475,192,315722,128,0,315808:0:0:0:0:
36,192,315722,1,2,0:0:0:0:
182,192,315808,128,0,316494:0:0:0:0:
256,192,315808,1,0,0:0:0:0:
109,192,315894,1,0,0:0:0:0:
475,192,315980,1,0,0:0:0:0:
329,192,315980,1,0,0:0:0:0:
36,192,316065,1,0,0:0:0:0:
256,192,316151,1,0,0:0:0:0:
109,192,316237,1,0,0:0:0:0:
475,192,316322,1,2,0:0:0:0:
329,192,316322,1,0,0:0:0:0:
402,192,316408,1,0,0:0:0:0:
329,192,316494,128,0,317180:0:0:0:0:
36,192,316494,1,0,0:0:0:0:
109,192,316580,1,0,0:0:0:0:
182,192,316665,1,2,0:0:0:0:
256,192,316665,1,8,0:0:0:0:
475,192,316751,1,0,0:0:0:0:
402,192,316837,1,0,0:0:0:0:
256,192,316922,1,0,0:0:0:0:
36,192,317008,1,2,0:0:0:0:
109,192,317008,1,8,0:0:0:0:
256,192,317094,1,0,0:0:0:0:
182,192,317180,1,2,0:0:0:0:
402,192,317180,1,2,0:0:0:0:
109,192,317265,1,2,0:0:0:0:
256,192,317351,1,2,0:0:0:0:
402,192,317351,1,2,0:0:0:0:
36,192,317437,1,2,0:0:0:0:
329,192,317522,1,8,0:0:0:0:
475,192,317522,1,0,0:0:0:0:
182,192,317608,1,8,0:0:0:0:
402,192,317694,1,8,0:0:0:0:
475,192,317694,1,0,0:0:0:0:
36,192,317780,1,0,0:0:0:0:
109,192,317780,1,8,0:0:0:0:
402,192,317865,1,2,0:0:0:0:
109,192,317951,1,0,0:0:0:0:
256,192,317951,1,2,0:0:0:0:
329,192,318037,1,2,0:0:0:0:
109,192,318122,1,0,0:0:0:0:
402,192,318122,1,2,0:0:0:0:
256,192,318208,128,0,318551:0:0:0:0:
36,192,318208,1,8,0:0:0:0:
475,192,318208,1,8,0:0:0:0:
182,192,318294,1,8,0:0:0:0:
329,192,318294,1,8,0:0:0:0:
36,192,318380,1,8,0:0:0:0:
475,192,318380,1,8,0:0:0:0:
182,192,318465,1,8,0:0:0:0:
329,192,318465,1,8,0:0:0:0:
36,192,318551,1,8,0:0:0:0:
475,192,318551,1,8,0:0:0:0:
329,192,318637,1,2,0:0:0:0:
109,192,318722,1,8,0:0:0:0:
402,192,318808,1,2,0:0:0:0:
36,192,318894,128,0,319237:0:0:0:0:
182,192,318894,1,2,0:0:0:0:
256,192,318980,1,2,0:0:0:0:
329,192,319065,1,8,0:0:0:0:
475,192,319151,1,2,0:0:0:0:
182,192,319237,128,0,319580:0:0:0:0:
402,192,319237,1,2,0:0:0:0:
329,192,319322,1,2,0:0:0:0:
256,192,319408,1,8,0:0:0:0:
36,192,319494,1,2,0:0:0:0:
329,192,319580,128,0,319922:0:0:0:0:
109,192,319580,1,2,0:0:0:0:
36,192,319665,1,2,0:0:0:0:
182,192,319751,1,0,0:0:0:0:
36,192,319837,1,2,0:0:0:0:
256,192,319922,128,0,320608:0:0:0:0:
109,192,319922,1,2,0:0:0:0:
475,192,320008,1,2,0:0:0:0:
182,192,320094,1,8,0:0:0:0:
475,192,320180,1,2,0:0:0:0:
329,192,320265,128,0,320608:0:0:0:0:
109,192,320265,1,2,0:0:0:0:
36,192,320351,1,2,0:0:0:0:
402,192,320437,128,0,320608:0:0:0:0:
182,192,320437,1,8,0:0:0:0:
109,192,320522,1,2,0:0:0:0:
475,192,320608,128,0,321294:0:0:0:0:
36,192,320608,1,2,0:0:0:0:
109,192,320694,1,2,0:0:0:0:
329,192,320780,1,8,0:0:0:0:
256,192,320865,1,2,0:0:0:0:
402,192,320951,128,0,321122:0:0:0:0:
109,192,320951,1,2,0:0:0:0:
182,192,321037,1,2,0:0:0:0:
329,192,321122,128,0,321294:0:0:0:0:
256,192,321122,1,8,0:0:0:0:
109,192,321208,1,2,0:0:0:0:
36,192,321294,128,0,321808:0:0:0:0:
182,192,321294,128,0,321980:0:0:0:0:
256,192,321465,1,8,0:0:0:0:
402,192,321465,1,2,0:0:0:0:
329,192,321551,1,2,0:0:0:0:
402,192,321722,1,2,0:0:0:0:
109,192,321808,128,0,322322:0:0:0:0:
329,192,321808,1,8,0:0:0:0:
475,192,321808,1,2,0:0:0:0:
329,192,321980,128,0,322665:0:0:0:0:
402,192,322151,1,8,0:0:0:0:
475,192,322151,1,2,0:0:0:0:
256,192,322237,1,2,0:0:0:0:
182,192,322322,128,0,322665:0:0:0:0:
256,192,322408,1,2,0:0:0:0:
36,192,322494,1,2,0:0:0:0:
109,192,322494,1,8,0:0:0:0:
256,192,322665,128,0,323694:0:0:0:0:
36,192,322837,1,8,0:0:0:0:
182,192,322837,1,2,0:0:0:0:
109,192,322922,1,2,0:0:0:0:
402,192,323094,1,2,0:0:0:0:
329,192,323180,1,2,0:0:0:0:
475,192,323180,1,8,0:0:0:0:
182,192,323522,1,2,0:0:0:0:
329,192,323522,1,8,0:0:0:0:
109,192,323694,128,0,324037:0:0:0:0:
402,192,323694,128,4,324037:0:0:0:0:
182,192,323865,1,8,0:0:0:0:
329,192,323865,1,2,0:0:0:0:
256,192,324037,1,2,0:0:0:0:
36,192,324037,128,0,324551:0:0:0:0:
475,192,324122,1,2,0:0:0:0:
329,192,324208,1,2,0:0:0:0:
475,192,324294,1,2,0:0:0:0:
182,192,324380,1,2,0:0:0:0:
475,192,324465,1,2,0:0:0:0:
256,192,324551,1,2,0:0:0:0:
109,192,324551,128,0,325065:0:0:0:0:
402,192,324637,1,2,0:0:0:0:
182,192,324722,1,2,0:0:0:0:
329,192,324808,1,2,0:0:0:0:
182,192,324894,1,2,0:0:0:0:
402,192,324980,1,2,0:0:0:0:
182,192,325065,128,0,325408:0:0:0:0:
256,192,325065,1,2,0:0:0:0:
329,192,325151,1,2,0:0:0:0:
402,192,325237,1,2,0:0:0:0:
256,192,325322,1,2,0:0:0:0:
475,192,325408,128,0,325580:0:0:0:0:
329,192,325408,1,2,0:0:0:0:
256,192,325494,1,2,0:0:0:0:
402,192,325580,128,0,325922:0:0:0:0:
109,192,325580,1,2,0:0:0:0:
182,192,325665,1,2,0:0:0:0:
36,192,325751,1,2,0:0:0:0:
256,192,325837,1,2,0:0:0:0:
329,192,325922,128,0,326094:0:0:0:0:
109,192,325922,1,2,0:0:0:0:
182,192,326008,1,2,0:0:0:0:
36,192,326094,128,0,326437:0:0:0:0:
256,192,326094,128,0,326437:0:0:0:0:
109,192,326265,1,8,0:0:0:0:
182,192,326265,1,2,0:0:0:0:
109,192,326437,128,0,326780:0:0:0:0:
329,192,326437,128,0,326780:0:0:0:0:
182,192,326608,1,8,0:0:0:0:
256,192,326608,1,2,0:0:0:0:
475,192,326780,128,0,326865:0:0:0:0:
36,192,326780,1,2,0:0:0:0:
402,192,326865,128,0,326951:0:0:0:0:
109,192,326865,1,2,0:0:0:0:
329,192,326951,128,0,327037:0:0:0:0:
182,192,326951,1,2,0:0:0:0:
36,192,327037,1,2,0:0:0:0:
256,192,327122,128,0,327208:0:0:0:0:
475,192,327122,1,2,0:0:0:0:
182,192,327208,128,0,327294:0:0:0:0:
402,192,327208,1,2,0:0:0:0:
329,192,327294,1,2,0:0:0:0:
109,192,327380,128,0,327465:0:0:0:0:
402,192,327380,1,2,0:0:0:0:
36,192,327465,128,0,327551:0:0:0:0:
475,192,327465,1,2,0:0:0:0:
109,192,327551,128,0,327637:0:0:0:0:
402,192,327551,1,2,0:0:0:0:
182,192,327637,128,0,327722:0:0:0:0:
329,192,327637,1,2,0:0:0:0:
256,192,327808,128,0,327894:0:0:0:0:
36,192,327808,1,2,0:0:0:0:
329,192,327894,128,0,327980:0:0:0:0:
109,192,327894,1,2,0:0:0:0:
182,192,327980,1,2,0:0:0:0:
402,192,328065,128,0,328151:0:0:0:0:
109,192,328065,1,2,0:0:0:0:
475,192,328151,128,0,328237:0:0:0:0:
36,192,328151,1,2,0:0:0:0:
402,192,328237,128,0,328322:0:0:0:0:
109,192,328237,1,2,0:0:0:0:
329,192,328322,128,0,328408:0:0:0:0:
182,192,328322,1,2,0:0:0:0:
36,192,328494,128,0,328580:0:0:0:0:
256,192,328494,1,2,0:0:0:0:
109,192,328580,128,0,328665:0:0:0:0:
329,192,328580,1,2,0:0:0:0:
475,192,328665,1,2,0:0:0:0:
182,192,328751,128,0,328837:0:0:0:0:
329,192,328751,1,2,0:0:0:0:
256,192,328837,128,0,328922:0:0:0:0:
402,192,328837,1,2,0:0:0:0:
329,192,328922,128,0,329008:0:0:0:0:
475,192,328922,1,2,0:0:0:0:
182,192,329008,128,2,329094:0:0:0:0:
109,192,329008,1,2,0:0:0:0:
402,192,329094,128,2,329180:0:0:0:0:
475,192,329094,1,2,0:0:0:0:
109,192,329180,128,2,329265:0:0:0:0:
36,192,329180,1,2,0:0:0:0:
475,192,329265,128,2,329351:0:0:0:0:
402,192,329265,1,2,0:0:0:0:
329,192,329351,1,2,0:0:0:0:
36,192,329351,128,2,329437:0:0:0:0:
256,192,329437,1,2,0:0:0:0:
475,192,329437,128,2,329522:0:0:0:0:
182,192,329522,1,0,0:0:0:0:
402,192,329522,1,8,0:0:0:0:
36,192,329522,1,8,0:0:0:0:
256,192,329608,1,0,0:0:0:0:
329,192,329608,1,8,0:0:0:0:
109,192,329608,1,8,0:0:0:0:
475,192,329694,1,0,0:0:0:0:
402,192,329694,1,8,0:0:0:0:
36,192,329694,1,8,0:0:0:0:
329,192,329780,1,8,0:0:0:0:
109,192,329780,1,8,0:0:0:0:
256,192,329780,1,0,0:0:0:0:
36,192,329865,1,8,0:0:0:0:
402,192,329865,1,8,0:0:0:0:
475,192,329865,1,0,0:0:0:0:
109,192,329951,1,8,0:0:0:0:
329,192,329951,1,0,0:0:0:0:
256,192,329951,1,8,0:0:0:0:
475,192,330037,1,8,0:0:0:0:
402,192,330037,1,8,0:0:0:0:
36,192,330037,1,0,0:0:0:0:
109,192,330122,1,0,0:0:0:0:
329,192,330122,1,8,0:0:0:0:
256,192,330122,1,8,0:0:0:0:
475,192,330208,1,8,0:0:0:0:
182,192,330208,1,8,0:0:0:0:
36,192,330208,1,0,0:0:0:0:
109,192,330294,1,8,0:0:0:0:
402,192,330294,1,8,0:0:0:0:
256,192,330294,1,0,0:0:0:0:
182,192,330380,1,8,0:0:0:0:
475,192,330380,1,8,0:0:0:0:
36,192,330380,1,0,0:0:0:0:
109,192,330465,1,8,0:0:0:0:
402,192,330465,1,0,0:0:0:0:
256,192,330465,1,8,0:0:0:0:
329,192,330551,1,8,0:0:0:0:
475,192,330551,1,8,0:0:0:0:
36,192,330551,1,0,0:0:0:0:
109,192,330637,1,0,0:0:0:0:
256,192,330637,1,8,0:0:0:0:
402,192,330637,1,8,0:0:0:0:
36,192,330722,1,0,0:0:0:0:
329,192,330722,1,8,0:0:0:0:
475,192,330722,1,8,0:0:0:0:
256,192,330808,1,0,0:0:0:0:
109,192,330808,1,8,0:0:0:0:
402,192,330808,1,8,0:0:0:0:
475,192,330894,128,2,330980:0:0:0:0:
36,192,330894,128,2,330980:0:0:0:0:
109,192,330980,128,2,331065:0:0:0:0:
402,192,330980,128,2,331065:0:0:0:0:
182,192,331065,128,8,331151:0:0:0:0:
256,192,331065,128,8,331151:0:0:0:0:
36,192,331151,128,8,331237:0:0:0:0:
475,192,331151,128,8,331237:0:0:0:0:
402,192,331237,128,8,331322:0:0:0:0:
109,192,331237,128,8,331322:0:0:0:0:
36,192,331322,128,8,331408:0:0:0:0:
329,192,331322,128,8,331408:0:0:0:0:
109,192,331408,128,2,331494:0:0:0:0:
256,192,331408,128,2,331494:0:0:0:0:
475,192,331494,128,2,331580:0:0:0:0:
182,192,331494,128,2,331580:0:0:0:0:
402,192,331580,128,8,331665:0:0:0:0:
36,192,331580,128,8,331665:0:0:0:0:
109,192,331665,128,8,331751:0:0:0:0:
329,192,331665,128,8,331751:0:0:0:0:
256,192,331751,128,8,331837:0:0:0:0:
182,192,331751,128,8,331837:0:0:0:0:
109,192,331837,128,2,331922:0:0:0:0:
402,192,331837,128,2,331922:0:0:0:0:
36,192,331922,128,2,332008:0:0:0:0:
475,192,331922,128,2,332008:0:0:0:0:
402,192,332008,128,2,332094:0:0:0:0:
109,192,332008,128,2,332094:0:0:0:0:
329,192,332094,128,2,332180:0:0:0:0:
182,192,332094,128,2,332180:0:0:0:0:
402,192,332180,128,2,332265:0:0:0:0:
109,192,332180,128,2,332265:0:0:0:0:
256,192,332265,128,4,334665:0:0:0:0:
36,192,332265,1,2,0:0:0:0:
475,192,332265,1,2,0:0:0:0:
402,192,341865,132,0,343065:0:0:0:0:
36,192,341865,1,0,0:0:0:0:
475,192,341865,1,0,0:0:0:0:
109,192,341865,128,0,343065:0:0:0:0:
256,192,341865,1,4,0:0:0:0:
329,192,343065,128,4,344265:0:0:0:0:
182,192,343065,128,0,344265:0:0:0:0:
36,192,343065,1,0,0:0:0:0:
475,192,343065,1,0,0:0:0:0:
475,192,344265,128,0,345465:0:0:0:0:
36,192,344265,128,4,345465:0:0:0:0:
109,192,344265,1,0,0:0:0:0:
402,192,344265,1,0,0:0:0:0:
182,192,345465,128,0,346665:0:0:0:0:
329,192,345465,128,4,346665:0:0:0:0:
109,192,345465,1,0,0:0:0:0:
402,192,345465,1,0,0:0:0:0:
36,192,346665,1,0,0:0:0:0:
475,192,346665,1,0,0:0:0:0:
402,192,346665,128,0,347865:0:0:0:0:
109,192,346665,128,4,347865:0:0:0:0:
182,192,347865,128,0,349065:0:0:0:0:
329,192,347865,128,4,349065:0:0:0:0:
36,192,347865,1,0,0:0:0:0:
475,192,347865,1,0,0:0:0:0:
256,192,349065,1,8,0:0:0:0:
402,192,349065,1,2,0:0:0:0:
109,192,349065,1,2,0:0:0:0:
36,192,351465,1,2,0:0:0:0:
256,192,351465,1,2,0:0:0:0:
329,192,351465,1,8,0:0:0:0:
36,192,351615,1,2,0:0:0:0:
329,192,351615,1,8,0:0:0:0:
182,192,351615,1,2,0:0:0:0:
109,192,351915,1,2,0:0:0:0:
182,192,351915,1,2,0:0:0:0:
329,192,351915,1,8,0:0:0:0:
109,192,352065,1,2,0:0:0:0:
256,192,352065,1,2,0:0:0:0:
402,192,352065,1,8,0:0:0:0:
109,192,352215,1,2,0:0:0:0:
329,192,352215,1,2,0:0:0:0:
475,192,352215,1,8,0:0:0:0:
256,192,352515,1,2,0:0:0:0:
475,192,352515,1,8,0:0:0:0:
402,192,352515,1,2,0:0:0:0:
182,192,352665,1,2,0:0:0:0:
475,192,352665,1,8,0:0:0:0:
329,192,352665,1,2,0:0:0:0:
109,192,352815,1,2,0:0:0:0:
475,192,352815,1,8,0:0:0:0:
256,192,352815,1,2,0:0:0:0:
109,192,353115,1,2,0:0:0:0:
256,192,353115,1,2,0:0:0:0:
402,192,353115,1,8,0:0:0:0:
36,192,353265,1,2,0:0:0:0:
256,192,353265,1,2,0:0:0:0:
475,192,353265,1,8,0:0:0:0:
182,192,353415,1,2,0:0:0:0:
329,192,353415,1,2,0:0:0:0:
256,192,353415,1,8,0:0:0:0:
109,192,353565,128,0,353865:0:0:0:0:
256,192,353565,128,4,353865:0:0:0:0:
402,192,353565,128,0,353865:0:0:0:0:
36,192,353865,1,2,0:0:0:0:
182,192,353865,1,2,0:0:0:0:
329,192,353865,1,8,0:0:0:0:
36,192,354015,1,2,0:0:0:0:
182,192,354015,1,2,0:0:0:0:
329,192,354015,1,8,0:0:0:0:
109,192,354315,1,2,0:0:0:0:
256,192,354315,1,2,0:0:0:0:
402,192,354315,1,8,0:0:0:0:
182,192,354465,1,2,0:0:0:0:
329,192,354465,1,2,0:0:0:0:
475,192,354465,1,8,0:0:0:0:
109,192,354615,1,2,0:0:0:0:
256,192,354615,1,2,0:0:0:0:
402,192,354615,1,8,0:0:0:0:
256,192,354915,1,0,0:0:0:0:
109,192,354915,1,0,0:0:0:0:
402,192,354915,1,8,0:0:0:0:
36,192,355065,1,2,0:0:0:0:
182,192,355065,1,2,0:0:0:0:
329,192,355065,1,8,0:0:0:0:
109,192,355215,1,2,0:0:0:0:
256,192,355215,1,2,0:0:0:0:
402,192,355215,1,8,0:0:0:0:
256,192,355515,1,8,0:0:0:0:
402,192,355515,1,2,0:0:0:0:
475,192,355515,1,2,0:0:0:0:
36,192,355665,1,2,0:0:0:0:
109,192,355665,1,2,0:0:0:0:
256,192,355665,1,8,0:0:0:0:
182,192,355815,1,2,0:0:0:0:
329,192,355815,1,2,0:0:0:0:
256,192,355890,1,2,0:0:0:0:
402,192,355890,1,2,0:0:0:0:
182,192,355965,128,4,356265:0:0:0:0:
329,192,355965,128,0,356265:0:0:0:0:
36,192,355965,128,0,356265:0:0:0:0:
109,192,356265,1,2,0:0:0:0:
256,192,356265,1,8,0:0:0:0:
402,192,356265,1,8,0:0:0:0:
256,192,356565,1,8,0:0:0:0:
109,192,356565,1,2,0:0:0:0:
475,192,356565,1,8,0:0:0:0:
36,192,356865,1,2,0:0:0:0:
256,192,356865,1,8,0:0:0:0:
475,192,356865,1,8,0:0:0:0:
36,192,357165,1,2,0:0:0:0:
256,192,357165,1,8,0:0:0:0:
402,192,357165,1,8,0:0:0:0:
109,192,357465,1,2,0:0:0:0:
256,192,357465,1,8,0:0:0:0:
402,192,357465,1,8,0:0:0:0:
182,192,357765,1,2,0:0:0:0:
256,192,357765,1,8,0:0:0:0:
402,192,357765,1,8,0:0:0:0:
109,192,358065,1,2,0:0:0:0:
329,192,358065,1,8,0:0:0:0:
256,192,358065,1,8,0:0:0:0:
109,192,358365,1,2,0:0:0:0:
256,192,358365,1,8,0:0:0:0:
402,192,358365,1,8,0:0:0:0:
36,192,358665,1,2,0:0:0:0:
256,192,358665,1,8,0:0:0:0:
475,192,358665,1,8,0:0:0:0:
402,192,358740,1,0,0:0:0:0:
109,192,358815,1,0,0:0:0:0:
36,192,358890,1,0,0:0:0:0:
256,192,358965,1,0,0:0:0:0:
402,192,359040,1,0,0:0:0:0:
109,192,359115,1,2,0:0:0:0:
475,192,359115,1,8,0:0:0:0:
329,192,359190,1,0,0:0:0:0:
36,192,359265,1,0,0:0:0:0:
182,192,359340,1,0,0:0:0:0:
475,192,359415,1,0,0:0:0:0:
329,192,359490,1,0,0:0:0:0:
109,192,359565,1,8,0:0:0:0:
402,192,359565,1,2,0:0:0:0:
256,192,359640,1,2,0:0:0:0:
182,192,359715,1,2,0:0:0:0:
329,192,359715,1,2,0:0:0:0:
109,192,359790,1,2,0:0:0:0:
402,192,359790,1,2,0:0:0:0:
36,192,359865,1,8,0:0:0:0:
475,192,359865,1,2,0:0:0:0:
256,192,359940,1,2,0:0:0:0:
109,192,360015,1,2,0:0:0:0:
402,192,360015,1,0,0:0:0:0:
182,192,360090,1,2,0:0:0:0:
329,192,360090,1,0,0:0:0:0:
36,192,360165,1,2,0:0:0:0:
475,192,360165,1,2,0:0:0:0:
182,192,360240,1,2,0:0:0:0:
329,192,360240,1,2,0:0:0:0:
36,192,360315,1,2,0:0:0:0:
475,192,360315,1,2,0:0:0:0:
402,192,360390,1,2,0:0:0:0:
109,192,360390,1,2,0:0:0:0:
182,192,360465,1,2,0:0:0:0:
329,192,360465,1,2,0:0:0:0:
36,192,360540,1,8,0:0:0:0:
256,192,360540,1,0,0:0:0:0:
109,192,360615,1,8,0:0:0:0:
182,192,360615,1,0,0:0:0:0:
256,192,360690,1,8,0:0:0:0:
475,192,360690,1,0,0:0:0:0:
402,192,360765,1,0,0:0:0:0:
329,192,360765,1,8,0:0:0:0:
109,192,360840,1,0,0:0:0:0:
182,192,360840,1,0,0:0:0:0:
329,192,360915,1,0,0:0:0:0:
402,192,360915,1,0,0:0:0:0:
109,192,360990,1,0,0:0:0:0:
182,192,360990,1,0,0:0:0:0:
475,192,361065,1,2,0:0:0:0:
256,192,361065,128,4,363465:0:0:0:0:
36,192,361065,1,0,0:0:0:0:
36,192,363465,128,0,365865:0:0:0:0:
109,192,363465,1,0,0:0:0:0:
182,192,363615,1,2,0:0:0:0:
402,192,363615,1,8,0:0:0:0:
256,192,363765,1,0,0:0:0:0:
475,192,363840,1,0,0:0:0:0:
109,192,363915,1,8,0:0:0:0:
329,192,363915,1,2,0:0:0:0:
256,192,364065,1,0,0:0:0:0:
402,192,364215,1,8,0:0:0:0:
475,192,364215,1,2,0:0:0:0:
329,192,364365,1,0,0:0:0:0:
182,192,364440,1,0,0:0:0:0:
109,192,364515,1,2,0:0:0:0:
402,192,364515,1,8,0:0:0:0:
329,192,364665,1,0,0:0:0:0:
256,192,364815,1,2,0:0:0:0:
182,192,364815,1,8,0:0:0:0:
475,192,364965,1,2,0:0:0:0:
109,192,365040,1,2,0:0:0:0:
182,192,365115,1,2,0:0:0:0:
256,192,365115,1,8,0:0:0:0:
329,192,365265,1,2,0:0:0:0:
182,192,365340,1,2,0:0:0:0:
256,192,365415,1,8,0:0:0:0:
475,192,365415,1,2,0:0:0:0:
182,192,365565,1,2,0:0:0:0:
109,192,365640,1,2,0:0:0:0:
182,192,365715,1,8,0:0:0:0:
329,192,365715,1,2,0:0:0:0:
402,192,365790,1,2,0:0:0:0:
475,192,365865,128,0,368265:0:0:0:0:
329,192,365865,1,2,0:0:0:0:
182,192,365865,1,0,0:0:0:0:
36,192,366015,1,2,0:0:0:0:
182,192,366090,1,2,0:0:0:0:
36,192,366165,1,2,0:0:0:0:
182,192,366240,1,2,0:0:0:0:
36,192,366315,1,2,0:0:0:0:
329,192,366315,1,8,0:0:0:0:
402,192,366465,1,2,0:0:0:0:
256,192,366540,1,2,0:0:0:0:
402,192,366615,1,2,0:0:0:0:
256,192,366690,1,2,0:0:0:0:
36,192,366765,128,0,367065:0:0:0:0:
402,192,366765,1,8,0:0:0:0:
109,192,366765,1,2,0:0:0:0:
182,192,366915,1,0,0:0:0:0:
329,192,366990,1,0,0:0:0:0:
182,192,367065,128,0,367515:0:0:0:0:
256,192,367065,1,0,0:0:0:0:
402,192,367065,1,0,0:0:0:0:
109,192,367215,1,2,0:0:0:0:
256,192,367290,1,2,0:0:0:0:
36,192,367365,1,2,0:0:0:0:
256,192,367440,1,2,0:0:0:0:
329,192,367515,128,0,368265:0:0:0:0:
109,192,367515,1,8,0:0:0:0:
402,192,367515,1,2,0:0:0:0:
36,192,367665,1,2,0:0:0:0:
182,192,367740,1,2,0:0:0:0:
36,192,367815,1,2,0:0:0:0:
182,192,367890,1,2,0:0:0:0:
256,192,367965,128,0,368265:0:0:0:0:
36,192,367965,1,8,0:0:0:0:
402,192,367965,1,8,0:0:0:0:
182,192,368115,128,0,368265:0:0:0:0:
36,192,368115,1,8,0:0:0:0:
402,192,368115,1,8,0:0:0:0:
109,192,368265,128,0,370665:0:0:0:0:
36,192,368265,1,0,0:0:0:0:
182,192,368415,1,2,0:0:0:0:
329,192,368415,1,8,0:0:0:0:
256,192,368565,1,0,0:0:0:0:
475,192,368640,1,0,0:0:0:0:
182,192,368715,1,8,0:0:0:0:
329,192,368715,1,2,0:0:0:0:
36,192,368865,1,0,0:0:0:0:
329,192,369015,1,8,0:0:0:0:
182,192,369015,1,2,0:0:0:0:
256,192,369165,1,0,0:0:0:0:
36,192,369240,1,0,0:0:0:0:
182,192,369315,1,8,0:0:0:0:
329,192,369315,1,2,0:0:0:0:
402,192,369465,1,0,0:0:0:0:
329,192,369615,1,8,0:0:0:0:
475,192,369615,1,2,0:0:0:0:
182,192,369765,1,0,0:0:0:0:
402,192,369840,1,0,0:0:0:0:
329,192,369915,1,8,0:0:0:0:
475,192,369915,1,2,0:0:0:0:
402,192,370065,1,2,0:0:0:0:
256,192,370140,1,2,0:0:0:0:
182,192,370215,1,2,0:0:0:0:
329,192,370215,1,8,0:0:0:0:
36,192,370365,1,2,0:0:0:0:
256,192,370440,1,2,0:0:0:0:
329,192,370515,1,2,0:0:0:0:
182,192,370515,1,8,0:0:0:0:
256,192,370590,1,2,0:0:0:0:
402,192,370665,128,0,370815:0:0:0:0:
475,192,370665,1,0,0:0:0:0:
36,192,370665,1,2,0:0:0:0:
329,192,370815,1,2,0:0:0:0:
256,192,370815,1,8,0:0:0:0:
109,192,370965,128,0,371115:0:0:0:0:
36,192,370965,1,0,0:0:0:0:
475,192,370965,1,0,0:0:0:0:
182,192,371115,1,2,0:0:0:0:
256,192,371115,1,8,0:0:0:0:
475,192,371265,128,0,371865:0:0:0:0:
402,192,371265,1,0,0:0:0:0:
36,192,371415,128,0,371565:0:0:0:0:
182,192,371415,1,8,0:0:0:0:
256,192,371415,1,2,0:0:0:0:
109,192,371565,128,0,371715:0:0:0:0:
402,192,371565,1,0,0:0:0:0:
182,192,371715,128,0,371865:0:0:0:0:
329,192,371715,1,2,0:0:0:0:
256,192,371715,1,8,0:0:0:0:
402,192,371865,128,0,373065:0:0:0:0:
36,192,371865,1,2,0:0:0:0:
329,192,371940,1,2,0:0:0:0:
109,192,372015,1,2,0:0:0:0:
256,192,372015,1,2,0:0:0:0:
475,192,372090,1,2,0:0:0:0:
182,192,372165,1,2,0:0:0:0:
329,192,372165,1,2,0:0:0:0:
36,192,372240,1,2,0:0:0:0:
256,192,372315,1,2,0:0:0:0:
475,192,372315,1,2,0:0:0:0:
182,192,372390,1,2,0:0:0:0:
109,192,372465,128,0,373065:0:0:0:0:
36,192,372465,1,0,0:0:0:0:
329,192,372465,1,8,0:0:0:0:
256,192,372540,1,8,0:0:0:0:
182,192,372615,1,8,0:0:0:0:
475,192,372615,1,0,0:0:0:0:
256,192,372690,1,8,0:0:0:0:
36,192,372765,1,0,0:0:0:0:
329,192,372765,1,8,0:0:0:0:
256,192,372840,1,8,0:0:0:0:
182,192,372915,1,8,0:0:0:0:
475,192,372915,1,0,0:0:0:0:
256,192,372990,1,8,0:0:0:0:
36,192,373065,128,0,375465:0:0:0:0:
329,192,373065,1,8,0:0:0:0:
182,192,373215,1,8,0:0:0:0:
402,192,373215,1,2,0:0:0:0:
256,192,373365,1,0,0:0:0:0:
329,192,373440,1,0,0:0:0:0:
109,192,373515,1,8,0:0:0:0:
475,192,373515,1,2,0:0:0:0:
182,192,373665,1,0,0:0:0:0:
109,192,373815,1,2,0:0:0:0:
329,192,373815,1,8,0:0:0:0:
256,192,373965,1,0,0:0:0:0:
182,192,374040,1,0,0:0:0:0:
475,192,374115,1,2,0:0:0:0:
329,192,374115,1,8,0:0:0:0:
256,192,374265,1,0,0:0:0:0:
182,192,374415,1,8,0:0:0:0:
109,192,374415,1,2,0:0:0:0:
256,192,374565,1,2,0:0:0:0:
109,192,374640,1,2,0:0:0:0:
329,192,374715,1,8,0:0:0:0:
475,192,374715,1,2,0:0:0:0:
402,192,374865,1,2,0:0:0:0:
256,192,374940,1,2,0:0:0:0:
182,192,375015,1,8,0:0:0:0:
475,192,375015,1,2,0:0:0:0:
256,192,375165,1,2,0:0:0:0:
402,192,375240,1,2,0:0:0:0:
109,192,375315,1,8,0:0:0:0:
329,192,375315,1,2,0:0:0:0:
402,192,375390,1,2,0:0:0:0:
256,192,375465,128,0,377865:0:0:0:0:
475,192,375465,128,0,377865:0:0:0:0:
182,192,375465,1,2,0:0:0:0:
329,192,375615,1,8,0:0:0:0:
36,192,375615,1,8,0:0:0:0:
109,192,375765,1,0,0:0:0:0:
182,192,375840,1,0,0:0:0:0:
36,192,375915,1,2,0:0:0:0:
402,192,375915,1,8,0:0:0:0:
182,192,376065,1,0,0:0:0:0:
36,192,376215,1,8,0:0:0:0:
109,192,376215,1,2,0:0:0:0:
329,192,376365,128,0,376440:0:0:0:0:
402,192,376365,128,0,376440:0:0:0:0:
329,192,376515,128,0,376590:0:0:0:0:
402,192,376515,128,0,376590:0:0:0:0:
36,192,376515,1,2,0:0:0:0:
182,192,376515,1,8,0:0:0:0:
329,192,376665,128,0,377865:0:0:0:0:
402,192,376665,128,0,377865:0:0:0:0:
109,192,376665,1,0,0:0:0:0:
36,192,376815,1,2,0:0:0:0:
182,192,376815,1,8,0:0:0:0:
109,192,376965,1,0,0:0:0:0:
36,192,377040,1,0,0:0:0:0:
109,192,377115,1,8,0:0:0:0:
182,192,377115,1,2,0:0:0:0:
109,192,377265,1,0,0:0:0:0:
36,192,377415,1,8,0:0:0:0:
182,192,377415,1,2,0:0:0:0:
109,192,377565,1,0,0:0:0:0:
182,192,377640,1,0,0:0:0:0:
36,192,377715,1,2,0:0:0:0:
109,192,377715,1,8,0:0:0:0:
109,192,377865,128,0,379065:0:0:0:0:
182,192,377865,1,0,0:0:0:0:
256,192,378015,1,8,0:0:0:0:
36,192,378015,1,2,0:0:0:0:
475,192,378090,1,2,0:0:0:0:
329,192,378165,1,2,0:0:0:0:
402,192,378240,1,2,0:0:0:0:
256,192,378315,1,8,0:0:0:0:
36,192,378315,1,2,0:0:0:0:
329,192,378465,1,0,0:0:0:0:
402,192,378615,1,8,0:0:0:0:
475,192,378615,1,2,0:0:0:0:
256,192,378690,1,0,0:0:0:0:
329,192,378765,1,0,0:0:0:0:
256,192,378915,1,2,0:0:0:0:
402,192,378915,1,8,0:0:0:0:
182,192,379065,128,0,380265:0:0:0:0:
329,192,379065,1,0,0:0:0:0:
256,192,379215,1,8,0:0:0:0:
475,192,379215,1,2,0:0:0:0:
329,192,379290,1,2,0:0:0:0:
109,192,379365,1,2,0:0:0:0:
329,192,379440,1,2,0:0:0:0:
256,192,379515,1,2,0:0:0:0:
475,192,379515,1,8,0:0:0:0:
329,192,379665,1,0,0:0:0:0:
36,192,379815,1,2,0:0:0:0:
402,192,379815,1,8,0:0:0:0:
329,192,379890,1,0,0:0:0:0:
256,192,379965,1,0,0:0:0:0:
109,192,380115,1,8,0:0:0:0:
329,192,380115,1,2,0:0:0:0:
475,192,380265,128,4,381465:0:0:0:0:
402,192,380265,1,0,0:0:0:0:
36,192,380415,1,2,0:0:0:0:
329,192,380415,1,8,0:0:0:0:
109,192,380490,1,2,0:0:0:0:
256,192,380565,1,2,0:0:0:0:
109,192,380640,1,2,0:0:0:0:
36,192,380715,1,8,0:0:0:0:
329,192,380715,1,2,0:0:0:0:
182,192,380865,1,0,0:0:0:0:
109,192,381015,1,8,0:0:0:0:
329,192,381015,1,2,0:0:0:0:
256,192,381090,1,0,0:0:0:0:
182,192,381165,1,0,0:0:0:0:
329,192,381315,1,8,0:0:0:0:
36,192,381315,1,2,0:0:0:0:
109,192,381465,128,0,381540:0:0:0:0:
256,192,381465,128,2,381540:0:0:0:0:
36,192,381615,128,0,381690:0:0:0:0:
182,192,381615,128,0,381690:0:0:0:0:
475,192,381615,1,2,0:0:0:0:
36,192,381765,128,0,381840:0:0:0:0:
182,192,381765,128,0,381840:0:0:0:0:
402,192,381765,1,2,0:0:0:0:
329,192,381915,1,2,0:0:0:0:
109,192,381915,128,0,382065:0:0:0:0:
256,192,381915,128,2,382065:0:0:0:0:
329,192,382065,128,0,382140:0:0:0:0:
475,192,382065,128,0,382140:0:0:0:0:
329,192,382215,128,0,382290:0:0:0:0:
475,192,382215,128,0,382290:0:0:0:0:
36,192,382215,1,2,0:0:0:0:
256,192,382365,128,0,382515:0:0:0:0:
402,192,382365,128,0,382515:0:0:0:0:
109,192,382365,1,2,0:0:0:0:
182,192,382515,1,2,0:0:0:0:
36,192,382665,128,0,383715:0:0:0:0:
475,192,382665,128,0,385065:0:0:0:0:
329,192,382665,1,0,0:0:0:0:
182,192,382815,1,8,0:0:0:0:
402,192,382815,1,2,0:0:0:0:
256,192,382965,1,0,0:0:0:0:
182,192,383040,1,0,0:0:0:0:
109,192,383115,1,8,0:0:0:0:
329,192,383115,1,2,0:0:0:0:
256,192,383265,1,0,0:0:0:0:
109,192,383415,1,8,0:0:0:0:
329,192,383415,1,2,0:0:0:0:
256,192,383565,1,0,0:0:0:0:
329,192,383640,1,0,0:0:0:0:
402,192,383715,1,2,0:0:0:0:
182,192,383715,1,8,0:0:0:0:
36,192,383865,128,0,384015:0:0:0:0:
182,192,383865,1,0,0:0:0:0:
256,192,384015,1,8,0:0:0:0:
329,192,384015,1,2,0:0:0:0:
36,192,384165,128,0,384315:0:0:0:0:
182,192,384165,1,0,0:0:0:0:
329,192,384315,1,8,0:0:0:0:
402,192,384315,1,2,0:0:0:0:
36,192,384465,128,2,385065:0:0:0:0:
182,192,384465,1,2,0:0:0:0:
109,192,384615,128,2,384765:0:0:0:0:
256,192,384615,1,2,0:0:0:0:
182,192,384765,128,2,384915:0:0:0:0:
329,192,384765,1,2,0:0:0:0:
256,192,384915,128,2,385065:0:0:0:0:
402,192,384915,1,2,0:0:0:0:
402,192,385065,128,0,386265:0:0:0:0:
329,192,385065,1,2,0:0:0:0:
256,192,385140,1,2,0:0:0:0:
182,192,385215,1,2,0:0:0:0:
109,192,385290,1,2,0:0:0:0:
256,192,385365,1,2,0:0:0:0:
182,192,385440,1,2,0:0:0:0:
329,192,385515,128,0,386265:0:0:0:0:
109,192,385515,1,2,0:0:0:0:
36,192,385590,1,2,0:0:0:0:
182,192,385665,1,2,0:0:0:0:
256,192,385665,1,2,0:0:0:0:
182,192,385965,1,2,0:0:0:0:
256,192,385965,1,2,0:0:0:0:
182,192,386265,1,2,0:0:0:0:
36,192,386265,128,0,387465:0:0:0:0:
256,192,386340,1,2,0:0:0:0:
329,192,386415,1,2,0:0:0:0:
402,192,386490,1,2,0:0:0:0:
256,192,386565,1,2,0:0:0:0:
329,192,386640,1,2,0:0:0:0:
402,192,386715,1,2,0:0:0:0:
109,192,386715,128,0,387465:0:0:0:0:
475,192,386790,1,2,0:0:0:0:
182,192,386865,1,0,0:0:0:0:
329,192,386865,1,8,0:0:0:0:
256,192,386940,1,8,0:0:0:0:
329,192,387015,1,8,0:0:0:0:
475,192,387015,1,0,0:0:0:0:
402,192,387090,1,8,0:0:0:0:
182,192,387165,1,8,0:0:0:0:
475,192,387165,1,0,0:0:0:0:
329,192,387240,1,8,0:0:0:0:
256,192,387315,1,8,0:0:0:0:
475,192,387315,1,0,0:0:0:0:
329,192,387390,1,8,0:0:0:0:
475,192,387465,128,4,388665:0:0:0:0:
182,192,387465,1,8,0:0:0:0:
256,192,387540,1,2,0:0:0:0:
329,192,387615,1,2,0:0:0:0:
109,192,387615,1,8,0:0:0:0:
36,192,387690,1,2,0:0:0:0:
109,192,387765,1,2,0:0:0:0:
182,192,387840,1,2,0:0:0:0:
402,192,387915,1,2,0:0:0:0:
256,192,387915,1,8,0:0:0:0:
329,192,387990,1,2,0:0:0:0:
256,192,388065,1,2,0:0:0:0:
36,192,388140,1,2,0:0:0:0:
109,192,388215,1,2,0:0:0:0:
402,192,388215,1,8,0:0:0:0:
182,192,388290,1,2,0:0:0:0:
329,192,388365,1,2,0:0:0:0:
256,192,388440,1,2,0:0:0:0:
182,192,388515,1,2,0:0:0:0:
109,192,388515,1,8,0:0:0:0:
402,192,388590,1,2,0:0:0:0:
36,192,388665,128,0,389865:0:0:0:0:
329,192,388665,1,2,0:0:0:0:
109,192,388740,1,2,0:0:0:0:
402,192,388815,1,2,0:0:0:0:
182,192,388890,1,2,0:0:0:0:
329,192,388965,1,2,0:0:0:0:
256,192,389040,1,2,0:0:0:0:
475,192,389115,1,2,0:0:0:0:
182,192,389190,1,2,0:0:0:0:
329,192,389265,1,2,0:0:0:0:
109,192,389340,1,2,0:0:0:0:
475,192,389415,1,2,0:0:0:0:
182,192,389490,1,2,0:0:0:0:
329,192,389565,1,2,0:0:0:0:
109,192,389640,1,2,0:0:0:0:
402,192,389715,1,2,0:0:0:0:
182,192,389790,1,2,0:0:0:0:
329,192,389865,1,8,0:0:0:0:
475,192,389865,1,0,0:0:0:0:
402,192,389940,1,8,0:0:0:0:
329,192,390015,1,8,0:0:0:0:
256,192,390090,1,8,0:0:0:0:
36,192,390165,1,0,0:0:0:0:
182,192,390165,1,8,0:0:0:0:
109,192,390240,1,8,0:0:0:0:
182,192,390315,1,8,0:0:0:0:
256,192,390390,1,8,0:0:0:0:
329,192,390465,1,8,0:0:0:0:
36,192,390465,1,0,0:0:0:0:
475,192,390540,1,2,0:0:0:0:
329,192,390615,1,2,0:0:0:0:
475,192,390690,1,2,0:0:0:0:
329,192,390765,1,2,0:0:0:0:
36,192,390765,1,2,0:0:0:0:
182,192,390840,1,2,0:0:0:0:
36,192,390915,1,2,0:0:0:0:
182,192,390990,1,2,0:0:0:0:
36,192,391065,128,0,391165:0:0:0:0:
329,192,391065,1,2,0:0:0:0:
475,192,391065,1,2,0:0:0:0:
402,192,391065,1,8,0:0:0:0:
182,192,391165,128,0,391265:0:0:0:0:
329,192,391265,128,0,391365:0:0:0:0:
475,192,391365,128,0,391465:0:0:0:0:
109,192,391465,128,0,391565:0:0:0:0:
256,192,391565,128,0,391665:0:0:0:0:
402,192,391665,128,0,391765:0:0:0:0:
36,192,391765,128,0,391865:0:0:0:0:
109,192,391865,128,0,391965:0:0:0:0:
256,192,391965,128,0,392065:0:0:0:0:
402,192,392065,128,0,392165:0:0:0:0:
475,192,392165,128,0,392265:0:0:0:0:
36,192,392265,1,8,0:0:0:0:
329,192,392265,1,8,0:0:0:0:
109,192,392265,1,2,0:0:0:0:
402,192,392340,1,2,0:0:0:0:
329,192,392415,1,2,0:0:0:0:
256,192,392490,1,2,0:0:0:0:
182,192,392565,1,8,0:0:0:0:
475,192,392565,1,8,0:0:0:0:
36,192,392565,1,2,0:0:0:0:
256,192,392640,1,2,0:0:0:0:
109,192,392715,1,2,0:0:0:0:
182,192,392790,1,2,0:0:0:0:
36,192,392865,1,8,0:0:0:0:
329,192,392865,1,8,0:0:0:0:
402,192,392865,1,2,0:0:0:0:
109,192,392940,1,2,0:0:0:0:
182,192,393015,1,2,0:0:0:0:
256,192,393090,1,2,0:0:0:0:
182,192,393165,1,8,0:0:0:0:
475,192,393165,1,8,0:0:0:0:
402,192,393165,1,2,0:0:0:0:
36,192,393240,1,2,0:0:0:0:
256,192,393240,1,2,0:0:0:0:
109,192,393315,1,2,0:0:0:0:
329,192,393315,1,2,0:0:0:0:
182,192,393390,1,2,0:0:0:0:
475,192,393390,1,2,0:0:0:0:
256,192,393465,1,2,0:0:0:0:
402,192,393465,1,8,0:0:0:0:
329,192,393465,1,8,0:0:0:0:
182,192,393540,1,2,0:0:0:0:
36,192,393615,1,2,0:0:0:0:
109,192,393690,1,2,0:0:0:0:
256,192,393765,1,8,0:0:0:0:
475,192,393765,1,2,0:0:0:0:
329,192,393765,1,8,0:0:0:0:
182,192,393840,1,2,0:0:0:0:
109,192,393915,1,2,0:0:0:0:
329,192,393990,1,2,0:0:0:0:
36,192,394065,1,8,0:0:0:0:
475,192,394065,1,2,0:0:0:0:
256,192,394065,1,8,0:0:0:0:
182,192,394140,1,2,0:0:0:0:
329,192,394215,1,2,0:0:0:0:
182,192,394290,1,2,0:0:0:0:
402,192,394365,1,8,0:0:0:0:
256,192,394365,1,8,0:0:0:0:
475,192,394365,1,2,0:0:0:0:
109,192,394440,1,2,0:0:0:0:
36,192,394440,1,2,0:0:0:0:
402,192,394515,1,2,0:0:0:0:
475,192,394515,1,2,0:0:0:0:
109,192,394590,1,2,0:0:0:0:
36,192,394590,1,2,0:0:0:0:
402,192,394665,1,8,0:0:0:0:
475,192,394665,1,2,0:0:0:0:
182,192,394665,1,8,0:0:0:0:
329,192,394740,1,2,0:0:0:0:
36,192,394815,1,2,0:0:0:0:
109,192,394890,1,2,0:0:0:0:
256,192,394965,1,8,0:0:0:0:
475,192,394965,1,2,0:0:0:0:
182,192,394965,1,8,0:0:0:0:
402,192,395040,1,2,0:0:0:0:
256,192,395115,1,2,0:0:0:0:
109,192,395190,1,2,0:0:0:0:
256,192,395265,1,8,0:0:0:0:
182,192,395265,1,8,0:0:0:0:
475,192,395265,1,2,0:0:0:0:
36,192,395340,1,2,0:0:0:0:
329,192,395415,1,2,0:0:0:0:
182,192,395490,1,2,0:0:0:0:
475,192,395565,1,8,0:0:0:0:
329,192,395565,1,8,0:0:0:0:
36,192,395565,1,2,0:0:0:0:
402,192,395640,1,2,0:0:0:0:
109,192,395640,1,2,0:0:0:0:
329,192,395715,1,2,0:0:0:0:
182,192,395715,1,2,0:0:0:0:
256,192,395790,1,2,0:0:0:0:
109,192,395790,1,2,0:0:0:0:
402,192,395865,1,8,0:0:0:0:
475,192,395865,1,8,0:0:0:0:
36,192,395865,1,2,0:0:0:0:
329,192,395940,1,2,0:0:0:0:
256,192,396015,1,2,0:0:0:0:
182,192,396090,1,2,0:0:0:0:
109,192,396165,1,8,0:0:0:0:
402,192,396165,1,2,0:0:0:0:
36,192,396165,1,8,0:0:0:0:
182,192,396240,1,2,0:0:0:0:
256,192,396315,1,2,0:0:0:0:
329,192,396390,1,2,0:0:0:0:
475,192,396465,1,8,0:0:0:0:
402,192,396465,1,8,0:0:0:0:
109,192,396465,1,2,0:0:0:0:
329,192,396540,1,2,0:0:0:0:
182,192,396615,1,2,0:0:0:0:
329,192,396690,1,2,0:0:0:0:
36,192,396765,128,0,397065:0:0:0:0:
182,192,396765,128,0,397065:0:0:0:0:
475,192,396765,1,2,0:0:0:0:
329,192,396840,1,2,0:0:0:0:
475,192,396915,1,2,0:0:0:0:
329,192,396990,1,2,0:0:0:0:
402,192,397065,128,2,397215:0:0:0:0:
109,192,397065,1,2,0:0:0:0:
475,192,397065,1,0,0:0:0:0:
182,192,397140,1,2,0:0:0:0:
256,192,397215,128,2,397290:0:0:0:0:
329,192,397215,1,2,0:0:0:0:
109,192,397290,128,2,397365:0:0:0:0:
182,192,397290,1,2,0:0:0:0:
329,192,397365,128,2,397440:0:0:0:0:
402,192,397365,1,2,0:0:0:0:
182,192,397440,128,2,397515:0:0:0:0:
256,192,397440,1,2,0:0:0:0:
36,192,397515,128,2,397665:0:0:0:0:
475,192,397515,1,2,0:0:0:0:
109,192,397665,128,2,397740:0:0:0:0:
182,192,397665,1,2,0:0:0:0:
256,192,397740,128,2,397815:0:0:0:0:
329,192,397740,1,2,0:0:0:0:
402,192,397815,128,2,397890:0:0:0:0:
475,192,397815,1,2,0:0:0:0:
182,192,397890,128,2,397965:0:0:0:0:
109,192,397890,1,2,0:0:0:0:
329,192,397965,128,2,398040:0:0:0:0:
256,192,397965,1,2,0:0:0:0:
475,192,398040,128,2,398115:0:0:0:0:
402,192,398040,1,2,0:0:0:0:
256,192,398115,128,2,398190:0:0:0:0:
182,192,398115,1,2,0:0:0:0:
36,192,398190,128,2,398265:0:0:0:0:
329,192,398190,1,2,0:0:0:0:
109,192,398265,128,2,398415:0:0:0:0:
402,192,398265,1,2,0:0:0:0:
329,192,398340,1,2,0:0:0:0:
182,192,398415,128,2,398490:0:0:0:0:
256,192,398415,1,2,0:0:0:0:
329,192,398490,128,2,398565:0:0:0:0:
109,192,398490,1,2,0:0:0:0:
475,192,398565,128,2,398640:0:0:0:0:
36,192,398565,1,2,0:0:0:0:
256,192,398640,128,2,398715:0:0:0:0:
182,192,398640,1,2,0:0:0:0:
402,192,398715,128,2,398865:0:0:0:0:
329,192,398715,1,2,0:0:0:0:
256,192,398790,1,2,0:0:0:0:
182,192,398865,1,2,0:0:0:0:
475,192,398865,128,2,398940:0:0:0:0:
329,192,398940,128,2,399015:0:0:0:0:
36,192,398940,1,2,0:0:0:0:
109,192,399015,1,2,0:0:0:0:
475,192,399015,128,2,399090:0:0:0:0:
256,192,399090,128,2,399165:0:0:0:0:
182,192,399090,1,2,0:0:0:0:
36,192,399165,1,2,0:0:0:0:
475,192,399165,128,2,399240:0:0:0:0:
182,192,399240,1,2,0:0:0:0:
402,192,399240,128,2,399315:0:0:0:0:
36,192,399315,1,2,0:0:0:0:
329,192,399315,128,2,399390:0:0:0:0:
182,192,399390,1,2,0:0:0:0:
256,192,399390,128,2,399465:0:0:0:0:
36,192,399465,1,2,0:0:0:0:
475,192,399465,128,2,399540:0:0:0:0:
402,192,399540,128,2,399615:0:0:0:0:
109,192,399540,1,2,0:0:0:0:
329,192,399615,128,2,399690:0:0:0:0:
182,192,399615,1,2,0:0:0:0:
256,192,399690,128,2,399765:0:0:0:0:
36,192,399690,1,2,0:0:0:0:
475,192,399765,128,2,399840:0:0:0:0:
182,192,399765,1,2,0:0:0:0:
402,192,399840,128,2,399915:0:0:0:0:
109,192,399840,1,2,0:0:0:0:
329,192,399915,128,2,399990:0:0:0:0:
36,192,399915,1,2,0:0:0:0:
256,192,399990,128,2,400065:0:0:0:0:
182,192,399990,1,2,0:0:0:0:
475,192,400065,128,2,400140:0:0:0:0:
402,192,400065,1,2,0:0:0:0:
36,192,400140,128,2,400215:0:0:0:0:
109,192,400140,1,2,0:0:0:0:
402,192,400215,128,2,400290:0:0:0:0:
329,192,400215,1,2,0:0:0:0:
109,192,400290,128,2,400365:0:0:0:0:
182,192,400290,1,2,0:0:0:0:
329,192,400365,128,2,400440:0:0:0:0:
475,192,400365,1,2,0:0:0:0:
182,192,400440,128,2,400515:0:0:0:0:
36,192,400440,1,2,0:0:0:0:
329,192,400515,128,2,400590:0:0:0:0:
475,192,400515,1,2,0:0:0:0:
182,192,400590,128,2,400665:0:0:0:0:
36,192,400590,1,2,0:0:0:0:
256,192,400665,128,2,400740:0:0:0:0:
475,192,400740,128,2,400815:0:0:0:0:
256,192,400815,128,2,400890:0:0:0:0:
475,192,400890,128,2,400965:0:0:0:0:
182,192,400965,128,8,401040:0:0:0:0:
36,192,400965,1,8,0:0:0:0:
402,192,401040,128,8,401115:0:0:0:0:
256,192,401040,1,8,0:0:0:0:
182,192,401115,128,8,401190:0:0:0:0:
36,192,401115,1,8,0:0:0:0:
402,192,401190,128,8,401265:0:0:0:0:
256,192,401190,1,8,0:0:0:0:
109,192,401265,128,2,401340:0:0:0:0:
329,192,401340,128,2,401415:0:0:0:0:
109,192,401415,128,2,401490:0:0:0:0:
329,192,401490,128,2,401565:0:0:0:0:
36,192,401565,128,8,401640:0:0:0:0:
182,192,401565,1,8,0:0:0:0:
256,192,401640,128,8,401715:0:0:0:0:
402,192,401640,1,8,0:0:0:0:
36,192,401715,128,8,401790:0:0:0:0:
182,192,401715,1,8,0:0:0:0:
256,192,401790,128,8,401865:0:0:0:0:
402,192,401790,1,8,0:0:0:0:
329,192,401865,128,4,406665:0:0:0:0:
182,192,401865,128,4,406670:0:0:0:0:
109,192,406670,1,8,0:0:0:0:
402,192,406670,1,2,0:0:0:0:
475,192,406670,1,2,0:0:0:0:
36,192,406670,128,0,409070:0:0:0:0:
182,192,408470,1,2,0:0:0:0:
329,192,408470,1,2,0:0:0:0:
475,192,408470,1,2,0:0:0:0:
182,192,408770,1,2,0:0:0:0:
329,192,408770,1,2,0:0:0:0:
475,192,408770,1,2,0:0:0:0:
182,192,409070,1,2,0:0:0:0:
329,192,409070,1,2,0:0:0:0:
475,192,409070,128,8,411700:0:0:0:0:
182,192,411700,128,8,414644:0:0:0:0:
256,192,411700,1,2,0:0:0:0:
402,192,411700,1,2,0:0:0:0:
329,192,414644,128,8,415825:0:0:0:0:
256,192,414644,1,2,0:0:0:0:
475,192,414644,1,2,0:0:0:0:
182,192,415825,128,8,417109:0:0:0:0:
256,192,415825,1,2,0:0:0:0:
36,192,415825,1,2,0:0:0:0:
402,192,417109,128,8,418342:0:0:0:0:
256,192,417109,1,2,0:0:0:0:
329,192,417109,1,2,0:0:0:0:
109,192,418342,128,8,419575:0:0:0:0:
182,192,418342,1,2,0:0:0:0:
256,192,418342,1,2,0:0:0:0:
182,192,419575,128,8,421687:0:0:0:0:
329,192,419575,128,8,421687:0:0:0:0:
36,192,419575,1,2,0:0:0:0:
475,192,419575,1,2,0:0:0:0:
109,192,421687,1,2,0:0:0:0:
402,192,421687,1,2,0:0:0:0:
36,192,421687,128,0,422031:0:0:0:0:
475,192,421687,128,0,422031:0:0:0:0:
402,192,422031,128,2,431111:0:0:0:0:
256,192,422031,128,4,431111:0:0:0:0:
109,192,422031,128,2,431111:0:0:0:0:
