osu file format v12

[General]
AudioFilename: Heroes of Our Time.mp3
AudioLeadIn: 2000
PreviewTime: 82596
Countdown: 0
SampleSet: Normal
StackLeniency: 0.7
Mode: 0
LetterboxInBreaks: 1
WidescreenStoryboard: 0

[Editor]
Bookmarks: 9996,44796,63996,83196,97596,111996,133596,148430,152796,171996,186396,200796,222396,231980,241747,263689,285632,307575,318551,332261,351461,363461,377861,392261,406661
DistanceSpacing: 1
BeatDivisor: 4
GridSize: 4

[Metadata]
Title:Heroes of Our Time
TitleUnicode:Heroes of Our Time
Artist:DragonForce
ArtistUnicode:DragonForce
Creator:Jenny
Version:Legend
Source:
Tags:Dragon Force Ultra Beatdown beatmap project discography speed power metal marathon
BeatmapID:245960
BeatmapSetID:90716

[Difficulty]
HPDrainRate:6
CircleSize:5
OverallDifficulty:8
ApproachRate:9
SliderMultiplier:1.6
SliderTickRate:2

[Events]
//Background and Video events
0,0,"abstr.png",0,0
//Break Periods
//Storyboard Layer 0 (Background)
//Storyboard Layer 1 (Fail)
//Storyboard Layer 2 (Pass)
//Storyboard Layer 3 (Foreground)
//Storyboard Sound Samples
//Background Colour Transformations
3,100,163,162,255

[TimingPoints]
380,300,4,1,0,45,1,0
830,-100,4,2,0,40,0,0
1580,-100,4,1,0,45,0,0
1655,-100,4,2,0,40,0,0
2780,-100,4,1,0,45,0,0
2930,-100,4,2,0,40,0,0
3080,-100,4,1,0,45,0,0
3230,-100,4,2,0,40,0,0
3980,-100,4,1,0,45,0,0
4130,-100,4,2,0,5,0,0
4180,-100,4,2,0,40,0,0
4580,-100,4,1,0,45,0,0
4730,-100,4,2,0,5,0,0
4780,-100,4,2,0,40,0,0
5180,-100,4,1,0,45,0,0
5330,-100,4,2,0,40,0,0
6380,-100,4,1,0,45,0,0
6530,-100,4,2,0,40,0,0
7280,-100,4,1,0,45,0,0
7655,-100,4,2,0,40,0,0
8780,-100,4,1,0,45,0,0
9980,-100,4,1,0,45,0,1
13580,-133.333333333333,4,1,0,45,0,0
14780,-100,4,1,0,45,0,1
17180,-100,4,1,0,45,0,0
19580,-100,4,1,0,45,0,1
23180,-100,4,1,0,45,0,0
24380,-100,4,1,0,45,0,1
26780,-100,4,1,0,35,0,1
29180,-100,4,1,0,45,0,0
35880,-100,4,1,0,35,0,0
36080,-100,4,1,0,45,0,0
39755,-200,4,1,0,45,0,0
41180,-100,4,2,0,5,0,0
41330,-100,4,1,0,45,0,0
42305,-100,4,1,0,55,0,0
42455,-100,4,2,0,5,0,0
44780,-100,4,1,0,45,0,0
63980,-100,4,1,0,40,0,0
73580,-100,4,1,0,45,0,0
78380,-100,4,1,0,55,0,0
78905,-100,4,1,0,62,0,0
79505,-100,4,1,0,70,0,0
80705,-100,4,1,0,62,0,0
81980,-100,4,1,0,55,0,0
83180,-100,4,1,0,45,0,1
110180,-100,4,1,0,25,0,1
110255,-100,4,1,0,45,0,1
110780,-100,4,1,0,40,0,0
111080,-100,4,1,0,25,0,0
111980,-100,4,1,0,45,0,1
112055,-100,4,1,0,45,0,0
126380,-100,4,1,0,45,0,1
128780,-100,4,1,0,55,0,0
129155,-100,4,1,0,35,0,0
129305,-100,4,1,0,65,0,0
129755,-100,4,1,0,40,0,0
129905,-100,4,1,0,75,0,0
130355,-100,4,1,0,45,0,0
130505,-100,4,1,0,85,0,0
130955,-100,4,1,0,50,0,0
131105,-200,4,2,0,25,0,0
131480,-200,4,2,0,22,0,0
131780,-200,4,2,0,20,0,0
132080,-200,4,2,0,17,0,0
132380,-200,4,2,0,15,0,0
132605,-100,4,1,0,85,0,0
133505,-100,4,1,0,45,0,0
155180,-100,4,1,0,45,0,1
157580,-100,4,1,0,45,0,0
171680,-133.333333333333,4,1,0,45,0,0
171830,-133.333333333333,4,2,0,5,0,0
171980,-100,4,1,0,45,0,1
199580,-100,4,3,0,45,0,0
199880,-100,4,2,0,45,0,0
200780,-100,4,1,0,45,0,1
200817,-100,4,1,0,45,0,0
210380,-100,4,1,0,45,0,1
217580,-100,4,1,0,55,0,0
217955,-100,4,1,0,35,0,0
218105,-100,4,1,0,65,0,0
218555,-100,4,1,0,40,0,0
218705,-100,4,1,0,75,0,0
219155,-100,4,1,0,45,0,0
219305,-100,4,1,0,85,0,0
219755,-100,4,1,0,50,0,0
219905,-200,4,2,0,30,0,0
220280,-200,4,2,0,25,0,0
220580,-200,4,2,0,20,0,0
220880,-200,4,2,0,15,0,0
221180,-200,4,2,0,10,0,0
221480,-200,4,2,0,8,0,0
221780,-200,4,2,0,6,0,0
222080,-200,4,2,0,5,0,0
222380,-133.333333333333,4,2,0,35,0,0
231980,-100,4,1,0,45,0,0
234080,-133.333333333333,4,1,0,45,0,0
239480,-100,4,1,0,15,0,0
239630,-100,4,1,0,25,0,0
239780,-100,4,1,0,35,0,0
239930,-100,4,1,0,45,0,0
240080,-100,4,1,0,55,0,0
240230,-100,4,1,0,65,0,0
240380,342.857142857143,4,1,0,45,1,0
241665,-100,4,1,0,5,0,0
241751,-100,4,1,0,45,0,0
252637,-114.942528735632,4,1,0,45,0,0
254008,-112.359550561798,4,1,0,45,0,0
260951,-112.359550561798,4,1,0,47,0,0
263694,-100,4,1,0,45,0,1
263780,-100,4,1,0,45,0,0
293865,348.33091436865,4,1,0,45,1,0
295237,342.857142857143,4,1,0,45,1,0
295237,-100,4,1,0,45,0,0
296608,-100,4,1,0,45,0,1
304837,-133.333333333333,4,1,0,35,0,0
307580,-100,4,1,0,45,0,1
318551,-100,4,1,0,45,0,0
329522,-83.3333333333333,4,1,0,45,0,1
332265,300,4,2,0,45,1,0
341790,-133.333333333333,4,1,0,65,0,0
341940,-133.333333333333,4,2,0,35,0,0
342990,-133.333333333333,4,1,0,65,0,0
343140,-133.333333333333,4,2,0,35,0,0
344190,-133.333333333333,4,1,0,65,0,0
344340,-133.333333333333,4,2,0,35,0,0
345390,-133.333333333333,4,1,0,65,0,0
345540,-133.333333333333,4,2,0,35,0,0
346590,-133.333333333333,4,1,0,65,0,0
346740,-133.333333333333,4,2,0,35,0,0
347790,-133.333333333333,4,1,0,65,0,0
347940,-133.333333333333,4,2,0,35,0,0
348990,-133.333333333333,4,1,0,45,0,0
349140,-133.333333333333,4,2,0,35,0,0
351165,-133.333333333333,4,2,0,5,0,0
351465,-100,4,1,0,60,0,0
358515,-100,4,1,0,25,0,0
359865,-100,4,2,0,35,0,0
359940,-100,4,1,0,25,0,0
360240,-100,4,2,0,35,0,0
360390,-100,4,1,0,25,0,0
360690,-100,4,2,0,35,0,0
360915,-100,4,2,0,45,0,0
361065,-100,4,1,0,60,0,0
361140,-100,4,1,0,5,0,0
361665,-100,4,1,0,17,0,0
362265,-100,4,1,0,30,0,0
362790,-100,4,2,0,5,0,0
363465,-100,4,1,0,45,0,1
367590,-100,4,1,0,40,0,1
367890,-100,4,1,0,35,0,1
368190,-100,4,1,0,45,0,1
391065,-100,4,1,0,45,0,0
391140,-100,4,2,0,5,0,0
392265,-100,4,1,0,45,0,1
401790,-100,4,1,0,45,0,0
401865,-100,4,1,0,45,0,1
406365,-100,4,1,0,5,0,0
406670,600,4,1,0,40,1,1
406745,-100,4,2,0,40,0,0
408470,-100,4,2,0,30,0,0
409070,631.578947368421,4,1,0,40,1,1
409148,-100,4,2,0,40,0,0
410491,-100,4,2,0,5,0,0
410806,-100,4,2,0,40,0,0
410964,736.196319018405,4,2,0,40,1,0
411148,-100,4,2,0,5,0,0
411516,-100,4,2,0,40,0,0
411700,-100,4,1,0,40,0,1
411792,-100,4,2,0,40,0,0
413356,-100,4,2,0,5,0,0
413724,-100,4,2,0,40,0,0
414092,-100,4,2,0,5,0,0
414460,-100,4,2,0,40,0,0
414644,821.917808219178,4,1,0,40,1,1
414695,-100,4,2,0,40,0,1
415722,-100,4,2,0,15,0,0
415825,-100,4,1,0,40,0,1
415876,-100,4,2,0,40,0,1
417007,-100,4,2,0,15,0,0
417109,-100,4,1,0,40,0,1
417161,-100,4,2,0,40,0,1
418291,-100,4,2,0,15,0,0
418394,-100,4,1,0,40,0,1
418445,-100,4,2,0,40,0,1
419469,-100,4,2,0,15,0,0
419575,845.070422535211,4,1,0,40,1,1
419627,-100,4,2,0,40,0,1
421600,-100,4,2,0,15,0,0
421687,689.655172413793,4,1,0,40,1,1
421988,-100,4,1,0,40,0,0
422031,-100,4,1,0,40,0,1
422074,-100,4,2,0,40,0,1
422376,-100,4,2,0,38,0,1
423066,-100,4,2,0,35,0,1
423755,-100,4,2,0,33,0,1
424445,666.666666666667,4,2,0,30,1,1
425111,-100,4,2,0,27,0,1
425778,-100,4,2,0,25,0,1
426445,-100,4,2,0,22,0,1
427111,-100,4,2,0,20,0,1
427778,-100,4,2,0,18,0,1
428445,-100,4,2,0,15,0,1
429111,-100,4,2,0,12,0,1
429778,-100,4,2,0,10,0,1
430445,-100,4,2,0,5,0,0

[Colours]
Combo1 : 0,174,174
Combo2 : 128,255,255
Combo3 : 0,128,192
Combo4 : 240,240,240

[HitObjects]
434,239,380,5,6,0:2:0:0:
354,248,530,1,6,0:2:0:0:
354,248,680,1,0,0:0:0:0:
385,174,830,1,2,0:0:0:0:
311,100,980,2,0,P|264:88|205:83,1,80,0|0,0:0|0:0,0:0:0:0:
72,134,1280,2,0,P|119:146|151:150,1,80,0|0,0:0|0:0,0:0:0:0:
235,211,1580,5,6,0:2:0:0:
185,274,1730,1,0,0:0:0:0:
185,274,1805,1,0,0:0:0:0:
185,274,1880,1,0,0:0:0:0:
264,285,2030,1,2,0:0:0:0:
188,356,2180,2,0,P|141:365|105:378,1,80
4,257,2480,2,0,P|51:266|82:277,1,80
147,196,2780,5,6,0:2:0:0:
136,116,2930,1,0,0:0:0:0:
136,116,3005,1,0,0:0:0:0:
136,116,3080,1,4,0:2:0:0:
229,37,3230,1,2,0:0:0:0:
216,115,3380,2,0,L|299:130,1,80,0|0,0:0|0:0,0:0:0:0:
476,81,3680,2,0,L|393:95,1,80,2|0,0:0|0:0,0:0:0:0:
458,179,3980,6,0,P|467:232|481:275,1,80,6|0,0:2|0:0,0:0:0:0:
370,319,4280,1,0,0:0:0:0:
121,266,4580,6,0,P|112:213|96:170,1,80,6|0,0:2|0:0,0:0:0:0:
207,129,4880,1,0,0:0:0:0:
272,173,5180,5,6,0:2:0:0:
279,93,5330,1,0,0:0:0:0:
279,93,5405,1,0,0:0:0:0:
279,93,5480,1,0,0:0:0:0:
207,129,5630,1,2,0:0:0:0:
104,114,5780,2,0,P|61:104|29:84,1,80
3,271,6080,2,0,P|37:250|76:242,1,80,2|0,0:0|0:0,0:0:0:0:
149,318,6380,5,6,0:2:0:0:
218,278,6530,1,0,0:0:0:0:
218,278,6605,1,0,0:0:0:0:
218,278,6680,1,0,0:0:0:0:
219,357,6830,1,0,0:0:0:0:
149,318,6980,2,0,P|134:281|130:236,1,80,0|2,0:0|0:0,0:0:0:0:
293,144,7280,5,0,0:0:0:0:
158,166,7430,1,0,0:0:0:0:
43,96,7580,5,6,0:2:0:0:
86,28,7730,1,0,0:0:0:0:
86,28,7805,1,0,0:0:0:0:
86,28,7880,1,2,0:0:0:0:
122,99,8030,1,0,0:0:0:0:
224,113,8180,2,0,P|266:98|297:76,1,80
459,154,8480,2,0,P|423:137|384:130,1,80,2|0,0:0|0:0,0:0:0:0:
294,182,8780,5,4,0:0:0:0:
338,311,8930,1,4,0:0:0:0:
199,177,9380,5,4,0:0:0:0:
243,48,9530,1,4,0:0:0:0:
102,215,9980,5,6,0:0:0:0:
92,253,10055,1,0,0:0:0:0:
103,291,10130,1,0,0:0:0:0:
131,319,10205,1,0,0:0:0:0:
169,329,10280,1,2,0:0:0:0:
208,319,10355,1,0,0:0:0:0:
236,291,10430,1,0,0:0:0:0:
248,253,10505,1,0,0:0:0:0:
245,213,10580,6,0,L|235:174,1,40,2|0,0:0|0:0,0:0:0:0:
187,7,10730,2,0,L|197:46,1,40,0|0,0:0|0:0,0:0:0:0:
305,84,10880,2,0,L|266:94,1,40,2|0,0:0|0:0,0:0:0:0:
127,136,11030,2,0,L|166:126,1,40,0|0,0:0|0:0,0:0:0:0:
345,79,11180,5,2,0:0:0:0:
384,75,11255,1,0,0:0:0:0:
422,87,11330,1,0,0:0:0:0:
453,113,11405,1,0,0:0:0:0:
471,148,11480,1,2,0:0:0:0:
476,187,11555,1,0,0:0:0:0:
465,225,11630,1,0,0:0:0:0:
440,257,11705,1,0,0:0:0:0:
406,276,11780,2,2,P|361:287|312:280,1,80,2|2,0:0|0:0,0:0:0:0:
166,221,12080,2,2,P|211:210|245:213,1,80,2|2,0:0|0:0,0:0:0:0:
145,343,12380,5,6,0:0:0:0:
106,333,12455,1,0,0:0:0:0:
72,311,12530,1,0,0:0:0:0:
47,281,12605,1,0,0:0:0:0:
32,244,12680,1,2,0:0:0:0:
29,204,12755,1,0,0:0:0:0:
39,165,12830,2,0,P|49:147|63:129,1,40
128,116,12980,5,2,0:0:0:0:
157,142,13055,1,0,0:0:0:0:
194,158,13130,1,0,0:0:0:0:
233,160,13205,1,0,0:0:0:0:
272,148,13280,1,2,0:0:0:0:
304,125,13355,1,0,0:0:0:0:
326,92,13430,2,0,P|335:73|340:46,1,40
414,31,13580,6,4,P|466:54|540:42,3,120.000004577637
438,180,14780,5,6,0:0:0:0:
461,211,14855,1,0,0:0:0:0:
464,250,14930,1,0,0:0:0:0:
446,285,15005,1,0,0:0:0:0:
411,304,15080,1,2,0:0:0:0:
372,302,15155,1,0,0:0:0:0:
340,279,15230,1,0,0:0:0:0:
323,242,15305,1,0,0:0:0:0:
321,202,15380,6,0,L|343:167,1,40,2|0,0:0|0:0,0:0:0:0:
427,26,15530,2,0,L|405:59,1,40,0|0,0:0|0:0,0:0:0:0:
294,72,15680,2,0,L|328:94,1,40,2|0,0:0|0:0,0:0:0:0:
454,156,15830,2,0,L|420:134,1,40,0|0,0:0|0:0,0:0:0:0:
270,41,15980,5,6,0:0:0:0:
234,23,16055,1,0,0:0:0:0:
194,24,16130,1,0,0:0:0:0:
157,40,16205,1,0,0:0:0:0:
136,74,16280,1,2,0:0:0:0:
132,113,16355,1,0,0:0:0:0:
142,151,16430,1,0,0:0:0:0:
168,180,16505,1,0,0:0:0:0:
187,214,16580,6,0,P|196:236|201:256,3,40,2|0|0|0,0:0|0:0|0:0|0:0,0:0:0:0:
255,294,16880,2,0,P|251:319|242:337,3,40,2|0|0|0,0:0|0:0|0:0|0:0,0:0:0:0:
179,353,17180,5,6,0:0:0:0:
179,353,17255,1,0,0:0:0:0:
179,353,17330,1,0,0:0:0:0:
179,353,17405,1,0,0:0:0:0:
179,353,17480,2,0,L|150:385,1,40
74,310,17630,5,2,0:0:0:0:
74,310,17705,1,0,0:0:0:0:
74,310,17780,1,0,0:0:0:0:
74,310,17855,1,0,0:0:0:0:
74,310,17930,2,0,L|27:288,1,40
76,195,18080,5,2,0:0:0:0:
76,195,18155,1,0,0:0:0:0:
76,195,18230,2,0,L|50:143,1,40
114,72,18380,6,0,L|108:112,1,40,2|0,0:0|0:0,0:0:0:0:
218,195,18530,2,0,L|204:158,1,40,2|0,0:0|0:0,0:0:0:0:
233,96,18680,1,0,0:0:0:0:
233,96,18755,1,0,0:0:0:0:
233,96,18830,5,2,0:0:0:0:
261,67,18905,1,0,0:0:0:0:
300,62,18980,1,0,0:0:0:0:
334,82,19055,1,0,0:0:0:0:
350,118,19130,1,2,0:0:0:0:
345,157,19205,1,0,0:0:0:0:
335,195,19280,1,0,0:0:0:0:
342,234,19355,1,0,0:0:0:0:
371,261,19430,1,0,0:0:0:0:
409,270,19505,1,0,0:0:0:0:
447,258,19580,6,0,L|486:240,1,40,6|0,0:0|0:0,0:0:0:0:
461,175,19730,2,0,L|500:157,1,40,0|0,0:0|0:0,0:0:0:0:
427,99,19880,2,0,L|464:83,1,40,2|0,0:0|0:0,0:0:0:0:
441,16,20030,2,0,L|478:0,1,40,0|0,0:0|0:0,0:0:0:0:
393,81,20180,5,2,0:0:0:0:
355,66,20255,1,0,0:0:0:0:
315,73,20330,1,0,0:0:0:0:
284,98,20405,1,0,0:0:0:0:
269,135,20480,1,2,0:0:0:0:
273,174,20555,1,0,0:0:0:0:
290,209,20630,1,0,0:0:0:0:
323,230,20705,1,0,0:0:0:0:
362,235,20780,6,0,L|406:225,1,40,6|0,0:0|0:0,0:0:0:0:
363,317,20930,2,0,L|401:341,1,40,0|0,0:0|0:0,0:0:0:0:
284,334,21080,2,0,L|270:373,1,40,2|0,0:0|0:0,0:0:0:0:
229,276,21230,2,0,L|188:283,1,40,0|0,0:0|0:0,0:0:0:0:
153,268,21380,5,2,0:0:0:0:
136,231,21455,1,0,0:0:0:0:
138,191,21530,1,0,0:0:0:0:
159,157,21605,1,0,0:0:0:0:
196,143,21680,2,0,P|216:140|235:139,2,40,2|0|0,0:0|0:0|0:0,0:0:0:0:
82,106,21980,5,6,0:0:0:0:
57,74,22055,1,0,0:0:0:0:
64,34,22130,1,0,0:0:0:0:
99,15,22205,1,0,0:0:0:0:
138,21,22280,1,2,0:0:0:0:
159,54,22355,1,0,0:0:0:0:
157,93,22430,1,0,0:0:0:0:
142,130,22505,1,0,0:0:0:0:
141,169,22580,1,2,0:0:0:0:
153,207,22655,1,0,0:0:0:0:
187,226,22730,1,0,0:0:0:0:
226,227,22805,1,0,0:0:0:0:
262,210,22880,2,0,P|277:190|286:171,2,40,2|0|0,0:0|0:0|0:0,0:0:0:0:
238,327,23180,6,0,P|244:340|259:360,2,40,4|0|0,0:0|0:0|0:0,0:0:0:0:
355,298,23480,2,0,P|367:306|390:316,2,40,4|0|0,0:0|0:0|0:0,0:0:0:0:
430,204,23780,2,0,P|444:204|469:201,2,40,4|0|0,0:0|0:0|0:0,0:0:0:0:
463,89,24080,2,0,P|476:82|496:67,2,40,4|0|0,0:0|0:0|0:0,0:0:0:0:
389,58,24380,5,6,0:0:0:0:
353,40,24455,1,0,0:0:0:0:
313,46,24530,1,0,0:0:0:0:
289,78,24605,1,0,0:0:0:0:
295,117,24680,1,2,0:0:0:0:
315,151,24755,1,0,0:0:0:0:
323,189,24830,1,0,0:0:0:0:
310,226,24905,1,0,0:0:0:0:
273,242,24980,1,2,0:0:0:0:
233,240,25055,1,0,0:0:0:0:
202,214,25130,1,0,0:0:0:0:
193,174,25205,1,0,0:0:0:0:
203,135,25280,2,0,P|217:115|231:100,2,40,2|0|0,0:0|0:0|0:0,0:0:0:0:
87,163,25580,5,6,0:0:0:0:
69,199,25655,1,0,0:0:0:0:
75,239,25730,1,0,0:0:0:0:
107,263,25805,1,0,0:0:0:0:
146,260,25880,1,2,0:0:0:0:
178,236,25955,1,0,0:0:0:0:
218,229,26030,1,0,0:0:0:0:
255,242,26105,1,0,0:0:0:0:
271,279,26180,1,2,0:0:0:0:
269,319,26255,1,0,0:0:0:0:
243,350,26330,1,0,0:0:0:0:
203,359,26405,1,0,0:0:0:0:
164,349,26480,2,0,P|144:335|129:321,2,40,2|0|0,0:0|0:0|0:0,0:0:0:0:
323,367,26780,5,6,0:0:0:0:
323,367,26855,1,0,0:0:0:0:
323,367,26930,1,0,0:0:0:0:
323,367,27005,1,0,0:0:0:0:
323,367,27080,2,0,L|369:352,1,40,0|0,0:0|0:0,0:0:0:0:
395,295,27230,5,6,0:0:0:0:
395,295,27305,1,0,0:0:0:0:
395,295,27380,1,0,0:0:0:0:
395,295,27455,1,0,0:0:0:0:
395,295,27530,2,0,L|407:240,1,40,0|0,0:0|0:0,0:0:0:0:
375,193,27680,6,0,L|362:144,3,40,6|0|0|0,0:0|0:0|0:0|0:0,0:0:0:0:
298,135,27980,6,0,L|311:86,3,40,2|0|0|0,0:0|0:0|0:0|0:0,0:0:0:0:
289,30,28280,5,4,0:0:0:0:
289,30,28355,1,0,0:0:0:0:
289,30,28430,1,0,0:0:0:0:
289,30,28505,1,0,0:0:0:0:
225,54,28580,6,0,L|182:55,3,40,2|0|0|0,0:0|0:0|0:0|0:0,0:0:0:0:
123,25,28880,5,4,0:0:0:0:
123,25,28955,1,0,0:0:0:0:
123,25,29030,1,0,0:0:0:0:
123,25,29105,1,0,0:0:0:0:
70,69,29180,6,0,P|53:92|26:112,2,53.3333333333333
107,171,29480,2,0,P|128:191|156:204,2,53.3333333333333
36,253,29780,2,0,P|7:244|-21:244,2,53.3333333333333
86,317,30080,1,2,0:0:0:0:
243,287,30380,6,0,L|282:329,2,53.3333333333333
401,262,30680,2,0,L|348:267,2,53.3333333333333
450,198,30980,1,4,0:0:0:0:
272,120,31280,1,6,0:0:0:0:
417,54,31580,6,0,P|428:28|428:-4,2,53.3333333333333
355,143,31880,2,0,P|372:165|399:181,2,53.3333333333333
310,44,32180,2,0,P|281:47|254:63,2,53.3333333333333
385,72,32480,1,2,0:0:0:0:
312,214,32780,6,0,L|303:273,2,53.3333333333333
176,301,33080,2,0,L|218:268,2,53.3333333333333
42,285,33380,6,0,L|95:293,2,53.3333333333333,6|0|0,0:0|0:0|0:0,0:0:0:0:
21,178,33680,2,0,L|28:125,2,53.3333333333333,6|0|0,0:0|0:0|0:0,0:0:0:0:
94,215,33980,5,0,0:0:0:0:
146,224,34080,1,0,0:0:0:0:
192,198,34180,1,0,0:0:0:0:
224,155,34280,1,0,0:0:0:0:
271,129,34380,1,0,0:0:0:0:
323,126,34480,1,0,0:0:0:0:
374,113,34580,5,0,0:0:0:0:
357,62,34680,1,0,0:0:0:0:
306,75,34780,1,0,0:0:0:0:
323,126,34880,2,0,P|326:151|320:178,2,53.3333333333333,2|0|0,0:0|0:0|0:0,0:0:0:0:
306,75,35180,5,0,0:0:0:0:
256,56,35280,1,0,0:0:0:0:
204,68,35380,1,0,0:0:0:0:
159,97,35480,1,0,0:0:0:0:
106,106,35580,1,0,0:0:0:0:
61,76,35680,1,0,0:0:0:0:
34,122,35780,5,4,0:0:0:0:
79,152,35880,1,0,0:0:0:0:
106,106,35980,1,0,0:0:0:0:
61,76,36080,2,0,P|71:53|74:23,2,53.3333333333333,6|0|0,0:0|0:0|0:0,0:0:0:0:
34,122,36380,5,0,0:0:0:0:
17,172,36480,1,0,0:0:0:0:
33,222,36580,1,0,0:0:0:0:
77,251,36680,1,0,0:0:0:0:
102,297,36780,1,0,0:0:0:0:
95,349,36880,1,0,0:0:0:0:
42,340,36980,5,0,0:0:0:0:
49,288,37080,1,0,0:0:0:0:
102,297,37180,1,0,0:0:0:0:
95,349,37280,1,6,0:0:0:0:
254,363,37580,5,0,0:0:0:0:
303,342,37680,1,0,0:0:0:0:
317,290,37780,1,0,0:0:0:0:
322,237,37880,1,0,0:0:0:0:
357,197,37980,1,0,0:0:0:0:
410,201,38080,1,0,0:0:0:0:
447,238,38180,6,0,L|434:300,2,53.3333333333333,6|0|0,0:0|0:0|0:0,0:0:0:0:
498,223,38480,2,0,L|487:167,2,53.3333333333333,6|0|0,0:0|0:0|0:0,0:0:0:0:
486,275,38780,5,6,0:0:0:0:
116,168,39380,5,6,0:0:0:0:
168,67,39530,1,6,0:0:0:0:
374,189,39980,6,2,P|385:252|166:320,1,320,6|0,0:0|0:0,0:0:0:0:
136,287,41330,5,2,0:0:0:0:
116,209,41480,1,0,0:0:0:0:
133,130,41630,1,0,0:0:0:0:
193,77,41780,1,2,0:0:0:0:
319,58,41930,5,0,0:0:0:0:
297,184,42080,1,2,0:0:0:0:
422,157,42230,1,0,0:0:0:0:
444,283,42380,1,6,0:0:0:0:
256,192,42455,12,0,44705,0:0:0:0:
306,137,44780,6,0,P|347:132|383:114,1,80,6|0,0:0|0:0,0:0:0:0:
423,46,45080,1,0,0:0:0:0:
484,97,45230,2,0,P|475:178|499:262,1,160,2|0,0:0|0:0,0:0:0:0:
441,313,45680,2,0,P|402:316|354:325,1,80,2|0,0:0|0:0,0:0:0:0:
233,246,45980,2,0,P|268:259|312:261,1,80,2|0,0:0|0:0,0:0:0:0:
258,123,46280,2,0,P|221:129|182:149,1,80,2|0,0:0|0:0,0:0:0:0:
327,185,46580,2,0,P|354:161|378:124,2,80,0|2|2,0:0|0:0|0:0,0:0:0:0:
250,210,47030,1,0,0:0:0:0:
178,175,47180,6,0,P|143:151|106:137,2,80,2|0|0,0:0|0:0|0:0,0:0:0:0:
182,26,47630,2,0,P|195:66|213:103,2,80,2|0|0,0:0|0:0|0:0,0:0:0:0:
106,53,48080,2,0,P|59:60|19:55,1,80,2|0,0:0|0:0,0:0:0:0:
263,35,48380,2,0,P|310:28|343:32,1,80,2|0,0:0|0:0,0:0:0:0:
370,179,48680,2,0,P|340:141|327:112,1,80,2|0,0:0|0:0,0:0:0:0:
297,257,48980,2,0,P|279:301|260:327,1,80,0|2,0:0|0:0,0:0:0:0:
119,277,49280,2,2,P|166:270|198:273,1,80,0|2,0:0|0:0,0:0:0:0:
238,204,49580,6,0,L|223:120,2,80,6|0|0,0:0|0:0|0:0,0:0:0:0:
297,257,50030,2,0,P|378:268|446:233,1,160,2|0,0:0|0:0,0:0:0:0:
495,296,50480,2,0,P|488:334|499:378,1,80,2|0,0:0|0:0,0:0:0:0:
486,162,50780,2,0,P|493:124|484:85,2,80,2|0|0,0:0|0:0|0:0,0:0:0:0:
394,47,51230,2,0,P|387:85|396:124,2,80,2|0|0,0:0|0:0|0:0,0:0:0:0:
319,17,51680,2,0,L|234:11,1,80,2|0,0:0|0:0,0:0:0:0:
136,74,51980,5,6,0:0:0:0:
171,93,52055,1,0,0:0:0:0:
190,127,52130,1,0,0:0:0:0:
188,166,52205,1,0,0:0:0:0:
162,197,52280,2,0,P|142:212|112:222,1,40
140,284,52430,1,2,0:0:0:0:
140,284,52505,1,0,0:0:0:0:
140,284,52580,5,0,0:0:0:0:
102,296,52655,1,0,0:0:0:0:
65,285,52730,1,0,0:0:0:0:
39,256,52805,1,0,0:0:0:0:
35,216,52880,2,0,P|38:192|52:162,1,40,2|0,0:0|0:0,0:0:0:0:
33,74,53030,2,0,P|30:97|23:113,1,40,2|0,0:0|0:0,0:0:0:0:
102,47,53180,5,6,0:0:0:0:
130,18,53255,1,0,0:0:0:0:
169,12,53330,1,0,0:0:0:0:
208,20,53405,1,0,0:0:0:0:
236,47,53480,1,2,0:0:0:0:
243,86,53555,1,0,0:0:0:0:
235,125,53630,1,0,0:0:0:0:
232,164,53705,1,0,0:0:0:0:
248,200,53780,2,0,P|266:215|288:224,1,40,2|0,0:0|0:0,0:0:0:0:
380,223,53930,2,0,P|364:210|347:202,1,40,2|0,0:0|0:0,0:0:0:0:
378,303,54080,1,2,0:0:0:0:
450,263,54230,1,2,0:0:0:0:
480,164,54380,6,0,P|486:128|480:85,2,80,6|0|0,0:0|0:0|0:0,0:0:0:0:
393,45,54830,2,2,P|387:81|393:124,2,80,2|0|0,0:0|0:0|0:0,0:0:0:0:
299,68,55280,2,0,L|217:58,1,80
91,132,55580,2,0,L|171:123,1,80,2|0,0:0|0:0,0:0:0:0:
91,132,55880,2,0,L|72:218,1,80,2|0,0:0|0:0,0:0:0:0:
114,298,56180,1,0,0:0:0:0:
203,333,56330,1,0,0:0:0:0:
298,319,56480,1,2,0:0:0:0:
364,249,56630,1,0,0:0:0:0:
376,153,56780,6,0,P|372:110|357:71,2,80,6|0|0,0:0|0:0|0:0,0:0:0:0:
457,277,57230,2,0,P|461:320|476:359,2,80,2|0|0,0:0|0:0|0:0,0:0:0:0:
377,330,57680,2,0,L|285:318,1,80,2|0,0:0|0:0,0:0:0:0:
162,272,57980,2,0,L|242:262,1,80,2|0,0:0|0:0,0:0:0:0:
162,272,58280,2,0,L|104:211,1,80,2|0,0:0|0:0,0:0:0:0:
130,120,58580,1,0,0:0:0:0:
223,59,58730,1,0,0:0:0:0:
286,150,58880,1,2,0:0:0:0:
193,211,59030,1,0,0:0:0:0:
288,12,59180,6,0,P|330:8|368:19,2,80,6|0|0,0:0|0:0|0:0,0:0:0:0:
410,95,59630,2,0,P|368:99|330:88,2,80,2|0|0,0:0|0:0|0:0,0:0:0:0:
469,174,60080,2,0,L|465:259,1,80,2|0,0:0|0:0,0:0:0:0:
321,316,60380,2,0,L|318:237,1,80,2|0,0:0|0:0,0:0:0:0:
380,104,60680,2,0,L|384:184,1,80,2|0,0:0|0:0,0:0:0:0:
233,121,60980,2,0,L|237:36,1,80,2|0,0:0|0:0,0:0:0:0:
160,15,61280,1,0,0:0:0:0:
160,15,61355,1,0,0:0:0:0:
160,15,61430,1,2,0:0:0:0:
81,71,61580,5,2,0:0:0:0:
117,87,61655,1,0,0:0:0:0:
135,123,61730,1,2,0:0:0:0:
136,162,61805,1,0,0:0:0:0:
118,198,61880,2,0,P|85:220|68:226,1,40
93,289,62030,5,2,0:0:0:0:
93,289,62105,1,0,0:0:0:0:
93,289,62180,1,0,0:0:0:0:
131,277,62255,1,0,0:0:0:0:
170,282,62330,1,0,0:0:0:0:
201,306,62405,1,0,0:0:0:0:
211,344,62480,2,0,P|207:367|198:382,3,40,2|0|0|0,0:0|0:0|0:0|0:0,0:0:0:0:
278,327,62780,6,0,P|274:304|265:289,3,40,2|0|0|0,0:0|0:0|0:0|0:0,0:0:0:0:
312,237,63080,2,0,P|335:241|350:250,3,40,2|0|0|0,0:0|0:0|0:0|0:0,0:0:0:0:
295,170,63380,2,0,P|272:174|257:183,3,40,2|0|0|0,0:0|0:0|0:0|0:0,0:0:0:0:
198,151,63680,2,0,P|202:128|211:113,3,40,2|0|0|0,0:0|0:0|0:0|0:0,0:0:0:0:
269,77,63980,6,0,P|346:82|421:34,1,160,6|0,0:0|0:0,0:0:0:0:
415,40,64430,1,0,0:0:0:0:
459,107,64580,2,0,L|450:189,1,80,2|0,0:0|0:0,0:0:0:0:
495,254,64880,1,0,0:0:0:0:
444,315,65030,2,0,P|368:329|292:276,1,160
348,144,65480,2,0,P|354:183|348:223,1,80,2|0,0:0|2:0,0:0:0:0:
259,183,65780,2,0,P|253:144|259:104,1,80,0|0,0:0|2:0,0:0:0:0:
330,65,66080,1,2,0:0:0:0:
181,125,66380,6,0,L|10:111,1,160,4|2,0:0|0:0,0:0:0:0:
50,36,66830,1,0,0:0:0:0:
60,182,66980,2,0,P|65:224|54:267,2,80,0|0|2,0:0|0:0|0:0,0:0:0:0:
134,210,67430,2,0,P|214:218|273:160,1,160
252,89,67880,2,0,P|216:105|193:139,1,80,2|0,0:0|0:0,0:0:0:0:
324,113,68180,2,0,P|291:90|250:89,1,80,0|0,0:0|0:0,0:0:0:0:
341,188,68480,2,0,P|341:147|324:113,1,80,2|0,0:0|0:0,0:0:0:0:
381,56,68780,6,0,P|416:130|416:221,1,160,0|2,0:0|0:0,0:0:0:0:
364,264,69230,2,0,P|297:255|264:170,1,160
341,188,69680,1,2,0:0:0:0:
183,293,69980,1,0,0:0:0:0:
78,134,70280,1,2,0:0:0:0:
236,29,70580,1,0,0:0:0:0:
78,55,70880,1,2,0:0:0:0:
9,95,71030,1,0,0:0:0:0:
78,134,71180,5,6,0:0:0:0:
106,162,71255,1,0,0:0:0:0:
112,201,71330,1,0,0:0:0:0:
100,239,71405,1,0,0:0:0:0:
65,259,71480,2,0,P|44:266|19:262,1,40
109,311,71630,5,2,0:0:0:0:
142,289,71705,1,0,0:0:0:0:
181,288,71780,1,0,0:0:0:0:
218,302,71855,1,0,0:0:0:0:
243,333,71930,2,0,P|250:355|250:372,1,40
297,291,72080,5,2,0:0:0:0:
318,257,72155,1,0,0:0:0:0:
354,240,72230,2,0,P|378:242|399:252,1,40
486,196,72380,6,0,P|472:203|448:205,3,40,2|0|0|0,0:0|0:0|0:0|0:0,0:0:0:0:
375,169,72680,2,0,P|393:154|408:148,3,40,2|0|0|0,0:0|0:0|0:0|0:0,0:0:0:0:
436,46,72980,2,0,P|429:60|414:78,3,40,2|0|0|0,0:0|0:0|0:0|0:0,0:0:0:0:
307,74,73280,2,0,P|321:68|346:66,2,40,2|0|0,0:0|0:0|0:0,0:0:0:0:
240,119,73580,5,4,0:0:0:0:
162,148,73730,1,0,0:0:0:0:
110,213,73880,1,0,0:0:0:0:
162,148,74030,1,0,0:0:0:0:
80,135,74180,1,8,0:0:0:0:
110,213,74330,1,0,0:0:0:0:
240,119,74480,2,0,P|215:84|173:67,1,80,2|0,0:0|0:0,0:0:0:0:
110,213,74780,2,0,P|135:248|175:266,1,80,2|0,0:0|0:0,0:0:0:0:
303,205,75080,2,0,P|261:198|227:210,1,80,0|0,0:0|0:0,0:0:0:0:
278,363,75380,2,0,P|320:370|361:354,1,80,0|0,0:0|0:0,0:0:0:0:
433,225,75680,2,0,P|398:250|383:283,1,80,0|0,0:0|0:0,0:0:0:0:
476,158,75980,5,0,0:0:0:0:
483,126,76055,1,0,0:0:0:0:
470,96,76130,1,0,0:0:0:0:
443,78,76205,1,0,0:0:0:0:
411,73,76280,2,0,P|389:74|367:78,3,40,2|0|0|0,0:0|0:0|0:0|0:0,0:0:0:0:
346,97,76580,5,10,0:0:0:0:
316,110,76655,1,0,0:0:0:0:
284,107,76730,1,0,0:0:0:0:
259,87,76805,1,0,0:0:0:0:
253,55,76880,2,0,P|253:36|258:16,3,40,2|0|0|0,0:0|0:0|0:0|0:0,0:0:0:0:
223,67,77180,5,2,0:0:0:0:
193,78,77255,1,0,0:0:0:0:
179,106,77330,1,0,0:0:0:0:
179,137,77405,1,0,0:0:0:0:
190,166,77480,2,0,P|203:182|221:192,3,40,2|0|0|0,0:0|0:0|0:0|0:0,0:0:0:0:
234,219,77780,5,2,0:0:0:0:
241,250,77855,1,0,0:0:0:0:
233,281,77930,1,0,0:0:0:0:
209,303,78005,1,0,0:0:0:0:
177,306,78080,2,0,P|157:305|134:297,3,40,2|0|0|0,0:0|0:0|0:0|0:0,0:0:0:0:
100,242,78380,5,6,0:0:0:0:
83,163,78530,1,0,0:0:0:0:
110,87,78680,1,0,0:0:0:0:
181,50,78830,1,0,0:0:0:0:
256,132,78980,5,10,0:0:0:0:
334,146,79130,1,0,0:0:0:0:
409,119,79280,1,0,0:0:0:0:
440,45,79430,1,0,0:0:0:0:
507,135,79580,5,2,0:0:0:0:
467,204,79730,1,0,0:0:0:0:
461,283,79880,1,2,0:0:0:0:
487,358,80030,1,0,0:0:0:0:
408,343,80180,1,10,0:0:0:0:
461,283,80330,1,0,0:0:0:0:
487,358,80480,1,2,0:0:0:0:
408,343,80630,1,0,0:0:0:0:
338,219,80780,5,2,0:0:0:0:
320,183,80855,1,0,0:0:0:0:
319,143,80930,1,0,0:0:0:0:
331,104,81005,1,0,0:0:0:0:
366,84,81080,2,0,P|385:78|404:77,1,40,2|0,0:0|0:0,0:0:0:0:
254,85,81230,5,2,0:0:0:0:
231,52,81305,1,0,0:0:0:0:
193,37,81380,1,0,0:0:0:0:
153,35,81455,1,0,0:0:0:0:
114,47,81530,2,0,P|90:60|77:76,1,40,2|0,0:0|0:0,0:0:0:0:
157,153,81680,5,2,0:0:0:0:
182,183,81755,1,0,0:0:0:0:
186,222,81830,1,0,0:0:0:0:
179,261,81905,1,0,0:0:0:0:
154,292,81980,2,0,P|136:308|118:317,3,40,2|0|0|0,0:0|0:0|0:0|0:0,0:0:0:0:
227,326,82280,2,0,P|225:350|220:365,3,40,2|0|0|0,0:0|0:0|0:0|0:0,0:0:0:0:
304,303,82580,2,0,P|320:321|329:339,3,40,2|0|0|0,0:0|0:0|0:0|0:0,0:0:0:0:
338,230,82880,2,0,P|362:231|377:236,3,40,2|0|0|0,0:0|0:0|0:0|0:0,0:0:0:0:
441,211,83180,6,0,L|455:130,1,80,6|0,0:0|0:0,0:0:0:0:
397,75,83480,1,0,0:0:0:0:
322,103,83630,2,2,P|252:117|167:90,1,160,2|0,0:0|0:0,0:0:0:0:
101,133,84080,2,0,L|108:229,1,80,2|0,0:0|0:0,0:0:0:0:
210,316,84380,2,0,L|216:237,2,80,2|0|0,0:0|0:0|0:0,0:0:0:0:
320,124,84830,2,0,L|326:204,2,80,2|0|0,0:0|0:0|0:0,0:0:0:0:
424,224,85280,2,0,L|418:303,1,80,2|0,0:0|0:0,0:0:0:0:
347,343,85580,6,2,P|274:346|208:277,1,160,6|0,0:0|0:0,0:0:0:0:
138,320,86030,2,2,P|191:270|189:175,1,160,2|0,0:0|0:0,0:0:0:0:
126,145,86480,2,0,L|44:138,1,80,2|0,0:0|0:0,0:0:0:0:
198,107,86780,2,0,L|280:100,2,80,2|0|2,0:0|0:0|0:0,0:0:0:0:
129,65,87230,1,0,0:0:0:0:
340,49,87380,2,0,P|358:93|351:130,1,80,2|0,0:0|0:0,0:0:0:0:
352,277,87680,2,0,P|334:233|339:202,1,80,2|0,0:0|0:0,0:0:0:0:
265,263,87980,6,2,P|183:270|117:204,1,160,6|0,0:0|0:0,0:0:0:0:
56,264,88430,2,2,P|118:210|118:117,1,160,2|0,0:0|0:0,0:0:0:0:
69,81,88880,2,0,P|48:118|49:160,1,80,2|0,0:0|0:0,0:0:0:0:
147,59,89180,2,0,P|127:23|94:4,2,80,2|0|0,0:0|0:0|0:0,0:0:0:0:
203,116,89630,2,2,P|283:132|353:78,1,160,2|0,0:0|0:0,0:0:0:0:
340,11,90080,2,0,P|298:23|270:56,1,80,2|0,0:0|0:0,0:0:0:0:
371,166,90380,5,6,0:0:0:0:
409,235,90530,1,0,0:0:0:0:
451,167,90680,1,0,0:0:0:0:
371,166,90830,1,0,0:0:0:0:
259,276,90980,1,2,0:0:0:0:
326,316,91130,1,0,0:0:0:0:
326,236,91280,1,0,0:0:0:0:
259,276,91430,1,0,0:0:0:0:
451,167,91580,5,6,0:0:0:0:
464,129,91655,1,0,0:0:0:0:
454,90,91730,1,0,0:0:0:0:
423,64,91805,1,0,0:0:0:0:
383,59,91880,2,0,P|362:63|342:71,3,40,2|0|0|0,0:0|0:0|0:0|0:0,0:0:0:0:
317,99,92180,5,6,0:0:0:0:
282,119,92255,1,0,0:0:0:0:
242,118,92330,1,0,0:0:0:0:
212,91,92405,1,0,0:0:0:0:
199,53,92480,2,0,P|201:34|212:15,3,40,2|0|0|0,0:0|0:0|0:0|0:0,0:0:0:0:
267,54,92780,6,2,P|234:112|142:90,1,160,6|0,0:0|0:0,0:0:0:0:
0,262,93230,2,2,P|42:200|116:215,1,160,2|0,0:0|0:0,0:0:0:0:
178,266,93680,2,0,P|199:300|206:341,1,80,2|0,0:0|0:0,0:0:0:0:
282,259,93980,2,0,P|294:216|321:176,2,80,2|0|0,0:0|0:0|0:0,0:0:0:0:
450,207,94430,2,0,P|411:229|377:238,2,80,2|0|0,0:0|0:0|0:0,0:0:0:0:
408,119,94880,2,0,P|412:75|430:37,1,80,2|0,0:0|0:0,0:0:0:0:
332,56,95180,6,2,P|273:71|181:18,1,160,6|0,0:0|0:0,0:0:0:0:
123,75,95630,2,2,P|165:159|150:218,1,160,2|0,0:0|0:0,0:0:0:0:
78,254,96080,1,2,0:0:0:0:
83,174,96230,1,0,0:0:0:0:
149,219,96380,2,2,P|208:234|292:191,1,160,2|0,0:0|0:0,0:0:0:0:
320,115,96830,1,0,0:0:0:0:
286,42,96980,1,0,0:0:0:0:
240,107,97130,1,0,0:0:0:0:
320,115,97280,2,0,L|407:105,1,80,2|0,0:0|0:0,0:0:0:0:
468,172,97580,6,2,P|427:225|450:319,1,160,6|0,0:0|0:0,0:0:0:0:
495,372,98030,2,2,P|442:331|355:347,1,160,2|0,0:0|0:0,0:0:0:0:
298,290,98480,2,0,L|288:200,1,80,2|0,0:0|0:0,0:0:0:0:
381,84,98780,2,0,L|373:164,2,80,2|0|0,0:0|0:0|0:0,0:0:0:0:
332,20,99230,1,0,0:0:0:0:
243,77,99380,2,2,P|180:87|120:17,2,160,2|2|6,0:0|0:0|0:0,0:0:0:0:
199,10,100130,1,0,0:0:0:0:
168,83,100280,1,2,0:0:0:0:
243,77,100430,2,2,P|306:67|366:137,1,160
439,102,100880,2,2,P|387:139|376:230,1,160,2|6,0:0|0:0,0:0:0:0:
430,289,101330,5,0,0:0:0:0:
455,213,101480,1,0,0:0:0:0:
376,230,101630,1,0,0:0:0:0:
291,362,101780,1,2,0:0:0:0:
351,309,101930,1,0,0:0:0:0:
274,284,102080,1,0,0:0:0:0:
291,362,102230,1,0,0:0:0:0:
376,230,102380,6,0,P|356:193|316:175,1,80,6|0,0:0|0:0,0:0:0:0:
243,168,102680,1,0,0:0:0:0:
153,103,102830,2,2,P|215:59|294:69,1,160,2|0,0:0|0:0,0:0:0:0:
164,182,103280,2,0,P|122:176|87:148,1,80,2|0,0:0|0:0,0:0:0:0:
243,168,103580,2,2,P|313:195|347:274,1,160,2|2,0:0|0:0,0:0:0:0:
217,243,104030,2,2,P|166:184|193:106,1,160,2|0,0:0|0:0,0:0:0:0:
264,90,104480,2,0,P|303:111|321:148,1,80,2|0,0:0|0:0,0:0:0:0:
217,243,104780,5,2,0:0:0:0:
184,266,104855,1,0,0:0:0:0:
144,263,104930,1,0,0:0:0:0:
114,235,105005,1,0,0:0:0:0:
107,195,105080,1,0,0:0:0:0:
123,158,105155,1,0,0:0:0:0:
159,141,105230,2,0,P|190:135|212:142,5,40,2|0|0|0|0|0,0:0|0:0|0:0|0:0|0:0|0:0,0:0:0:0:
234,152,105680,1,2,0:0:0:0:
273,159,105755,1,0,0:0:0:0:
311,145,105830,2,0,P|323:132|331:111,1,40
376,63,105980,5,2,0:0:0:0:
409,40,106055,1,0,0:0:0:0:
449,43,106130,1,0,0:0:0:0:
479,71,106205,1,0,0:0:0:0:
486,111,106280,1,0,0:0:0:0:
470,148,106355,1,0,0:0:0:0:
434,165,106430,2,0,P|403:171|381:164,5,40,2|0|0|0|0|0,0:0|0:0|0:0|0:0|0:0|0:0,0:0:0:0:
359,154,106880,1,2,0:0:0:0:
320,147,106955,1,0,0:0:0:0:
282,161,107030,2,0,P|270:174|262:195,1,40
298,254,107180,6,2,P|221:253|193:182,1,160,6|0,0:0|0:0,0:0:0:0:
226,111,107630,2,2,P|197:42|120:41,1,160,2|0,0:0|0:0,0:0:0:0:
63,97,108080,2,0,L|73:189,1,80,2|0,0:0|0:0,0:0:0:0:
14,231,108380,5,2,0:0:0:0:
41,246,108455,1,0,0:0:0:0:
60,271,108530,1,0,0:0:0:0:
68,301,108605,1,0,0:0:0:0:
65,332,108680,2,0,P|63:352|56:375,1,40,2|0,0:0|0:0,0:0:0:0:
133,328,108830,5,2,0:0:0:0:
128,296,108905,1,0,0:0:0:0:
133,264,108980,1,0,0:0:0:0:
151,237,109055,1,0,0:0:0:0:
177,219,109130,1,0,0:0:0:0:
208,216,109205,1,0,0:0:0:0:
238,226,109280,2,0,P|256:238|270:254,3,40,2|0|0|0,0:0|0:0|0:0|0:0,0:0:0:0:
334,270,109580,6,2,P|395:269|372:61,2,320,6|2|6,0:0|0:0|0:0,0:0:0:0:
101,161,111380,1,0,0:0:0:0:
405,69,111980,6,0,P|442:96|460:125,1,80,6|0,0:0|0:0,0:0:0:0:
369,158,112280,2,0,P|332:131|314:102,1,80,0|0,0:0|0:0,0:0:0:0:
442,219,112580,2,0,P|412:244|359:252,2,80,2|0|2,0:0|0:0|0:0,0:0:0:0:
369,158,113030,1,0,0:0:0:0:
280,195,113180,2,2,P|203:190|163:119,1,160,2|0,0:0|0:0,0:0:0:0:
82,122,113630,2,2,P|159:117|199:46,1,160,2|0,0:0|0:0,0:0:0:0:
116,46,114080,1,2,0:0:0:0:
82,122,114230,1,0,0:0:0:0:
161,115,114380,6,2,P|241:132|281:200,1,160,0|0,0:0|0:0,0:0:0:0:
227,256,114830,2,2,P|237:130|422:77,1,320,2|0,0:0|0:0,0:0:0:0:
455,126,115580,1,0,0:0:0:0:
455,126,115730,1,2,0:0:0:0:
432,202,115880,1,2,0:0:0:0:
377,144,116030,1,0,0:0:0:0:
401,68,116180,2,0,P|438:50|483:51,1,80,2|0,0:0|0:0,0:0:0:0:
377,144,116480,1,0,0:0:0:0:
322,87,116630,1,2,0:0:0:0:
245,64,116780,6,2,P|165:81|125:152,1,160,6|0,0:0|0:0,0:0:0:0:
44,136,117230,2,2,P|124:153|164:224,1,160,2|0,0:0|0:0,0:0:0:0:
145,293,117680,1,2,0:0:0:0:
319,211,117980,2,2,P|393:234|462:174,1,160
437,74,118430,2,2,P|363:51|294:111,1,160
377,143,118880,1,0,0:0:0:0:
437,74,119030,1,0,0:0:0:0:
348,55,119180,5,2,0:0:0:0:
377,143,119330,1,0,0:0:0:0:
193,269,119630,2,2,P|97:302|163:183,1,320,2|0,0:0|0:0,0:0:0:0:
251,193,120380,5,6,0:0:0:0:
287,208,120455,1,0,0:0:0:0:
326,209,120530,1,0,0:0:0:0:
362,192,120605,1,0,0:0:0:0:
391,164,120680,1,2,0:0:0:0:
403,125,120755,1,0,0:0:0:0:
398,85,120830,1,0,0:0:0:0:
369,57,120905,1,0,0:0:0:0:
329,51,120980,1,2,0:0:0:0:
300,79,121055,1,0,0:0:0:0:
298,118,121130,1,0,0:0:0:0:
317,153,121205,1,0,0:0:0:0:
343,182,121280,1,2,0:0:0:0:
351,221,121355,1,0,0:0:0:0:
347,260,121430,1,0,0:0:0:0:
323,292,121505,1,0,0:0:0:0:
285,304,121580,6,0,P|237:305|196:295,1,80,6|0,0:0|0:0,0:0:0:0:
152,238,121880,1,0,0:0:0:0:
43,207,122030,2,0,P|86:187|119:161,1,80,2|0,0:0|0:0,0:0:0:0:
135,90,122330,1,0,0:0:0:0:
18,41,122480,2,2,P|37:84|56:110,1,80,0|2,0:0|0:0,0:0:0:0:
266,37,122780,6,0,P|240:31|188:30,1,80,6|0,0:0|0:0,0:0:0:0:
135,90,123080,1,0,0:0:0:0:
242,131,123230,2,0,P|265:145|303:181,1,80,2|0,0:0|0:0,0:0:0:0:
298,262,123530,1,0,0:0:0:0:
171,268,123680,2,2,P|195:239|231:217,1,80,2|2,0:0|0:0,0:0:0:0:
139,186,123980,6,0,P|100:196|46:189,2,80,6|0|0,0:0|0:0|0:0,0:0:0:0:
202,87,124430,2,0,P|174:58|153:8,1,80,2|0,0:0|0:0,0:0:0:0:
319,93,124730,2,0,P|330:54|363:11,1,80,2|0,0:0|0:0,0:0:0:0:
373,198,125030,2,0,P|412:187|466:195,1,80,2|0,0:0|0:0,0:0:0:0:
309,296,125330,2,0,P|337:325|358:375,1,80,2|0,0:0|0:0,0:0:0:0:
192,290,125630,2,0,P|181:329|148:372,1,80,2|0,0:0|0:0,0:0:0:0:
139,185,125930,2,0,P|99:196|46:188,2,80,0|2|0,0:0|0:0|0:0,0:0:0:0:
237,211,126380,5,6,0:0:0:0:
259,188,126455,1,0,0:0:0:0:
269,157,126530,1,0,0:0:0:0:
269,125,126605,1,0,0:0:0:0:
262,93,126680,2,0,P|248:76|231:66,1,40,2|0,0:0|0:0,0:0:0:0:
177,106,126830,5,0,0:0:0:0:
154,128,126905,1,0,0:0:0:0:
123,138,126980,1,0,0:0:0:0:
91,138,127055,1,0,0:0:0:0:
59,131,127130,2,0,P|42:117|32:100,1,40,2|0,0:0|0:0,0:0:0:0:
89,63,127280,5,2,0:0:0:0:
112,41,127355,1,0,0:0:0:0:
143,31,127430,1,0,0:0:0:0:
175,31,127505,1,0,0:0:0:0:
207,38,127580,2,0,P|224:52|234:69,1,40,2|0,0:0|0:0,0:0:0:0:
198,126,127730,5,0,0:0:0:0:
170,154,127805,1,0,0:0:0:0:
158,193,127880,1,0,0:0:0:0:
158,233,127955,1,0,0:0:0:0:
166,273,128030,2,0,P|183:294|204:306,1,40,2|0,0:0|0:0,0:0:0:0:
233,357,128180,5,0,0:0:0:0:
261,329,128255,1,0,0:0:0:0:
300,317,128330,1,0,0:0:0:0:
340,317,128405,1,0,0:0:0:0:
380,325,128480,2,0,P|401:342|413:363,3,40,2|0|0|0,0:0|0:0|0:0|0:0,0:0:0:0:
401,259,128780,5,4,0:0:0:0:
429,184,128930,2,0,P|376:131|287:159,1,160,4|2,0:0|0:0,0:0:0:0:
189,337,129380,5,4,0:0:0:0:
264,365,129530,2,0,P|317:312|289:223,1,160,4|2,0:0|0:0,0:0:0:0:
111,125,129980,5,4,0:0:0:0:
83,200,130130,2,0,P|136:253|225:225,1,160,4|2,0:0|0:0,0:0:0:0:
323,47,130580,5,4,0:0:0:0:
248,19,130730,2,0,P|195:72|223:161,1,160,4|2,0:0|0:0,0:0:0:0:
298,146,131180,6,0,P|321:145|338:132,9,40,0|2|0|2|0|2|0|2|0|2,0:0|0:1|0:0|0:1|0:0|0:1|0:0|0:1|0:0|0:1,0:0:0:0:
362,56,132680,5,4,0:0:0:0:
392,298,132980,1,4,0:0:0:0:
150,328,133280,1,4,0:0:0:0:
120,86,133580,6,0,P|123:46|147:10,2,80,6|0|0,0:0|0:0|0:0,0:0:0:0:
199,72,134030,2,0,P|176:144|100:165,1,160,2|0,0:0|0:0,0:0:0:0:
43,109,134480,1,0,0:0:0:0:
119,86,134630,1,0,0:0:0:0:
100,165,134780,2,0,P|62:188|20:185,1,80,2|0,0:0|0:0,0:0:0:0:
62,29,135080,2,0,P|100:6|142:9,1,80,2|0,0:0|0:0,0:0:0:0:
177,144,135380,2,0,P|177:189|152:226,2,80,0|0|2,0:0|0:0|0:0,0:0:0:0:
119,86,135830,1,0,0:0:0:0:
199,67,135980,6,2,P|275:83|333:23,1,160,6|0,0:0|0:0,0:0:0:0:
505,137,136430,2,2,P|431:159|407:232,1,160,2|2,0:0|0:0,0:0:0:0:
366,300,136880,2,0,P|327:312|281:297,1,80
252,232,137180,2,0,P|289:222|328:234,1,80,2|0,0:0|0:0,0:0:0:0:
174,252,137480,2,0,P|137:232|116:189,1,80,2|0,0:0|0:0,0:0:0:0:
141,123,137780,2,0,P|173:142|192:178,2,80,0|0|2,0:0|0:0|0:0,0:0:0:0:
62,142,138230,1,0,0:0:0:0:
40,219,138380,6,2,P|66:293|152:326,1,160,6|0,0:0|0:0,0:0:0:0:
174,252,138830,2,2,P|250:229|326:250,1,160,2|0,0:0|0:0,0:0:0:0:
397,213,139280,2,0,L|403:132,1,80,2|0,0:0|0:0,0:0:0:0:
450,68,139580,2,2,P|374:47|295:71,1,160,2|0,0:0|0:0,0:0:0:0:
229,26,140030,2,2,P|169:78|91:91,1,160,2|0,0:0|0:0,0:0:0:0:
41,153,140480,2,0,L|46:232,1,80,2|0,0:0|0:0,0:0:0:0:
103,289,140780,5,6,0:0:0:0:
137,309,140855,1,0,0:0:0:0:
176,309,140930,1,0,0:0:0:0:
213,295,141005,1,0,0:0:0:0:
234,261,141080,2,0,P|243:244|245:215,1,40,2|0,0:0|0:0,0:0:0:0:
186,190,141230,1,2,0:0:0:0:
166,154,141305,1,0,0:0:0:0:
166,116,141380,1,0,0:0:0:0:
180,79,141455,1,0,0:0:0:0:
213,58,141530,2,0,P|230:49|259:47,1,40,2|0,0:0|0:0,0:0:0:0:
295,97,141680,1,2,0:0:0:0:
330,77,141755,1,0,0:0:0:0:
370,77,141830,1,0,0:0:0:0:
404,97,141905,1,0,0:0:0:0:
418,134,141980,6,0,P|421:156|412:182,1,40,2|0,0:0|0:0,0:0:0:0:
357,249,142130,2,0,P|353:233|354:210,1,40,2|0,0:0|0:0,0:0:0:0:
414,289,142280,2,0,P|397:307|383:314,1,40,0|0,0:0|0:0,0:0:0:0:
286,346,142430,2,0,P|294:333|314:318,1,40,2|0,0:0|0:0,0:0:0:0:
276,260,142580,1,2,0:0:0:0:
244,234,142655,1,0,0:0:0:0:
204,229,142730,1,2,0:0:0:0:
167,246,142805,1,0,0:0:0:0:
145,280,142880,2,0,P|141:303|143:328,3,40,0|0|2|0,0:0|0:0|0:0|0:0,0:0:0:0:
44,367,143180,6,0,P|18:333|-12:308,2,80,6|0|0,0:0|0:0|0:0,0:0:0:0:
45,252,143630,2,0,P|36:214|43:162,2,80,2|0|0,0:0|0:0|0:0,0:0:0:0:
115,164,144080,2,0,P|143:134|179:117,1,80,2|0,0:0|0:0,0:0:0:0:
330,137,144380,2,0,P|302:167|268:184,1,80,0|0,0:0|0:0,0:0:0:0:
308,37,144680,2,0,P|349:35|386:49,1,80,2|0,0:0|0:0,0:0:0:0:
479,170,144980,2,0,P|437:171|401:158,2,80,0|2|0,0:0|0:0|0:0,0:0:0:0:
497,91,145430,1,0,0:0:0:0:
330,137,145580,6,0,P|328:177|349:211,2,80,2|0|0,0:0|0:0|0:0,0:0:0:0:
247,212,146030,2,0,P|236:250|201:285,2,80,2|0|0,0:0|0:0|0:0,0:0:0:0:
249,131,146480,2,0,P|212:109|165:104,1,80,2|0,0:0|0:0,0:0:0:0:
37,177,146780,2,0,P|74:155|111:150,1,80,0|0,0:0|0:0,0:0:0:0:
136,260,147080,2,0,P|99:282|62:287,1,80,2|0,0:0|0:0,0:0:0:0:
32,97,147380,2,0,P|82:82|116:80,1,80,0|2,0:0|0:0,0:0:0:0:
143,339,147680,2,0,P|92:355|58:357,1,80,2|2,0:0|0:0,0:0:0:0:
209,296,147980,6,0,L|225:258,2,40,2|0|0,0:0|0:0|0:0,0:0:0:0:
270,347,148280,1,0,0:0:0:0:
327,250,148430,2,0,L|322:204,2,40,2|0|0,0:0|0:0|0:0,0:0:0:0:
401,281,148730,1,0,0:0:0:0:
482,205,148880,2,0,P|486:160|481:124,1,80,2|0,0:0|0:0,0:0:0:0:
383,70,149180,2,0,P|379:115|384:151,1,80,2|0,0:0|0:0,0:0:0:0:
274,178,149480,2,0,P|278:133|273:97,1,80,2|0,0:0|0:0,0:0:0:0:
175,45,149780,2,0,P|171:90|176:126,1,80,2|0,0:0|0:0,0:0:0:0:
273,98,150080,1,0,0:0:0:0:
273,98,150155,1,0,0:0:0:0:
273,98,150230,1,2,0:0:0:0:
341,138,150380,5,6,0:0:0:0:
365,169,150455,1,0,0:0:0:0:
373,208,150530,1,0,0:0:0:0:
367,247,150605,1,0,0:0:0:0:
352,284,150680,2,0,P|342:306|338:325,1,40,2|0,0:0|0:0,0:0:0:0:
256,359,150830,2,0,P|265:341|270:322,1,40,2|0,0:0|0:0,0:0:0:0:
359,355,150980,1,0,0:0:0:0:
397,367,151055,1,0,0:0:0:0:
436,361,151130,1,2,0:0:0:0:
463,331,151205,1,0,0:0:0:0:
459,291,151280,2,0,P|456:270|448:252,3,40,2|0|0|0,0:0|0:0|0:0|0:0,0:0:0:0:
461,223,151580,5,2,0:0:0:0:
447,194,151655,1,0,0:0:0:0:
446,162,151730,1,0,0:0:0:0:
458,132,151805,1,0,0:0:0:0:
479,108,151880,2,0,P|497:96|519:91,3,40,2|0|0|0,0:0|0:0|0:0|0:0,0:0:0:0:
454,87,152180,1,2,0:0:0:0:
422,80,152255,1,0,0:0:0:0:
390,81,152330,1,0,0:0:0:0:
360,94,152405,1,0,0:0:0:0:
333,112,152480,1,2,0:0:0:0:
303,125,152555,1,0,0:0:0:0:
271,126,152630,1,0,0:0:0:0:
240,117,152705,1,0,0:0:0:0:
217,95,152780,5,6,0:0:0:0:
287,7,152930,1,6,0:0:0:0:
323,215,153980,5,6,0:0:0:0:
305,325,154130,1,6,0:0:0:0:
83,320,155180,5,6,0:0:0:0:
62,285,155255,1,0,0:0:0:0:
58,245,155330,1,0,0:0:0:0:
68,206,155405,1,0,0:0:0:0:
94,175,155480,2,0,P|117:163|150:158,1,40,2|0,0:0|0:0,0:0:0:0:
194,184,155630,1,2,0:0:0:0:
215,149,155705,1,0,0:0:0:0:
219,109,155780,1,0,0:0:0:0:
209,70,155855,1,0,0:0:0:0:
183,39,155930,1,0,0:0:0:0:
144,29,156005,1,0,0:0:0:0:
104,35,156080,2,0,P|81:41|57:57,3,40,2|0|0|0,0:0|0:0|0:0|0:0,0:0:0:0:
56,117,156380,5,6,0:0:0:0:
71,153,156455,1,0,0:0:0:0:
103,177,156530,1,0,0:0:0:0:
142,181,156605,1,0,0:0:0:0:
181,172,156680,1,0,0:0:0:0:
215,149,156755,1,0,0:0:0:0:
252,136,156830,1,0,0:0:0:0:
291,141,156905,1,0,0:0:0:0:
327,158,156980,1,2,0:0:0:0:
348,191,157055,1,0,0:0:0:0:
349,230,157130,1,0,0:0:0:0:
329,264,157205,1,0,0:0:0:0:
291,278,157280,1,2,0:0:0:0:
252,268,157355,1,0,0:0:0:0:
227,236,157430,2,0,P|221:215|221:190,1,40
252,136,157580,5,6,0:0:0:0:
335,60,157730,1,6,0:0:0:0:
443,262,158780,5,6,0:0:0:0:
400,157,158930,1,6,0:0:0:0:
216,289,159980,6,2,P|141:299|107:232,1,160,6|2,0:0|0:0,0:0:0:0:
151,166,160430,1,0,0:0:0:0:
229,151,160580,1,0,0:0:0:0:
304,176,160730,1,0,0:0:0:0:
359,234,160880,1,0,0:0:0:0:
281,253,161030,1,0,0:0:0:0:
304,176,161180,5,4,0:0:0:0:
304,176,161255,1,0,0:0:0:0:
304,176,161330,1,0,0:0:0:0:
397,113,161480,1,6,0:0:0:0:
188,190,161780,5,4,0:0:0:0:
188,190,161855,1,0,0:0:0:0:
188,190,161930,1,0,0:0:0:0:
281,253,162080,1,6,0:0:0:0:
232,35,162380,6,2,P|166:37|122:114,1,160,6|0,0:0|0:0,0:0:0:0:
90,185,162830,2,2,P|156:183|201:109,1,160,2|0,0:0|0:0,0:0:0:0:
157,42,163280,2,0,P|115:33|67:58,1,80,2|0,0:0|0:0,0:0:0:0:
26,145,163580,2,2,P|30:228|92:261,1,160,6|0,0:0|0:0,0:0:0:0:
206,119,164030,2,2,P|123:123|90:185,1,160,2|0,0:0|0:0,0:0:0:0:
159,224,164480,2,0,P|199:227|222:190,1,80,2|0,0:0|0:0,0:0:0:0:
206,118,164780,2,2,P|246:53|322:52,1,160,6|0,0:0|0:0,0:0:0:0:
338,132,165230,2,2,P|298:197|222:198,1,160,2|0,0:0|0:0,0:0:0:0:
147,169,165680,2,0,P|132:135|135:93,1,80,2|0,0:0|0:0,0:0:0:0:
206,119,165980,6,2,P|217:203|156:245,1,160,6|0,0:0|0:0,0:0:0:0:
89,221,166430,1,0,0:0:0:0:
147,169,166580,1,2,0:0:0:0:
163,243,166730,1,0,0:0:0:0:
106,300,166880,1,0,0:0:0:0:
89,221,167030,1,0,0:0:0:0:
147,169,167180,6,2,P|219:190|231:284,1,160,6|0,0:0|0:0,0:0:0:0:
164,245,167630,2,2,P|93:225|77:133,1,160,2|0,0:0|0:0,0:0:0:0:
128,94,168080,2,0,P|146:129|147:168,1,80
51,73,168380,2,2,P|74:35|120:15,1,80,6|0,0:0|0:0,0:0:0:0:
182,35,168680,1,0,0:0:0:0:
182,35,168755,1,0,0:0:0:0:
182,35,168830,2,2,P|221:96|226:190,1,160,2|0,0:0|0:0,0:0:0:0:
227,181,169205,1,0,0:0:0:0:
227,181,169280,1,2,0:0:0:0:
291,229,169430,1,0,0:0:0:0:
291,229,169505,1,0,0:0:0:0:
291,229,169580,5,6,0:0:0:0:
315,249,169655,1,0,0:0:0:0:
346,254,169730,1,0,0:0:0:0:
377,248,169805,1,0,0:0:0:0:
399,224,169880,2,0,P|405:206|407:183,1,40
372,127,170030,1,2,0:0:0:0:
365,95,170105,1,0,0:0:0:0:
371,63,170180,1,0,0:0:0:0:
393,39,170255,1,0,0:0:0:0:
424,34,170330,2,0,P|444:34|464:42,1,40
494,101,170480,1,2,0:0:0:0:
503,131,170555,1,0,0:0:0:0:
499,162,170630,2,0,P|495:183|484:198,1,40
505,262,170780,5,2,0:0:0:0:
474,271,170855,1,0,0:0:0:0:
449,291,170930,1,0,0:0:0:0:
434,319,171005,1,0,0:0:0:0:
428,350,171080,2,0,P|436:372|449:385,1,40
364,383,171230,2,0,P|356:361|343:348,1,40,2|0,0:0|0:0,0:0:0:0:
333,283,171380,1,0,0:0:0:0:
305,268,171455,1,0,0:0:0:0:
274,262,171530,2,0,P|252:270|239:283,1,40
143,346,171680,6,0,L|203:350,1,60.0000022888184,2|2,0:0|0:0,0:0:0:0:
95,287,171980,6,0,P|57:274|11:280,2,80,6|0|0,0:0|0:0|0:0,0:0:0:0:
163,244,172430,2,0,P|206:201|190:84,1,160,2|0,0:0|0:0,0:0:0:0:
131,76,172880,2,0,L|45:84,1,80,2|0,0:0|0:0,0:0:0:0:
194,28,173180,2,0,L|273:35,2,80,2|0|0,0:0|0:0|0:0,0:0:0:0:
403,74,173630,2,2,P|361:78|326:97,2,80,2|0|0,0:0|0:0|0:0,0:0:0:0:
455,210,174080,2,0,L|459:131,1,80,2|0,0:0|0:0,0:0:0:0:
384,247,174380,6,2,P|319:264|241:222,1,160,6|0,0:0|0:0,0:0:0:0:
244,141,174830,2,2,P|309:124|387:166,1,160,2|0,0:0|0:0,0:0:0:0:
384,247,175280,2,0,P|377:285|387:324,1,80,2|0,0:0|0:0,0:0:0:0:
387,166,175580,2,0,P|394:128|384:89,1,80,2|0,0:0|0:0,0:0:0:0:
460,360,175880,2,0,P|467:322|457:283,1,80,2|0,0:0|0:0,0:0:0:0:
311,53,176180,2,2,P|304:91|314:130,2,80,2|0|2,0:0|0:0|0:0,0:0:0:0:
378,9,176630,1,0,0:0:0:0:
242,95,176780,6,2,P|160:108|100:47,1,160,6|0,0:0|0:0,0:0:0:0:
34,22,177230,2,2,P|101:70|100:156,1,160,2|0,0:0|0:0,0:0:0:0:
59,208,177680,2,0,P|21:226|-17:224,1,80,2|0,0:0|0:0,0:0:0:0:
27,133,177980,2,2,P|105:141|141:214,1,160,6|0,0:0|0:0,0:0:0:0:
100,277,178430,2,2,P|160:227|237:253,1,160,2|0,0:0|0:0,0:0:0:0:
282,312,178880,2,0,P|290:353|280:392,1,80,2|0,0:0|0:0,0:0:0:0:
312,236,179180,6,2,P|304:195|314:156,2,80,2|0|2,0:0|0:0|0:0,0:0:0:0:
360,299,179630,1,0,0:0:0:0:
388,119,179780,2,0,P|396:160|386:199,1,80,2|2,0:0|0:0,0:0:0:0:
319,77,180080,2,0,P|311:36|319:0,1,80,2|2,0:0|0:0,0:0:0:0:
390,38,180380,5,6,0:0:0:0:
429,47,180455,1,0,0:0:0:0:
456,75,180530,1,0,0:0:0:0:
468,113,180605,1,0,0:0:0:0:
464,152,180680,2,0,P|460:173|449:191,1,40
463,257,180830,1,6,0:0:0:0:
429,278,180905,1,0,0:0:0:0:
390,277,180980,1,0,0:0:0:0:
354,259,181055,1,0,0:0:0:0:
330,228,181130,2,0,P|317:210|313:189,1,40
266,141,181280,1,6,0:0:0:0:
232,120,181355,1,0,0:0:0:0:
193,121,181430,1,0,0:0:0:0:
157,139,181505,1,0,0:0:0:0:
133,170,181580,6,2,P|118:249|176:315,1,160,6|0,0:0|0:0,0:0:0:0:
194,382,182030,2,2,P|148:315|61:309,1,160,2|0,0:0|0:0,0:0:0:0:
17,248,182480,2,0,L|29:163,1,80,2|0,0:0|0:0,0:0:0:0:
95,125,182780,2,2,P|174:140|240:82,1,160,6|0,0:0|0:0,0:0:0:0:
307,64,183230,2,2,P|240:109|234:196,1,160,2|0,0:0|0:0,0:0:0:0:
281,244,183680,2,0,P|321:264|365:259,1,80,2|0,0:0|0:0,0:0:0:0:
463,144,183980,6,2,P|364:141|335:184,1,160,6|0,0:0|0:0,0:0:0:0:
356,262,184430,2,2,P|455:265|484:222,1,160,2|0,0:0|0:0,0:0:0:0:
463,144,184880,2,2,P|420:115|423:16,2,160
485,66,185630,1,0,0:0:0:0:
407,87,185780,1,0,0:0:0:0:
463,144,185930,1,0,0:0:0:0:
454,223,186080,2,0,P|426:257|362:257,1,80,2|0,0:0|0:0,0:0:0:0:
252,131,186380,6,2,P|317:124|385:192,1,160,6|0,0:0|0:0,0:0:0:0:
319,232,186830,2,2,P|253:238|187:178,1,160,2|0,0:0|0:0,0:0:0:0:
179,98,187280,2,0,P|203:66|246:51,1,80
252,131,187580,2,2,P|191:177|116:146,1,160,6|0,0:0|0:0,0:0:0:0:
102,70,188030,1,0,0:0:0:0:
179,98,188180,2,0,P|196:131|186:192,1,80,2|0,0:0|0:0,0:0:0:0:
103,225,188480,2,0,P|102:183|119:150,1,80,2|0,0:0|0:0,0:0:0:0:
180,252,188780,2,2,P|123:304|39:273,1,160,6|0,0:0|0:0,0:0:0:0:
103,225,189230,2,2,P|159:172|240:196,1,160,2|0,0:0|0:0,0:0:0:0:
260,268,189680,2,0,P|249:311|226:340,1,80,2|0,0:0|0:0,0:0:0:0:
233,189,189980,5,2,0:0:0:0:
314,206,190130,1,0,0:0:0:0:
260,268,190280,1,0,0:0:0:0:
332,125,190430,1,2,0:0:0:0:
393,179,190580,1,0,0:0:0:0:
315,206,190730,1,0,0:0:0:0:
449,118,190880,1,2,0:0:0:0:
474,195,191030,1,0,0:0:0:0:
393,179,191180,6,2,P|318:176|282:262,1,160,6|0,0:0|0:0,0:0:0:0:
328,305,191630,2,2,P|277:249|190:285,1,160,2|0,0:0|0:0,0:0:0:0:
210,349,192080,2,0,P|244:370|297:364,1,80,2|0,0:0|0:0,0:0:0:0:
137,317,192380,2,2,P|70:278|73:203,1,160,6|0,0:0|0:0,0:0:0:0:
139,157,192830,2,2,P|158:82|103:31,1,160,2|0,0:0|0:0,0:0:0:0:
23,40,193280,2,0,P|-8:68|-13:120,1,80,2|0,0:0|0:0,0:0:0:0:
21,174,193580,5,6,0:0:0:0:
57,190,193655,1,0,0:0:0:0:
81,221,193730,1,0,0:0:0:0:
90,259,193805,1,0,0:0:0:0:
90,298,193880,1,0,0:0:0:0:
73,334,193955,1,0,0:0:0:0:
39,356,194030,2,0,P|13:362|-2:360,5,40,2|0|0|0|0|0,0:0|0:0|0:0|0:0|0:0|0:0,0:0:0:0:
74,373,194480,1,2,0:0:0:0:
113,377,194555,1,0,0:0:0:0:
150,363,194630,2,0,P|166:350|179:329,1,40
244,323,194780,5,6,0:0:0:0:
229,286,194855,1,0,0:0:0:0:
234,247,194930,1,0,0:0:0:0:
255,214,195005,1,0,0:0:0:0:
287,191,195080,1,0,0:0:0:0:
325,181,195155,1,0,0:0:0:0:
363,190,195230,2,0,P|385:203|394:216,5,40,2|0|0|0|0|0,0:0|0:0|0:0|0:0|0:0|0:0,0:0:0:0:
351,153,195680,1,2,0:0:0:0:
326,123,195755,1,0,0:0:0:0:
290,107,195830,2,0,P|269:104|245:110,1,40
195,150,195980,6,2,P|146:159|76:72,1,160,6|0,0:0|0:0,0:0:0:0:
113,15,196430,2,2,P|162:6|232:93,1,160,2|0,0:0|0:0,0:0:0:0:
131,260,196880,2,0,P|118:300|139:348,1,80,2|0,0:0|0:0,0:0:0:0:
200,370,197180,2,2,P|257:363|288:266,1,160,6|0,0:0|0:0,0:0:0:0:
226,228,197630,2,2,P|233:171|330:140,1,160,2|0,0:0|0:0,0:0:0:0:
393,167,198080,1,2,0:0:0:0:
393,167,198155,1,0,0:0:0:0:
393,167,198230,1,0,0:0:0:0:
329,215,198380,5,2,0:0:0:0:
316,185,198455,1,0,0:0:0:0:
313,153,198530,1,0,0:0:0:0:
320,121,198605,1,0,0:0:0:0:
340,96,198680,2,0,P|358:85|378:81,1,40,2|0,0:0|0:0,0:0:0:0:
473,99,198830,2,0,P|455:110|437:114,1,40,2|0,0:0|0:0,0:0:0:0:
393,167,198980,1,2,0:0:0:0:
404,196,199055,1,0,0:0:0:0:
426,218,199130,2,0,P|447:229|465:234,1,40
472,301,199280,1,2,0:0:0:0:
441,295,199355,1,0,0:0:0:0:
411,303,199430,2,0,P|390:315|377:328,1,40
329,374,199580,5,4,2:3:0:0:
112,236,200180,5,0,0:0:0:0:
398,97,200780,6,0,P|365:76|318:73,1,80,6|0,0:0|0:0,0:0:0:0:
219,119,201080,2,0,P|252:140|292:145,1,80,0|0,0:0|0:0,0:0:0:0:
223,39,201380,2,0,P|166:58|147:150,1,160,2|0,0:0|0:0,0:0:0:0:
207,197,201830,1,0,0:0:0:0:
268,246,201980,2,0,P|248:335|191:354,1,160,2|0,0:0|0:0,0:0:0:0:
131,306,202430,2,0,P|150:216|207:197,1,160,2|0,0:0|0:0,0:0:0:0:
282,170,202880,2,0,P|316:157|339:110,1,80,2|0,0:0|0:0,0:0:0:0:
272,21,203180,2,2,P|257:55|268:96,2,80,2|2|0,0:0|0:0|0:0,0:0:0:0:
405,92,203630,2,0,P|413:136|392:182,1,80,2|0,0:0|0:0,0:0:0:0:
387,288,203930,2,0,P|413:251|444:236,2,80,2|0|0,0:0|0:0|0:0,0:0:0:0:
330,345,204380,6,2,P|267:356|208:282,1,160,2|0,0:0|0:0,0:0:0:0:
228,211,204830,1,0,0:0:0:0:
228,211,204905,1,0,0:0:0:0:
228,211,204980,1,2,0:0:0:0:
229,131,205130,1,0,0:0:0:0:
174,72,205280,1,0,0:0:0:0:
94,61,205430,1,2,0:0:0:0:
25,102,205580,6,2,P|8:136|12:183,2,80,6|0|0,0:0|0:0|0:0,0:0:0:0:
84,155,206030,2,2,P|104:220|34:298,1,160,2|2,0:0|0:0,0:0:0:0:
111,347,206480,2,0,L|198:339,1,80,2|0,0:0|0:0,0:0:0:0:
247,283,206780,2,2,P|314:297|364:222,1,160,2|0,0:0|0:0,0:0:0:0:
367,150,207230,2,2,P|417:83|484:97,1,160,2|0,0:0|0:0,0:0:0:0:
509,173,207680,2,0,P|497:219|445:239,1,80,2|0,0:0|0:0,0:0:0:0:
296,168,207980,2,0,P|330:145|387:166,2,80,2|2|0,0:0|0:0|0:0,0:0:0:0:
239,224,208430,2,2,P|167:233|123:157,1,160,2|0,0:0|0:0,0:0:0:0:
164,98,208880,2,2,P|119:32|47:41,1,160,2|6,0:0|0:0,0:0:0:0:
24,64,209255,5,0,0:0:0:0:
14,94,209330,1,0,0:0:0:0:
16,125,209405,1,0,0:0:0:0:
31,153,209480,2,0,P|45:165|65:175,3,40
95,182,209780,1,2,0:0:0:0:
121,199,209855,1,0,0:0:0:0:
133,228,209930,1,0,0:0:0:0:
133,259,210005,1,0,0:0:0:0:
121,288,210080,2,0,P|107:306|89:317,3,40
28,295,210380,5,6,0:0:0:0:
13,257,210455,1,0,0:0:0:0:
21,217,210530,1,0,0:0:0:0:
49,188,210605,1,0,0:0:0:0:
88,179,210680,2,0,P|105:186|121:199,1,40
174,243,210830,1,2,0:0:0:0:
211,257,210905,1,0,0:0:0:0:
250,250,210980,2,0,P|270:240|284:223,1,40
351,228,211130,1,2,0:0:0:0:
357,188,211205,1,0,0:0:0:0:
349,148,211280,2,0,P|344:130|330:112,3,40
264,108,211580,5,2,0:0:0:0:
225,117,211655,1,0,0:0:0:0:
185,112,211730,1,0,0:0:0:0:
155,84,211805,1,0,0:0:0:0:
148,44,211880,2,0,P|148:23|152:4,1,40
82,59,212030,1,2,0:0:0:0:
89,98,212105,1,0,0:0:0:0:
83,137,212180,2,0,P|72:157|47:172,1,40
91,228,212330,1,2,0:0:0:0:
101,266,212405,1,0,0:0:0:0:
129,293,212480,2,0,P|147:305|170:306,3,40,0|0|0|0,0:0|0:0|0:0|0:0,0:0:0:0:
230,284,212780,6,0,P|247:251|238:200,1,80,6|0,0:0|0:0,0:0:0:0:
127,110,213080,2,0,P|138:145|171:172,1,80,2|0,0:0|0:0,0:0:0:0:
313,141,213380,2,0,P|280:124|239:129,1,80,2|0,0:0|0:0,0:0:0:0:
112,296,213680,2,0,P|147:284|173:252,1,80,2|0,0:0|0:0,0:0:0:0:
52,246,213980,2,2,P|34:279|39:320,2,80,2|2|0,0:0|0:0|0:0,0:0:0:0:
114,195,214430,2,0,P|118:153|101:120,1,80,2|0,0:0|0:0,0:0:0:0:
39,171,214730,2,2,P|52:246|150:266,1,160,2|0,0:0|0:0,0:0:0:0:
187,224,215180,6,2,P|258:252|271:327,1,160,6|0,0:0|0:0,0:0:0:0:
350,314,215630,2,2,P|412:357|482:327,1,160,2|0,0:0|0:0,0:0:0:0:
386,173,216080,2,0,P|355:195|344:234,1,80,2|0,0:0|0:0,0:0:0:0:
465,177,216380,2,2,P|496:153|508:112,2,80,2|2|0,0:0|0:0|0:0,0:0:0:0:
428,106,216830,2,2,P|439:67|470:43,2,80,2|2|0,0:0|0:0|0:0,0:0:0:0:
411,143,217205,1,0,0:0:0:0:
386,173,217280,1,0,0:0:0:0:
348,186,217355,1,0,0:0:0:0:
308,185,217430,1,0,0:0:0:0:
270,170,217505,1,0,0:0:0:0:
253,133,217580,5,4,0:0:0:0:
275,39,217730,2,0,P|349:39|393:121,1,160,4|2,0:0|0:0,0:0:0:0:
197,195,218180,5,4,0:0:0:0:
103,173,218330,2,0,P|103:99|185:55,1,160,4|2,0:0|0:0,0:0:0:0:
259,251,218780,5,4,0:0:0:0:
237,345,218930,2,0,P|163:345|119:263,1,160,4|2,0:0|0:0,0:0:0:0:
315,189,219380,5,4,0:0:0:0:
409,211,219530,2,0,P|409:285|327:329,1,160,4|2,0:0|0:0,0:0:0:0:
197,195,219980,5,0,0:0:0:0:
256,192,220055,12,0,222305,0:0:0:0:
361,310,222380,6,0,P|395:264|372:194,1,120.000004577637,2|0,0:0|0:0,0:0:0:0:
330,165,222830,2,0,P|317:106|351:60,1,120.000004577637,0|0,0:0|0:0,0:0:0:0:
419,74,223280,2,0,P|408:103|386:122,1,60.0000022888184,2|0,0:0|0:0,0:0:0:0:
273,176,223580,6,0,P|301:163|330:165,3,60.0000022888184,0|0|2|0,0:0|0:0|0:0|0:0,0:0:0:0:
382,205,224180,2,0,P|410:207|439:194,3,60.0000022888184,0|0|2|0,0:0|0:0|0:0|0:0,0:0:0:0:
479,142,224780,6,0,P|483:87|419:33,1,120.000004577637,2|0,0:0|0:0,0:0:0:0:
377,27,225230,2,0,P|327:51|312:133,1,120.000004577637,0|0,0:0|0:0,0:0:0:0:
328,171,225680,2,0,P|350:192|377:202,1,60.0000022888184,2|0,0:0|0:0,0:0:0:0:
432,268,225980,5,0,0:0:0:0:
407,329,226130,1,0,0:0:0:0:
344,348,226280,2,0,P|313:346|285:331,1,60.0000022888184,2|0,0:0|0:0,0:0:0:0:
256,255,226580,1,0,0:0:0:0:
195,229,226730,1,0,0:0:0:0:
137,260,226880,2,0,P|116:283|107:313,1,60.0000022888184,2|0,0:0|0:0,0:0:0:0:
37,264,227180,6,0,P|50:209|12:146,1,120.000004577637,0|0,0:0|0:0,0:0:0:0:
65,80,227630,2,0,P|109:113|171:105,1,120.000004577637,2|0,0:0|0:0,0:0:0:0:
218,60,228080,2,0,P|223:29|214:0,1,60.0000022888184
157,35,228380,5,0,0:0:0:0:
65,80,228530,1,0,0:0:0:0:
170,105,228680,1,2,0:0:0:0:
142,165,228830,1,0,0:0:0:0:
207,161,228980,1,0,0:0:0:0:
262,246,229130,1,0,0:0:0:0:
269,138,229280,1,2,0:0:0:0:
332,156,229430,1,0,0:0:0:0:
315,92,229580,6,0,P|321:35|366:-6,1,120.000004577637,0|2,0:0|0:0,0:0:0:0:
487,30,230030,2,0,P|459:75|397:73,1,120.000004577637
373,153,230480,2,0,P|394:178|397:219,1,60.0000022888184,2|0,0:0|0:0,0:0:0:0:
320,315,230780,6,0,P|323:283|338:261,1,60.0000022888184,0|0,0:0|0:0,0:0:0:0:
373,153,231080,2,0,P|348:174|321:179,1,60.0000022888184,2|2,0:0|0:0,0:0:0:0:
210,100,231380,2,0,P|242:103|265:118,1,60.0000022888184,0|0,0:0|0:0,0:0:0:0:
373,153,231680,2,0,P|352:128|346:101,1,60.0000022888184,2|0,0:0|0:0,0:0:0:0:
385,31,231980,5,6,0:0:0:0:
480,88,232130,1,6,0:0:0:0:
278,210,233180,5,6,0:0:0:0:
373,153,233330,1,6,0:0:0:0:
166,69,234380,6,2,P|82:87|154:289,1,360.000013732911,6|0,0:0|2:0,0:0:0:0:
362,157,235580,2,2,P|415:201|344:248,1,180.000006866455,6|0,0:0|2:0,0:0:0:0:
149,226,236180,2,2,P|97:183|168:136,1,180.000006866455,6|0,0:0|2:0,0:0:0:0:
346,315,236780,2,2,P|430:297|358:95,1,360.000013732911,6|0,0:0|2:0,0:0:0:0:
178,147,237980,5,6,0:0:0:0:
333,147,238130,1,6,0:0:0:0:
256,281,238280,1,6,0:0:0:0:
214,228,239180,6,2,P|137:238|94:191,1,120.000004577637,6|2,0:0|0:0,0:0:0:0:
78,140,239630,1,0,0:0:0:0:
99,62,239780,1,0,0:0:0:0:
169,24,239930,1,0,0:0:0:0:
248,31,240080,1,0,0:0:0:0:
307,83,240230,1,0,0:0:0:0:
323,158,240380,6,0,L|315:203,2,40,2|0|0,0:0|0:0|0:0,0:0:0:0:
245,202,240637,2,0,L|237:247,2,40,2|0|0,0:0|0:0|0:0,0:0:0:0:
167,244,240894,2,0,L|159:289,1,40,2|0,0:0|0:0,0:0:0:0:
177,164,241065,6,0,L|185:119,2,40,2|0|0,0:0|0:0|0:0,0:0:0:0:
255,120,241322,2,0,L|263:75,2,40,2|0|0,0:0|0:0|0:0,0:0:0:0:
333,78,241579,2,0,L|341:33,1,40,2|0,0:0|0:0,0:0:0:0:
417,233,241751,5,6,0:0:0:0:
424,264,241837,1,0,0:0:0:0:
420,295,241922,1,0,0:0:0:0:
406,324,242008,1,0,0:0:0:0:
378,340,242094,1,2,0:0:0:0:
346,346,242180,1,0,0:0:0:0:
314,340,242265,1,0,0:0:0:0:
287,322,242351,1,0,0:0:0:0:
275,292,242437,1,2,0:0:0:0:
276,260,242522,1,0,0:0:0:0:
289,230,242608,1,0,0:0:0:0:
304,201,242694,1,0,0:0:0:0:
313,170,242780,1,2,0:0:0:0:
315,138,242865,1,0,0:0:0:0:
300,109,242951,1,0,0:0:0:0:
273,90,243037,1,0,0:0:0:0:
241,84,243122,5,2,0:0:0:0:
241,84,243208,1,0,0:0:0:0:
241,84,243294,1,0,0:0:0:0:
241,84,243380,1,0,0:0:0:0:
241,84,243465,2,0,L|199:103,3,40,2|0|0|0,0:0|0:0|0:0|0:0,0:0:0:0:
158,49,243808,1,2,0:0:0:0:
158,49,243894,1,0,0:0:0:0:
158,49,243980,1,0,0:0:0:0:
158,49,244066,1,0,0:0:0:0:
158,49,244151,2,0,L|131:86,3,40,2|0|0|0,0:0|0:0|0:0|0:0,0:0:0:0:
77,119,244494,5,6,0:0:0:0:
100,140,244580,1,0,0:0:0:0:
109,170,244665,1,0,0:0:0:0:
104,201,244751,1,0,0:0:0:0:
85,226,244837,1,2,0:0:0:0:
66,251,244922,1,0,0:0:0:0:
59,282,245008,1,0,0:0:0:0:
62,313,245094,1,0,0:0:0:0:
81,338,245180,1,2,0:0:0:0:
110,350,245265,1,0,0:0:0:0:
141,344,245351,1,0,0:0:0:0:
169,328,245437,1,0,0:0:0:0:
184,300,245522,1,2,0:0:0:0:
190,268,245608,1,0,0:0:0:0:
184,236,245694,1,0,0:0:0:0:
163,211,245780,1,0,0:0:0:0:
134,197,245865,6,0,P|110:193|91:197,3,40,2|0|0|0,0:0|0:0|0:0|0:0,0:0:0:0:
63,187,246208,2,0,P|46:171|38:154,3,40,2|0|0|0,0:0|0:0|0:0|0:0,0:0:0:0:
37,124,246551,2,0,P|43:106|57:88,3,40,2|0|0|0,0:0|0:0|0:0|0:0,0:0:0:0:
85,77,246894,2,0,P|102:70|124:67,3,40,2|0|0|0,0:0|0:0|0:0|0:0,0:0:0:0:
186,94,247237,5,6,0:0:0:0:
213,109,247322,1,0,0:0:0:0:
244,111,247408,2,0,P|265:108|282:100,1,40,2|0,0:0|0:0,0:0:0:0:
346,127,247580,1,0,0:0:0:0:
360,101,247665,1,0,0:0:0:0:
363,70,247751,2,0,P|360:49|352:32,1,40,2|0,0:0|0:0,0:0:0:0:
288,4,247922,1,2,0:0:0:0:
273,31,248007,1,0,0:0:0:0:
271,62,248094,2,0,P|274:83|285:101,1,40,2|0,0:0|0:0,0:0:0:0:
255,164,248265,1,0,0:0:0:0:
281,178,248350,1,0,0:0:0:0:
312,181,248436,2,0,P|332:178|349:170,1,40,2|0,0:0|0:0,0:0:0:0:
419,168,248608,6,0,P|458:175|488:208,1,80,0|2,0:0|0:0,0:0:0:0:
487,283,248951,2,2,P|448:276|418:243,1,80,0|2,0:0|0:0,0:0:0:0:
350,208,249294,2,2,P|241:202|223:321,1,240,2|0,0:0|0:0,0:0:0:0:
291,348,249980,6,0,P|300:310|292:271,2,80,4|2|0,0:0|0:0|0:0,0:0:0:0:
382,284,250494,2,0,P|420:249|481:255,1,80,2|0,0:0|0:0,0:0:0:0:
508,281,250837,1,0,0:0:0:0:
445,316,251008,1,0,0:0:0:0:
410,178,251179,1,2,0:0:0:0:
431,108,251351,2,0,P|450:74|491:58,1,80,2|0,0:0|0:0,0:0:0:0:
444,237,251694,2,0,P|406:247|366:229,1,80,2|0,0:0|0:0,0:0:0:0:
381,52,252037,2,0,P|415:71|431:111,1,80,2|0,0:0|0:0,0:0:0:0:
369,232,252380,2,0,P|358:194|376:154,1,80,2|0,0:0|0:0,0:0:0:0:
402,296,252722,6,2,B|367:313|317:302|299:261|297:232|297:232|295:203|277:162|227:151|191:168,1,278.400002336426,6|0,0:0|0:0,0:0:0:0:
142,198,253580,1,0,0:0:0:0:
129,266,253751,1,0,0:0:0:0:
158,328,253922,1,0,0:0:0:0:
215,369,254094,6,2,B|269:350|309:286|285:225|257:193|257:193|229:161|205:99|246:36|300:16,1,427.200000325928,2|0,0:0|0:0,0:0:0:0:
367,35,255294,1,0,0:0:0:0:
379,105,255465,6,2,B|363:150|310:184|259:164|232:140|232:140|205:117|153:97|100:131|84:176,1,356.000000271607,2|0,0:0|0:0,0:0:0:0:
91,246,256494,2,0,P|117:272|158:271,1,71.2000000543213,2|0,0:0|0:0,0:0:0:0:
209,236,256837,6,2,B|238:225|260:191|247:157|232:140|232:140|216:122|203:89|225:54|255:44,1,213.600000162964,2|2,0:0|0:0,0:0:0:0:
305,27,257522,2,0,P|343:25|372:47,1,71.2000000543213,2|0,0:0|0:0,0:0:0:0:
372,114,257865,2,0,P|346:142|310:147,1,71.2000000543213,2|0,0:0|0:0,0:0:0:0:
244,159,258208,5,6,0:0:0:0:
221,176,258294,1,0,0:0:0:0:
208,201,258380,1,0,0:0:0:0:
207,230,258465,1,0,0:0:0:0:
215,257,258551,2,0,P|228:271|245:282,1,35.6000000271606
302,312,258722,1,2,0:0:0:0:
287,336,258808,1,0,0:0:0:0:
262,350,258894,1,0,0:0:0:0:
233,352,258980,1,0,0:0:0:0:
206,343,259065,2,0,P|189:331|178:315,1,35.6000000271606
115,297,259237,1,2,0:0:0:0:
121,269,259322,1,0,0:0:0:0:
118,240,259408,2,0,P|116:221|108:204,1,35.6000000271606
57,162,259580,5,0,0:0:0:0:
46,135,259665,1,0,0:0:0:0:
45,106,259751,1,0,0:0:0:0:
55,79,259837,1,0,0:0:0:0:
75,59,259922,2,0,P|98:48|123:45,3,35.6000000271606,2|0|0|0,0:0|0:0|0:0|0:0,0:0:0:0:
170,19,260265,1,2,0:0:0:0:
191,37,260351,1,0,0:0:0:0:
201,63,260437,1,0,0:0:0:0:
202,91,260522,1,0,0:0:0:0:
198,119,260608,2,0,P|190:136|179:149,1,35.6000000271606,2|0,0:0|0:0,0:0:0:0:
217,207,260780,2,0,P|200:215|180:219,1,35.6000000271606,2|0,0:0|0:0,0:0:0:0:
155,281,260951,5,2,0:0:0:0:
168,305,261037,1,0,0:0:0:0:
191,321,261122,1,0,0:0:0:0:
218,330,261208,1,2,0:0:0:0:
246,330,261294,1,0,0:0:0:0:
273,322,261380,1,0,0:0:0:0:
295,304,261465,5,2,0:0:0:0:
308,279,261551,1,0,0:0:0:0:
313,251,261637,1,0,0:0:0:0:
307,223,261722,1,2,0:0:0:0:
290,199,261808,1,0,0:0:0:0:
274,175,261894,1,0,0:0:0:0:
266,147,261980,5,2,0:0:0:0:
267,118,262065,1,0,0:0:0:0:
279,92,262151,1,0,0:0:0:0:
302,75,262237,1,2,0:0:0:0:
329,70,262322,1,0,0:0:0:0:
356,77,262408,1,0,0:0:0:0:
380,92,262494,5,2,0:0:0:0:
394,116,262580,1,0,0:0:0:0:
399,143,262665,1,2,0:0:0:0:
395,171,262751,1,0,0:0:0:0:
383,197,262837,1,0,0:0:0:0:
361,215,262922,1,0,0:0:0:0:
334,224,263008,1,2,0:0:0:0:
305,223,263094,1,0,0:0:0:0:
277,216,263180,1,2,0:0:0:0:
251,204,263265,1,0,0:0:0:0:
226,200,263351,1,0,0:0:0:0:
198,206,263437,1,0,0:0:0:0:
176,224,263522,1,2,0:0:0:0:
169,252,263608,1,0,0:0:0:0:
179,278,263694,5,6,0:0:0:0:
203,298,263780,1,0,0:0:0:0:
234,300,263865,1,0,0:0:0:0:
264,289,263951,1,0,0:0:0:0:
286,266,264037,1,2,0:0:0:0:
290,234,264122,1,0,0:0:0:0:
282,202,264208,1,0,0:0:0:0:
268,172,264294,1,0,0:0:0:0:
259,140,264380,1,2,0:0:0:0:
266,109,264465,1,0,0:0:0:0:
285,83,264551,1,0,0:0:0:0:
316,76,264637,1,0,0:0:0:0:
347,81,264722,1,2,0:0:0:0:
370,103,264808,1,0,0:0:0:0:
377,134,264894,1,0,0:0:0:0:
373,165,264980,1,0,0:0:0:0:
352,189,265065,5,2,0:0:0:0:
321,197,265151,1,0,0:0:0:0:
289,194,265237,1,0,0:0:0:0:
258,187,265322,1,0,0:0:0:0:
225,186,265408,1,2,0:0:0:0:
194,195,265494,1,0,0:0:0:0:
169,216,265580,1,0,0:0:0:0:
156,245,265665,1,0,0:0:0:0:
161,276,265751,1,2,0:0:0:0:
180,301,265837,1,0,0:0:0:0:
209,312,265922,1,0,0:0:0:0:
241,311,266008,1,0,0:0:0:0:
269,295,266094,2,0,P|280:280|287:258,3,40,2|0|0|0,0:0|0:0|0:0|0:0,0:0:0:0:
357,230,266437,5,6,0:0:0:0:
336,205,266522,1,0,0:0:0:0:
331,173,266608,1,0,0:0:0:0:
341,142,266694,1,0,0:0:0:0:
363,119,266780,1,2,0:0:0:0:
385,96,266865,1,0,0:0:0:0:
395,65,266951,1,0,0:0:0:0:
390,33,267037,1,0,0:0:0:0:
369,8,267122,1,2,0:0:0:0:
337,1,267208,1,0,0:0:0:0:
305,7,267294,1,0,0:0:0:0:
280,27,267380,1,0,0:0:0:0:
266,55,267465,1,2,0:0:0:0:
266,87,267551,1,0,0:0:0:0:
273,118,267637,2,0,P|272:140|262:161,1,40
192,179,267808,5,6,0:0:0:0:
160,185,267894,1,0,0:0:0:0:
128,181,267980,1,0,0:0:0:0:
101,163,268065,1,0,0:0:0:0:
86,134,268151,2,0,P|82:111|83:91,3,40,2|0|0|0,0:0|0:0|0:0|0:0,0:0:0:0:
147,53,268494,2,0,P|160:33|175:20,3,40,2|0|0|0,0:0|0:0|0:0|0:0,0:0:0:0:
245,45,268837,2,0,P|268:41|288:42,3,40,2|0|0|0,0:0|0:0|0:0|0:0,0:0:0:0:
340,93,269180,5,6,0:0:0:0:
366,110,269265,1,0,0:0:0:0:
397,115,269351,1,0,0:0:0:0:
428,111,269437,1,0,0:0:0:0:
456,97,269522,1,2,0:0:0:0:
474,70,269608,1,0,0:0:0:0:
472,37,269694,1,0,0:0:0:0:
448,14,269780,1,0,0:0:0:0:
416,10,269865,1,2,0:0:0:0:
385,20,269951,1,0,0:0:0:0:
362,43,270037,1,0,0:0:0:0:
351,72,270122,1,0,0:0:0:0:
347,103,270208,1,2,0:0:0:0:
352,134,270294,1,0,0:0:0:0:
363,163,270380,1,0,0:0:0:0:
385,185,270465,1,0,0:0:0:0:
413,200,270551,5,6,0:0:0:0:
444,206,270637,1,0,0:0:0:0:
475,201,270722,1,0,0:0:0:0:
504,188,270808,1,0,0:0:0:0:
493,218,270894,1,2,0:0:0:0:
480,247,270980,1,0,0:0:0:0:
475,278,271065,1,0,0:0:0:0:
481,309,271151,1,0,0:0:0:0:
453,294,271237,1,2,0:0:0:0:
422,288,271323,1,0,0:0:0:0:
391,293,271408,1,0,0:0:0:0:
362,306,271494,1,0,0:0:0:0:
373,276,271580,1,2,0:0:0:0:
386,247,271666,1,0,0:0:0:0:
391,216,271751,1,0,0:0:0:0:
385,185,271837,1,0,0:0:0:0:
363,163,271922,6,2,P|316:141|245:160,2,120,6|2|2,0:0|0:0|0:0,0:0:0:0:
275,233,272608,2,2,P|210:247|163:225,2,120,6|2|2,0:0|0:0|0:0,0:0:0:0:
136,150,273294,6,0,P|130:129|132:106,1,40,6|0,0:0|0:0,0:0:0:0:
157,80,273465,1,0,0:0:0:0:
197,76,273551,1,0,0:0:0:0:
234,93,273637,6,0,P|254:88|273:74,1,40,2|0,0:0|0:0,0:0:0:0:
290,42,273808,1,0,0:0:0:0:
326,24,273894,1,0,0:0:0:0:
364,36,273980,6,0,P|381:46|404:46,1,40,2|0,0:0|0:0,0:0:0:0:
441,47,274151,1,0,0:0:0:0:
480,50,274237,1,0,0:0:0:0:
503,84,274322,6,0,P|493:104|491:125,1,40,2|0,0:0|0:0,0:0:0:0:
492,153,274494,1,0,0:0:0:0:
504,182,274580,1,0,0:0:0:0:
486,248,274665,6,2,P|447:262|392:244,1,80,6|0,0:0|0:0,0:0:0:0:
371,312,274922,2,2,P|335:300|284:306,1,80,2|0,0:0|0:0,0:0:0:0:
263,316,275180,1,0,0:0:0:0:
231,320,275265,1,0,0:0:0:0:
173,286,275351,2,2,P|163:248|172:204,1,80,2|0,0:0|0:0,0:0:0:0:
105,188,275608,2,2,P|101:147|78:108,1,80,2|0,0:0|0:0,0:0:0:0:
54,97,275865,1,0,0:0:0:0:
22,94,275951,1,0,0:0:0:0:
14,162,276037,6,2,P|18:203|41:242,1,80,2|0,0:0|0:0,0:0:0:0:
0,294,276294,1,0,0:0:0:0:
0,294,276380,2,2,P|18:327|22:368,1,80,0|2,0:0|0:0,0:0:0:0:
89,350,276637,1,0,0:0:0:0:
89,350,276722,2,2,P|128:362|178:352,1,80,2|0,0:0|0:0,0:0:0:0:
278,290,277065,2,2,P|239:278|201:284,1,80,2|0,0:0|0:0,0:0:0:0:
303,367,277408,5,6,0:0:0:0:
331,351,277494,1,0,0:0:0:0:
351,326,277580,1,0,0:0:0:0:
358,295,277665,1,0,0:0:0:0:
356,262,277751,1,2,0:0:0:0:
342,232,277837,1,0,0:0:0:0:
340,199,277923,1,0,0:0:0:0:
347,168,278008,1,0,0:0:0:0:
367,143,278094,1,2,0:0:0:0:
395,127,278180,1,0,0:0:0:0:
426,125,278265,1,0,0:0:0:0:
457,132,278351,1,0,0:0:0:0:
482,151,278437,1,2,0:0:0:0:
494,180,278522,1,0,0:0:0:0:
499,211,278608,1,0,0:0:0:0:
492,242,278694,1,0,0:0:0:0:
474,268,278780,5,6,0:0:0:0:
392,287,278951,1,0,0:0:0:0:
392,287,279037,1,0,0:0:0:0:
392,287,279122,1,2,0:0:0:0:
418,206,279294,2,2,P|420:153|206:135,1,320,2|0,0:0|0:0,0:0:0:0:
191,192,280151,5,2,0:0:0:0:
188,223,280237,1,0,0:0:0:0:
198,252,280322,2,0,P|211:267|230:276,1,40
302,272,280494,1,2,0:0:0:0:
308,304,280580,1,0,0:0:0:0:
298,333,280665,2,0,P|285:348|267:359,1,40
195,351,280837,1,2,0:0:0:0:
166,336,280922,1,0,0:0:0:0:
133,334,281008,2,0,P|109:342|90:358,1,40
14,250,281180,1,2,0:0:0:0:
43,265,281265,1,0,0:0:0:0:
76,267,281351,2,0,P|100:259|119:243,1,40
79,166,281522,5,6,0:0:0:0:
93,138,281608,1,0,0:0:0:0:
117,116,281694,1,0,0:0:0:0:
147,110,281780,1,0,0:0:0:0:
210,85,281865,5,2,0:0:0:0:
238,100,281951,1,0,0:0:0:0:
269,103,282037,1,0,0:0:0:0:
300,99,282122,1,0,0:0:0:0:
357,60,282208,5,2,0:0:0:0:
387,49,282294,1,0,0:0:0:0:
419,50,282380,1,0,0:0:0:0:
446,66,282465,1,0,0:0:0:0:
443,134,282551,5,2,0:0:0:0:
448,165,282637,1,0,0:0:0:0:
464,191,282722,1,0,0:0:0:0:
491,207,282808,1,0,0:0:0:0:
492,276,282894,6,0,P|467:306|458:345,1,80,0|2,0:0|0:0,0:0:0:0:
392,324,283151,2,0,P|352:338|304:323,1,80,0|2,0:0|0:0,0:0:0:0:
267,282,283408,1,0,0:0:0:0:
257,251,283494,1,0,0:0:0:0:
257,218,283580,2,2,P|266:181|300:150,1,80,2|0,0:0|0:0,0:0:0:0:
329,92,283837,2,2,P|288:82|255:53,1,80,2|0,0:0|0:0,0:0:0:0:
207,103,284094,2,0,P|186:102|164:110,1,40
118,154,284265,5,6,0:0:0:0:
106,184,284351,1,0,0:0:0:0:
106,216,284437,2,0,P|111:237|123:253,1,40
190,248,284608,1,2,0:0:0:0:
202,278,284694,1,0,0:0:0:0:
202,310,284780,2,0,P|197:331|185:347,1,40
118,355,284951,1,0,0:0:0:0:
85,353,285037,1,0,0:0:0:0:
58,335,285122,1,0,0:0:0:0:
45,305,285208,1,0,0:0:0:0:
45,272,285294,2,0,P|52:254|66:236,3,40
129,218,285637,5,0,0:0:0:0:
157,204,285722,1,0,0:0:0:0:
175,177,285808,1,2,0:0:0:0:
180,145,285894,1,0,0:0:0:0:
174,113,285980,2,0,P|167:96|150:77,1,40,0|0,0:0|0:0,0:0:0:0:
187,21,286151,2,0,P|170:13|144:12,1,40
241,63,286322,5,2,0:0:0:0:
255,35,286407,1,0,0:0:0:0:
282,17,286494,2,0,P|299:9|322:9,1,40
355,68,286665,1,2,0:0:0:0:
385,65,286750,1,0,0:0:0:0:
414,79,286837,2,0,P|429:89|440:109,1,40
424,174,287008,6,0,L|419:218,1,40,2|0,0:0|0:0,0:0:0:0:
468,268,287180,2,0,L|463:312,1,40
371,324,287351,6,0,L|375:284,1,40,2|0,0:0|0:0,0:0:0:0:
327,230,287523,2,0,L|332:186,1,40
221,20,287694,6,0,L|217:60,1,40,2|0,0:0|0:0,0:0:0:0:
265,115,287866,2,0,L|261:155,1,40
265,361,288037,6,0,L|269:321,1,40,2|0,0:0|0:0,0:0:0:0:
221,267,288209,2,0,L|226:223,1,40
209,199,288380,5,6,0:0:0:0:
179,188,288465,1,0,0:0:0:0:
147,191,288551,1,0,0:0:0:0:
118,206,288637,1,0,0:0:0:0:
102,233,288722,1,2,0:0:0:0:
99,264,288808,1,0,0:0:0:0:
106,295,288894,1,0,0:0:0:0:
127,318,288980,1,0,0:0:0:0:
157,327,289065,1,2,0:0:0:0:
189,324,289151,1,0,0:0:0:0:
218,312,289237,1,0,0:0:0:0:
245,297,289322,1,0,0:0:0:0:
276,291,289408,1,2,0:0:0:0:
307,294,289494,1,0,0:0:0:0:
335,309,289580,1,0,0:0:0:0:
347,338,289665,1,0,0:0:0:0:
339,369,289751,6,0,P|318:378|283:379,3,40,0|0|2|0,0:0|0:0|0:0|0:0,0:0:0:0:
269,374,290094,2,0,P|250:360|232:330,3,40,2|0|2|0,0:0|0:0|0:0|0:0,0:0:0:0:
235,315,290437,2,0,P|237:292|254:261,3,40,0|0|2|0,0:0|0:0|0:0|0:0,0:0:0:0:
265,252,290780,2,0,P|286:243|321:242,3,40,2|0|2|0,0:0|0:0|0:0|0:0,0:0:0:0:
334,244,291122,5,6,0:0:0:0:
366,242,291208,1,0,0:0:0:0:
390,220,291294,1,0,0:0:0:0:
404,191,291380,1,0,0:0:0:0:
403,159,291465,1,2,0:0:0:0:
386,131,291551,1,0,0:0:0:0:
356,119,291637,1,0,0:0:0:0:
324,121,291722,1,0,0:0:0:0:
295,134,291808,1,2,0:0:0:0:
264,142,291894,1,0,0:0:0:0:
231,142,291980,1,0,0:0:0:0:
202,128,292065,1,0,0:0:0:0:
184,101,292151,1,2,0:0:0:0:
180,69,292237,1,0,0:0:0:0:
192,39,292322,1,0,0:0:0:0:
219,21,292408,1,0,0:0:0:0:
250,16,292494,5,6,0:0:0:0:
250,16,292580,1,0,0:0:0:0:
250,16,292665,2,0,P|274:18|292:27,1,40,0|0,0:0|0:0,0:0:0:0:
375,64,292837,1,2,0:0:0:0:
375,64,292922,1,0,0:0:0:0:
375,64,293008,2,0,P|351:66|337:73,1,40,0|0,0:0|0:0,0:0:0:0:
249,112,293179,1,2,0:0:0:0:
249,112,293265,1,0,0:0:0:0:
249,112,293351,2,0,P|273:114|288:121,1,40,0|0,0:0|0:0,0:0:0:0:
374,160,293523,2,0,P|350:162|335:168,3,40,2|0|0|0,0:0|0:0|0:0|0:0,0:0:0:0:
302,226,293865,6,0,P|268:246|198:244,1,80,0|2,0:0|0:0,0:0:0:0:
217,82,294213,2,0,P|251:62|319:66,1,80,0|2,0:0|0:0,0:0:0:0:
187,196,294561,2,0,P|167:162|173:92,1,80,0|2,0:0|0:0,0:0:0:0:
331,111,294909,2,0,P|351:145|345:215,1,80,0|2,0:0|0:0,0:0:0:0:
238,210,295237,6,0,P|223:199|213:180,3,40,6|2|2|2,0:0|0:0|0:0|0:0,0:0:0:0:
266,224,295580,1,0,0:0:0:0:
286,248,295665,1,0,0:0:0:0:
292,279,295751,2,0,P|293:302|283:323,1,40,4|0,0:3|0:0,0:0:0:0:
316,258,295922,5,2,0:0:0:0:
346,248,296008,1,2,0:0:0:0:
377,251,296094,1,2,0:0:0:0:
406,263,296180,1,2,0:0:0:0:
425,288,296265,2,0,P|434:310|437:334,3,40,4|4|4|4,0:3|0:3|0:3|0:3,0:0:0:0:
481,248,296608,5,6,0:0:0:0:
457,215,296694,1,0,0:0:0:0:
447,175,296780,1,0,0:0:0:0:
455,136,296865,1,0,0:0:0:0:
480,105,296951,2,0,P|493:93|513:82,1,40
409,74,297122,1,2,0:0:0:0:
371,89,297208,1,0,0:0:0:0:
330,94,297294,1,0,0:0:0:0:
290,83,297380,1,0,0:0:0:0:
260,57,297465,2,0,P|247:25|244:3,1,40
196,93,297637,1,2,0:0:0:0:
219,124,297722,1,0,0:0:0:0:
228,163,297808,1,0,0:0:0:0:
222,203,297894,1,0,0:0:0:0:
197,235,297980,6,0,P|179:247|157:253,1,40,6|0,0:0|0:0,0:0:0:0:
65,342,298151,2,0,P|82:329|99:323,1,40,0|0,0:0|0:0,0:0:0:0:
205,384,298322,6,0,P|186:384|167:376,1,40,2|0,0:0|0:0,0:0:0:0:
302,366,298494,2,0,P|320:365|339:373,1,40,0|0,0:0|0:0,0:0:0:0:
304,264,298665,6,0,P|317:248|340:238,1,40,2|0,0:0|0:0,0:0:0:0:
467,215,298837,2,0,P|453:230|430:240,1,40,0|0,0:0|0:0,0:0:0:0:
445,121,299008,6,0,P|443:101|449:82,1,40,2|0,0:0|0:0,0:0:0:0:
336,15,299179,2,0,P|337:34|330:52,1,40,0|0,0:0|0:0,0:0:0:0:
331,158,299351,5,0,0:0:0:0:
311,162,299437,1,0,0:0:0:0:
291,160,299522,1,2,0:0:0:0:
272,151,299608,1,0,0:0:0:0:
256,125,299694,1,0,0:0:0:0:
260,95,299780,1,0,0:0:0:0:
281,74,299865,1,2,0:0:0:0:
311,68,299951,1,0,0:0:0:0:
350,76,300037,1,0,0:0:0:0:
386,90,300122,1,0,0:0:0:0:
425,93,300208,1,2,0:0:0:0:
464,84,300294,1,0,0:0:0:0:
493,43,300380,1,0,0:0:0:0:
468,0,300465,1,0,0:0:0:0:
418,3,300551,1,2,0:0:0:0:
394,47,300637,1,0,0:0:0:0:
397,97,300722,5,4,0:0:0:0:
420,141,300808,1,0,0:0:0:0:
433,189,300894,1,2,0:0:0:0:
419,237,300980,1,0,0:0:0:0:
377,264,301065,1,2,0:0:0:0:
327,265,301151,1,0,0:0:0:0:
288,234,301237,1,2,0:0:0:0:
274,186,301322,1,0,0:0:0:0:
287,138,301408,2,0,P|298:123|315:108,3,40,0|0|0|0,0:0|0:0|0:0|0:0,0:0:0:0:
360,90,301751,2,0,P|376:75|383:56,3,40,2|0|0|0,0:0|0:0|0:0|0:0,0:0:0:0:
372,19,302094,5,4,0:0:0:0:
333,6,302180,1,0,0:0:0:0:
293,12,302265,1,2,0:0:0:0:
266,41,302351,1,0,0:0:0:0:
258,80,302437,1,0,0:0:0:0:
264,119,302522,1,0,0:0:0:0:
283,154,302608,1,2,0:0:0:0:
303,188,302694,1,0,0:0:0:0:
309,227,302780,1,0,0:0:0:0:
303,266,302865,1,0,0:0:0:0:
283,301,302951,1,2,0:0:0:0:
249,322,303037,1,0,0:0:0:0:
209,325,303122,1,0,0:0:0:0:
171,310,303208,1,0,0:0:0:0:
148,276,303294,1,2,0:0:0:0:
148,235,303380,1,0,0:0:0:0:
175,206,303465,5,6,0:0:0:0:
220,189,303551,1,0,0:0:0:0:
257,158,303637,1,2,0:0:0:0:
273,113,303722,1,0,0:0:0:0:
269,65,303808,1,2,0:0:0:0:
240,26,303894,1,0,0:0:0:0:
192,19,303980,1,0,0:0:0:0:
147,39,304065,1,0,0:0:0:0:
126,82,304151,1,2,0:0:0:0:
126,130,304237,1,0,0:0:0:0:
104,172,304322,1,0,0:0:0:0:
58,186,304408,1,0,0:0:0:0:
13,167,304494,2,2,P|5:151|0:126,3,40,2|0|0|0,0:0|0:0|0:0|0:0,0:0:0:0:
36,70,304837,5,4,0:0:0:0:
58,47,304922,1,0,0:0:0:0:
89,40,305008,1,0,0:0:0:0:
120,46,305094,1,0,0:0:0:0:
145,66,305180,2,0,P|152:84|152:103,1,30.0000011444092,2|0,0:0|0:0,0:0:0:0:
195,148,305351,1,0,0:0:0:0:
194,179,305436,1,0,0:0:0:0:
211,206,305522,1,0,0:0:0:0:
237,224,305608,1,0,0:0:0:0:
269,227,305694,2,0,P|286:220|300:205,1,30.0000011444092,2|0,0:0|0:0,0:0:0:0:
326,148,305865,2,0,P|337:149|355:154,1,30.0000011444092,2|0,0:0|0:0,0:0:0:0:
430,164,306037,2,0,P|437:172|446:188,1,30.0000011444092,2|0,0:0|0:0,0:0:0:0:
428,261,306208,5,0,0:0:0:0:
411,287,306293,1,0,0:0:0:0:
383,302,306380,1,2,0:0:0:0:
352,306,306465,1,0,0:0:0:0:
284,289,306551,5,0,0:0:0:0:
253,293,306636,1,0,0:0:0:0:
225,308,306723,1,2,0:0:0:0:
208,334,306808,1,0,0:0:0:0:
142,351,306894,5,2,0:0:0:0:
116,334,306979,1,0,0:0:0:0:
101,306,307066,1,2,0:0:0:0:
97,275,307151,1,0,0:0:0:0:
114,207,307237,5,0,0:0:0:0:
110,176,307322,1,0,0:0:0:0:
95,148,307409,1,2,0:0:0:0:
69,131,307494,1,2,0:0:0:0:
36,71,307580,5,4,0:0:0:0:
60,40,307665,1,0,0:0:0:0:
98,29,307751,1,2,0:0:0:0:
137,35,307837,1,0,0:0:0:0:
170,56,307922,1,0,0:0:0:0:
187,91,308008,1,0,0:0:0:0:
187,131,308094,1,2,0:0:0:0:
172,168,308180,1,0,0:0:0:0:
156,204,308265,1,0,0:0:0:0:
158,244,308351,1,0,0:0:0:0:
178,278,308437,1,2,0:0:0:0:
212,297,308522,1,0,0:0:0:0:
252,300,308608,1,0,0:0:0:0:
290,289,308694,1,0,0:0:0:0:
317,259,308780,1,2,0:0:0:0:
326,220,308865,1,0,0:0:0:0:
317,180,308951,6,0,L|303:139,1,40
267,157,309122,2,0,L|253:116,1,40,2|0,0:0|0:0,0:0:0:0:
355,101,309294,6,0,L|341:60,1,40
305,78,309465,2,0,L|291:37,1,40,2|0,0:0|0:0,0:0:0:0:
466,223,309637,6,0,L|452:182,1,40
416,200,309808,2,0,L|402:159,1,40,2|0,0:0|0:0,0:0:0:0:
504,144,309980,6,0,L|490:103,1,40
454,121,310151,2,0,L|440:80,1,40,2|0,0:0|0:0,0:0:0:0:
466,223,310322,6,2,P|496:267|493:331,2,120,4|2|2,0:0|0:0|0:0,0:0:0:0:
360,256,311008,2,2,P|357:192|391:142,2,120,4|2|2,0:0|0:0|0:0,0:0:0:0:
316,323,311694,5,6,0:0:0:0:
281,343,311780,1,0,0:0:0:0:
241,344,311865,1,0,0:0:0:0:
209,319,311951,1,0,0:0:0:0:
191,282,312037,1,2,0:0:0:0:
159,257,312123,1,0,0:0:0:0:
119,258,312208,1,0,0:0:0:0:
84,278,312294,1,0,0:0:0:0:
64,312,312380,5,6,0:0:0:0:
44,277,312466,1,0,0:0:0:0:
43,237,312551,1,0,0:0:0:0:
68,205,312637,1,0,0:0:0:0:
105,187,312723,1,2,0:0:0:0:
130,155,312809,1,0,0:0:0:0:
129,115,312894,1,0,0:0:0:0:
109,80,312980,1,0,0:0:0:0:
72,64,313065,5,6,0:0:0:0:
32,74,313151,1,0,0:0:0:0:
12,108,313237,2,0,P|6:129|9:150,1,40
21,222,313408,1,2,0:0:0:0:
57,244,313494,1,0,0:0:0:0:
95,234,313580,2,0,P|114:223|126:206,1,40
201,219,313751,1,2,0:0:0:0:
211,178,313837,1,0,0:0:0:0:
245,159,313923,2,0,P|266:153|287:156,1,40
351,118,314094,2,0,P|369:129|382:146,1,40,2|0,0:0|0:0,0:0:0:0:
442,191,314266,2,0,P|431:210|414:222,1,40,2|0,0:0|0:0,0:0:0:0:
344,241,314437,5,6,0:0:0:0:
304,246,314522,1,0,0:0:0:0:
264,237,314608,1,0,0:0:0:0:
238,206,314694,1,0,0:0:0:0:
237,165,314780,1,2,0:0:0:0:
255,129,314865,1,0,0:0:0:0:
270,91,314951,1,0,0:0:0:0:
265,51,315037,1,0,0:0:0:0:
235,24,315122,1,2,0:0:0:0:
196,12,315208,1,0,0:0:0:0:
156,20,315294,1,2,0:0:0:0:
126,47,315380,1,0,0:0:0:0:
114,84,315465,1,2,0:0:0:0:
115,124,315551,1,0,0:0:0:0:
131,160,315637,2,0,P|147:175|169:185,1,40
186,257,315808,5,6,0:0:0:0:
178,295,315893,1,0,0:0:0:0:
148,321,315979,1,0,0:0:0:0:
109,323,316065,1,0,0:0:0:0:
77,301,316150,1,0,0:0:0:0:
65,263,316236,1,0,0:0:0:0:
79,226,316322,1,0,0:0:0:0:
112,204,316408,1,0,0:0:0:0:
141,175,316494,1,6,0:0:0:0:
154,138,316580,1,0,0:0:0:0:
143,100,316666,1,0,0:0:0:0:
110,78,316751,1,0,0:0:0:0:
71,80,316837,1,0,0:0:0:0:
41,106,316923,1,0,0:0:0:0:
34,144,317008,1,0,0:0:0:0:
47,181,317094,1,0,0:0:0:0:
69,203,317180,5,6,0:0:0:0:
94,221,317265,1,0,0:0:0:0:
105,251,317351,1,0,0:0:0:0:
109,282,317437,1,0,0:0:0:0:
99,312,317522,1,2,0:0:0:0:
76,335,317608,1,0,0:0:0:0:
44,342,317694,1,0,0:0:0:0:
13,332,317780,1,0,0:0:0:0:
0,303,317865,1,2,0:0:0:0:
11,273,317951,1,0,0:0:0:0:
38,256,318037,1,0,0:0:0:0:
69,255,318122,1,0,0:0:0:0:
99,264,318208,1,2,0:0:0:0:
123,284,318294,1,0,0:0:0:0:
151,299,318380,1,0,0:0:0:0:
182,304,318465,1,0,0:0:0:0:
213,298,318551,6,0,P|246:272|267:231,1,80,4|0,0:0|0:0,0:0:0:0:
336,143,318894,2,0,P|331:184|342:221,1,80,2|0,0:0|0:0,0:0:0:0:
380,348,319237,2,0,P|354:315|321:296,1,80,0|0,0:0|0:0,0:0:0:0:
179,362,319580,2,0,P|220:367|257:356,1,80,2|0,0:0|0:0,0:0:0:0:
147,283,319922,6,2,P|114:308|96:342,2,80,2|0|0,0:0|0:0|0:0,0:0:0:0:
225,263,320437,1,0,0:0:0:0:
281,209,320608,2,0,P|297:170|282:111,1,80,2|0,0:0|0:0,0:0:0:0:
187,17,320951,2,0,P|203:56|232:80,1,80,0|2,0:0|0:0,0:0:0:0:
308,55,321294,6,0,P|380:51|409:135,1,160,4|2,0:0|0:0,0:0:0:0:
111,215,321808,2,0,P|71:155|130:87,1,160,4|2,0:0|0:0,0:0:0:0:
348,305,322322,2,0,P|316:369|228:353,1,160,4|2,0:0|0:0,0:0:0:0:
212,330,322751,5,0,0:0:0:0:
216,290,322837,1,0,0:0:0:0:
263,150,323008,2,0,P|276:181|263:225,1,80,0|2,0:0|0:0,0:0:0:0:
192,129,323351,2,0,P|204:99|245:77,1,80,0|2,0:0|0:0,0:0:0:0:
318,98,323694,1,4,0:0:0:0:
137,232,324037,6,0,P|115:202|122:153,1,80,4|0,0:0|0:0,0:0:0:0:
192,129,324380,1,2,0:0:0:0:
210,240,324551,2,0,P|194:278|75:271,1,160,0|2,0:0|0:0,0:0:0:0:
258,173,325065,2,0,P|274:135|393:142,1,160,0|2,0:0|0:0,0:0:0:0:
439,205,325580,1,0,0:0:0:0:
439,205,325665,2,0,P|443:247|422:280,1,80
393,286,325922,1,0,0:0:0:0:
318,256,326094,2,0,P|314:214|335:181,1,80,2|2,0:0|0:0,0:0:0:0:
411,61,326437,2,2,P|415:103|397:135,1,80,2|0,0:0|0:0,0:0:0:0:
286,121,326780,5,6,0:0:0:0:
252,100,326865,1,0,0:0:0:0:
238,62,326951,1,0,0:0:0:0:
248,23,327037,1,0,0:0:0:0:
283,6,327122,2,0,P|301:0|326:1,1,40,0|0,0:0|0:0,0:0:0:0:
416,47,327294,2,0,P|398:53|378:53,1,40,2|0,0:0|0:0,0:0:0:0:
358,87,327465,1,6,0:0:0:0:
349,125,327550,1,0,0:0:0:0:
366,162,327636,1,0,0:0:0:0:
400,183,327722,1,0,0:0:0:0:
439,176,327808,2,0,P|455:167|472:149,1,40,0|0,0:0|0:0,0:0:0:0:
432,252,327980,2,0,P|415:260|398:278,1,40,2|0,0:0|0:0,0:0:0:0:
384,312,328151,5,6,0:0:0:0:
353,337,328237,1,0,0:0:0:0:
313,342,328322,1,0,0:0:0:0:
276,325,328408,1,0,0:0:0:0:
259,288,328494,2,0,P|257:267|261:246,1,40
208,154,328665,2,0,P|210:175|207:194,1,40,2|0,0:0|0:0,0:0:0:0:
177,222,328837,1,6,0:0:0:0:
137,217,328923,1,0,0:0:0:0:
105,193,329008,1,0,0:0:0:0:
91,154,329094,1,0,0:0:0:0:
105,116,329180,2,0,P|118:99|136:87,3,40,2|0|0|0,0:0|0:0|0:0|0:0,0:0:0:0:
203,59,329522,5,6,0:0:0:0:
250,53,329608,1,0,0:0:0:0:
293,74,329694,1,0,0:0:0:0:
318,114,329780,1,2,0:0:0:0:
327,160,329865,1,0,0:0:0:0:
316,206,329951,1,0,0:0:0:0:
283,241,330037,2,0,P|261:252|233:255,1,47.9999985351563,2|0,0:0|0:0,0:0:0:0:
243,166,330208,5,6,0:0:0:0:
272,128,330294,1,0,0:0:0:0:
318,113,330380,1,0,0:0:0:0:
363,123,330466,1,2,0:0:0:0:
402,149,330551,1,0,0:0:0:0:
427,190,330637,1,0,0:0:0:0:
429,238,330723,2,0,P|421:261|403:283,1,47.9999985351563,2|0,0:0|0:0,0:0:0:0:
401,375,330894,5,4,0:0:0:0:
360,349,330980,1,0,0:0:0:0:
312,343,331065,1,2,0:0:0:0:
265,356,331151,1,0,0:0:0:0:
202,381,331237,5,0,0:0:0:0:
156,367,331322,1,0,0:0:0:0:
123,331,331408,1,2,0:0:0:0:
117,283,331494,1,0,0:0:0:0:
54,258,331580,5,2,0:0:0:0:
80,217,331665,1,0,0:0:0:0:
78,168,331751,1,0,0:0:0:0:
54,127,331837,1,0,0:0:0:0:
9,76,331922,5,0,0:0:0:0:
32,34,332008,1,2,0:0:0:0:
75,12,332094,1,0,0:0:0:0:
123,12,332180,1,2,0:0:0:0:
176,48,332265,6,0,P|236:87|324:45,1,160,6|0,0:0|0:0,0:0:0:0:
498,216,332715,2,0,P|438:177|350:219,1,160,0|0,0:0|0:0,0:0:0:0:
367,285,333165,2,0,P|323:290|281:263,1,80
285,195,333465,2,0,P|329:190|371:217,3,80,2|0|0|0,0:0|0:0|0:0|0:0,0:0:0:0:
292,275,334065,2,0,P|248:268|214:231,3,80,2|0|0|0,0:0|0:0|0:0|0:0,0:0:0:0:
209,166,334665,6,0,P|181:113|88:116,1,160,2|0,0:0|0:0,0:0:0:0:
28,165,335115,2,0,P|56:218|149:215,1,160,0|0,0:0|0:0,0:0:0:0:
209,166,335565,2,0,P|251:162|280:190,1,80
341,284,335865,2,0,P|299:288|273:265,3,80,2|0|0|0,0:0|0:0|0:0|0:0,0:0:0:0:
390,220,336465,2,0,P|432:216|458:239,3,80,2|0|0|0,0:0|0:0|0:0|0:0,0:0:0:0:
390,220,337065,6,0,P|356:226|274:138,1,160,2|0,0:0|0:0,0:0:0:0:
296,68,337515,2,0,P|330:62|412:150,1,160,0|0,0:0|0:0,0:0:0:0:
296,68,337965,2,0,P|257:58|235:17,1,80,0|0,0:0|0:0,0:0:0:0:
98,84,338265,2,0,P|131:65|169:72,3,80,2|0|0|0,0:0|0:0|0:0|0:0,0:0:0:0:
86,164,338865,2,0,P|51:184|14:176,3,80,2|0|0|0,0:0|0:0|0:0|0:0,0:0:0:0:
6,318,339465,6,0,P|58:262|134:275,1,160,2|0,0:0|0:0,0:0:0:0:
190,335,339915,2,0,P|267:348|321:278,1,160,0|0,0:0|0:0,0:0:0:0:
324,212,340365,2,0,P|319:171|288:143,1,80
189,116,340665,2,0,P|194:157|221:183,3,80,2|0|0|0,0:0|0:0|0:0|0:0,0:0:0:0:
258,75,341265,2,0,P|253:34|226:8,3,80,2|0|0|0,0:0|0:0|0:0|0:0,0:0:0:0:
154,8,341865,6,0,P|82:70|257:238,1,420.000016021729,4|0,2:1|0:0,0:0:0:0:
256,145,343065,6,0,P|430:314|358:376,1,420.000016021729,4|0,2:1|0:0,0:0:0:0:
154,376,344265,6,0,P|82:314|257:146,1,420.000016021729,4|0,2:1|0:0,0:0:0:0:
256,238,345465,6,0,P|430:70|358:8,1,420.000016021729,4|0,2:1|0:0,0:0:0:0:
154,8,346665,6,0,P|82:70|257:238,1,420.000016021729,4|0,2:1|0:0,0:0:0:0:
358,376,347865,6,0,P|430:314|255:146,1,420.000016021729,4|0,2:1|0:0,0:0:0:0:
256,237,349065,5,0,0:0:0:0:
256,192,349140,12,0,351315,0:0:0:0:
332,344,351465,5,0,0:0:0:0:
432,294,351615,1,0,0:0:0:0:
180,244,351915,5,0,0:0:0:0:
86,182,352065,1,0,0:0:0:0:
80,294,352215,1,0,0:0:0:0:
332,244,352515,5,0,0:0:0:0:
426,182,352665,1,0,0:0:0:0:
432,294,352815,1,0,0:0:0:0:
202,119,353115,5,0,0:0:0:0:
310,145,353265,1,0,0:0:0:0:
336,37,353415,1,0,0:0:0:0:
228,11,353565,1,6,0:0:0:0:
180,344,353865,5,0,0:0:0:0:
80,294,354015,1,0,0:0:0:0:
332,244,354315,5,0,0:0:0:0:
426,182,354465,1,0,0:0:0:0:
432,294,354615,1,0,0:0:0:0:
180,244,354915,5,0,0:0:0:0:
86,182,355065,1,0,0:0:0:0:
80,294,355215,1,0,0:0:0:0:
310,119,355515,5,0,0:0:0:0:
202,145,355665,1,0,0:0:0:0:
176,37,355815,1,0,0:0:0:0:
284,11,355965,1,6,0:0:0:0:
432,294,356265,5,0,0:0:0:0:
278,338,356565,5,0,0:0:0:0:
410,220,356865,5,0,0:0:0:0:
123,297,357165,5,0,0:0:0:0:
112,141,357465,5,0,0:0:0:0:
254,213,357765,5,0,0:0:0:0:
100,62,358065,5,0,0:0:0:0:
405,162,358365,5,0,0:0:0:0:
347,218,358665,6,8,L|344:262,1,40
294,305,358815,1,8,0:0:0:0:
294,305,358890,1,8,0:0:0:0:
294,305,358965,1,8,0:0:0:0:
242,224,359115,6,8,L|240:264,1,40
189,311,359265,1,8,0:0:0:0:
189,311,359340,1,8,0:0:0:0:
189,311,359415,1,8,0:0:0:0:
137,230,359565,6,8,L|134:269,1,40
84,317,359715,2,0,L|81:356,1,40,8|0,0:0|0:0,0:0:0:0:
137,230,359865,5,8,0:3:0:0:
97,179,360015,2,8,P|78:171|55:169,2,40
159,105,360315,5,8,0:3:0:0:
199,54,360465,2,8,P|218:46|241:44,2,40
208,149,360765,5,8,0:3:0:0:
231,153,360840,1,8,0:3:0:0:
254,157,360915,1,8,0:3:0:0:
277,161,360990,1,8,0:3:0:0:
339,133,361065,5,4,0:0:0:0:
256,192,361140,12,0,363315,0:0:0:0:
159,300,363465,6,0,L|250:295,1,80,6|0,0:0|0:0,0:0:0:0:
341,174,363765,1,0,0:0:0:0:
299,103,363915,2,2,P|261:170|295:239,1,160,2|0,0:0|0:0,0:0:0:0:
421,165,364365,2,0,P|410:128|376:101,1,80,2|0,0:0|0:0,0:0:0:0:
221,224,364665,2,0,P|254:242|295:238,2,80,2|0|0,0:0|0:0|0:0,0:0:0:0:
126,165,365115,2,0,P|92:146|51:150,2,80,2|0|0,0:0|0:0|0:0,0:0:0:0:
224,111,365565,2,0,P|242:77|238:36,1,80,2|0,0:0|0:0,0:0:0:0:
126,165,365865,2,2,P|123:227|193:289,1,160,6|0,0:0|0:0,0:0:0:0:
289,235,366315,2,2,P|292:173|222:111,1,160,2|0,0:0|0:0,0:0:0:0:
207,200,366765,1,0,0:0:0:0:
207,200,366915,1,0,0:0:0:0:
363,52,367065,6,0,L|283:58,1,80,0|0,0:0|0:0,0:0:0:0:
111,20,367365,2,0,L|190:26,1,80,2|0,0:0|0:0,0:0:0:0:
75,160,367665,2,0,L|40:88,1,80,2|0,0:0|0:0,0:0:0:0:
214,122,367965,2,0,L|169:187,1,80,2|0,0:0|0:0,0:0:0:0:
263,256,368265,6,2,P|324:273|393:216,1,160,6|0,0:0|0:0,0:0:0:0:
275,63,368715,2,2,P|258:124|315:193,1,160,2|0,0:0|0:0,0:0:0:0:
408,26,369165,2,0,P|378:6|337:13,1,80,2|0,0:0|0:0,0:0:0:0:
180,123,369465,2,2,P|102:136|51:76,1,160,2|0,0:0|0:0,0:0:0:0:
243,73,369915,2,2,P|256:151|196:202,1,160,2|0,0:0|0:0,0:0:0:0:
100,17,370365,2,0,P|142:19|168:44,1,80,2|0,0:0|0:0,0:0:0:0:
180,123,370665,5,0,0:0:0:0:
132,187,370815,1,2,0:0:0:0:
69,137,370965,1,0,0:0:0:0:
117,73,371115,1,0,0:0:0:0:
332,261,371265,5,0,0:0:0:0:
395,311,371415,1,2,0:0:0:0:
443,247,371565,1,2,0:0:0:0:
380,197,371715,1,2,0:0:0:0:
300,187,371865,5,4,0:0:0:0:
260,183,371940,1,0,0:0:0:0:
222,195,372015,1,0,0:0:0:0:
198,227,372090,1,0,0:0:0:0:
191,266,372165,2,0,P|191:289|202:314,1,40,2|0,0:0|0:0,0:0:0:0:
256,347,372315,5,4,0:0:0:0:
296,351,372390,1,0,0:0:0:0:
334,339,372465,1,0,0:0:0:0:
358,307,372540,1,0,0:0:0:0:
365,268,372615,2,0,P|365:245|354:220,1,40,2|0,0:0|0:0,0:0:0:0:
300,187,372765,5,4,0:0:0:0:
296,147,372840,1,0,0:0:0:0:
308,109,372915,1,0,0:0:0:0:
340,85,372990,1,0,0:0:0:0:
379,78,373065,6,2,P|433:98|453:195,1,160,6|0,0:0|0:0,0:0:0:0:
320,281,373515,2,2,P|311:225|380:160,1,160,2|0,0:0|0:0,0:0:0:0:
463,268,373965,2,0,P|437:298|399:296,1,80,2|0,0:0|0:0,0:0:0:0:
246,134,374265,2,2,P|299:110|380:160,1,160,6|0,0:0|0:0,0:0:0:0:
350,319,374715,2,2,P|303:285|305:190,1,160,2|0,0:0|0:0,0:0:0:0:
442,209,375165,2,0,P|443:248|415:273,1,80,2|0,0:0|0:0,0:0:0:0:
118,170,375465,2,2,P|168:116|246:134,1,160,6|0,0:0|0:0,0:0:0:0:
157,236,375915,2,2,P|83:238|40:171,1,160,2|0,0:0|0:0,0:0:0:0:
70,29,376365,2,0,P|86:63|79:104,1,80,2|0,0:0|0:0,0:0:0:0:
50,311,376665,2,2,P|12:240|40:172,1,160,6|0,0:0|0:0,0:0:0:0:
116,146,377115,5,0,0:0:0:0:
101,224,377265,1,0,0:0:0:0:
40,172,377415,1,0,0:0:0:0:
131,67,377565,1,2,0:0:0:0:
192,120,377715,1,0,0:0:0:0:
253,173,377865,6,2,P|305:182|375:101,1,160,6|0,0:0|0:0,0:0:0:0:
232,94,378315,2,2,P|188:124|196:231,1,160,2|0,0:0|0:0,0:0:0:0:
327,160,378765,2,0,P|289:155|253:173,1,80,2|0,0:0|0:0,0:0:0:0:
393,294,379065,2,2,P|362:250|255:258,1,160,6|0,0:0|0:0,0:0:0:0:
234,325,379515,1,0,0:0:0:0:
448,351,379665,2,0,P|469:326|468:272,1,80,2|0,0:0|0:0,0:0:0:0:
230,184,379965,2,0,P|232:216|271:254,1,80,2|0,0:0|0:0,0:0:0:0:
448,186,380265,2,2,P|417:142|318:142,1,160,6|0,0:0|0:0,0:0:0:0:
100,140,380715,2,2,P|131:184|230:184,1,160,2|0,0:0|0:0,0:0:0:0:
85,22,381165,2,0,P|43:34|12:67,1,80,2|0,0:0|0:0,0:0:0:0:
230,184,381465,5,6,0:0:0:0:
318,142,381615,1,0,0:0:0:0:
239,89,381765,1,0,0:0:0:0:
310,239,381915,1,2,0:0:0:0:
396,197,382065,1,0,0:0:0:0:
318,142,382215,1,0,0:0:0:0:
149,127,382365,1,2,0:0:0:0:
143,223,382515,1,0,0:0:0:0:
230,184,382665,6,2,P|302:177|356:241,1,160,6|0,0:0|0:0,0:0:0:0:
143,222,383115,2,2,P|147:138|203:92,1,160,2|0,0:0|0:0,0:0:0:0:
392,131,383565,2,0,P|357:149|319:143,1,80,2|0,0:0|0:0,0:0:0:0:
459,49,383865,2,2,P|495:103|458:214,1,160,6|0,0:0|0:0,0:0:0:0:
175,162,384315,2,2,P|229:126|318:142,1,160,2|0,0:0|0:0,0:0:0:0:
198,256,384765,2,0,P|154:258|118:240,1,80,2|0,0:0|0:0,0:0:0:0:
81,156,385065,5,6,0:0:0:0:
77,108,385140,1,0,0:0:0:0:
103,67,385215,1,0,0:0:0:0:
147,49,385290,1,0,0:0:0:0:
193,62,385365,2,0,P|210:74|224:90,1,40
216,169,385515,1,2,0:0:0:0:
247,205,385590,1,0,0:0:0:0:
294,216,385665,1,0,0:0:0:0:
338,197,385740,1,0,0:0:0:0:
361,156,385815,2,0,P|364:135|363:114,5,40
434,147,386265,5,6,0:0:0:0:
438,99,386340,1,0,0:0:0:0:
412,58,386415,1,0,0:0:0:0:
368,40,386490,1,0,0:0:0:0:
322,53,386565,2,0,P|305:65|291:81,1,40
299,160,386715,1,2,0:0:0:0:
268,196,386790,1,0,0:0:0:0:
221,207,386865,1,0,0:0:0:0:
177,188,386940,1,0,0:0:0:0:
154,147,387015,2,0,P|150:126|151:105,5,40
201,42,387465,6,2,P|273:41|320:115,1,160,6|0,0:0|0:0,0:0:0:0:
276,245,387915,2,2,P|224:195|239:115,1,160,2|0,0:0|0:0,0:0:0:0:
399,188,388365,2,0,P|389:226|356:248,1,80,2|0,0:0|0:0,0:0:0:0:
319,108,388665,2,2,P|376:76|476:105,1,160,6|0,0:0|0:0,0:0:0:0:
447,380,389115,2,2,P|382:379|310:304,1,160,2|0,0:0|0:0,0:0:0:0:
355,248,389565,1,2,0:0:0:0:
355,248,389640,1,0,0:0:0:0:
355,248,389715,1,0,0:0:0:0:
400,181,389865,5,6,0:0:0:0:
420,146,389940,1,0,0:0:0:0:
427,106,390015,1,0,0:0:0:0:
421,66,390090,1,0,0:0:0:0:
395,35,390165,2,0,P|376:23|356:21,1,40
321,93,390315,1,2,0:0:0:0:
286,113,390390,1,0,0:0:0:0:
246,120,390465,1,0,0:0:0:0:
206,114,390540,1,0,0:0:0:0:
175,88,390615,2,0,P|163:69|161:49,1,40
79,57,390765,1,2,0:0:0:0:
99,92,390840,1,0,0:0:0:0:
106,132,390915,2,0,P|107:157|101:175,1,40
43,228,391065,5,6,0:0:0:0:
256,192,391215,12,0,392115,0:0:0:0:
388,46,392265,5,6,0:0:0:0:
410,68,392340,1,0,0:0:0:0:
418,98,392415,1,0,0:0:0:0:
420,129,392490,1,0,0:0:0:0:
412,160,392565,1,2,0:0:0:0:
394,185,392640,1,0,0:0:0:0:
365,199,392715,1,0,0:0:0:0:
333,202,392790,1,0,0:0:0:0:
301,196,392865,1,2,0:0:0:0:
273,180,392940,1,0,0:0:0:0:
255,153,393015,1,0,0:0:0:0:
247,121,393090,1,0,0:0:0:0:
253,89,393165,2,0,P|262:69|276:57,3,40,2|0|0|0,0:0|0:0|0:0|0:0,0:0:0:0:
307,49,393465,5,6,0:0:0:0:
338,47,393540,1,0,0:0:0:0:
365,63,393615,1,0,0:0:0:0:
380,90,393690,1,0,0:0:0:0:
382,121,393765,1,2,0:0:0:0:
370,150,393840,1,0,0:0:0:0:
344,169,393915,1,0,0:0:0:0:
318,188,393990,1,0,0:0:0:0:
292,207,394065,1,2,0:0:0:0:
280,236,394140,1,0,0:0:0:0:
282,267,394215,1,0,0:0:0:0:
297,294,394290,1,0,0:0:0:0:
324,310,394365,1,2,0:0:0:0:
355,313,394440,1,0,0:0:0:0:
386,306,394515,1,0,0:0:0:0:
412,287,394590,1,0,0:0:0:0:
421,256,394665,6,0,P|424:240|421:217,3,40,4|0|0|0,0:0|0:0|0:0|0:0,0:0:0:0:
494,131,394965,2,0,P|476:145|467:159,3,40,2|0|0|0,0:0|0:0|0:0|0:0,0:0:0:0:
369,120,395265,2,0,P|382:129|397:148,3,40,4|0|0|0,0:0|0:0|0:0|0:0,0:0:0:0:
273,75,395565,2,0,P|289:78|312:75,3,40,2|0|0|0,0:0|0:0|0:0|0:0,0:0:0:0:
178,63,395865,6,0,P|155:69|142:80,3,40,0|0|0|0,0:0|0:0|0:0|0:0,0:0:0:0:
110,169,396165,2,0,P|133:163|146:153,3,40,2|0|0|0,0:0|0:0|0:0|0:0,0:0:0:0:
310,166,396465,1,6,0:0:0:0:
278,160,396540,1,0,0:0:0:0:
246,165,396615,2,0,P|223:171|211:182,1,40
114,270,396765,1,6,0:0:0:0:
146,276,396840,1,0,0:0:0:0:
178,271,396916,2,0,P|201:265|213:254,1,40
285,256,397065,5,0,0:0:0:0:
314,243,397140,1,0,0:0:0:0:
345,246,397215,1,0,0:0:0:0:
374,258,397290,1,0,0:0:0:0:
394,282,397365,2,0,P|399:296|398:325,3,40,2|0|0|0,0:0|0:0|0:0|0:0,0:0:0:0:
443,229,397665,1,0,0:0:0:0:
417,209,397740,1,0,0:0:0:0:
404,181,397815,1,0,0:0:0:0:
399,150,397890,1,0,0:0:0:0:
410,121,397965,2,0,P|419:109|445:96,3,40,2|0|0|0,0:0|0:0|0:0|0:0,0:0:0:0:
412,31,398265,5,0,0:0:0:0:
381,21,398340,1,0,0:0:0:0:
349,22,398415,1,0,0:0:0:0:
319,35,398490,1,0,0:0:0:0:
298,59,398565,2,0,P|287:80|283:103,3,40,2|0|0|0,0:0|0:0|0:0|0:0,0:0:0:0:
120,120,398865,1,0,0:0:0:0:
151,110,398940,1,0,0:0:0:0:
183,111,399015,1,0,0:0:0:0:
213,124,399090,1,0,0:0:0:0:
234,148,399165,2,0,P|245:169|249:192,3,40,2|0|0|0,0:0|0:0|0:0|0:0,0:0:0:0:
235,255,399465,5,4,0:0:0:0:
232,294,399540,1,0,0:0:0:0:
210,327,399615,1,0,0:0:0:0:
174,343,399690,1,0,0:0:0:0:
135,338,399765,1,2,0:0:0:0:
104,313,399840,1,0,0:0:0:0:
91,276,399915,1,0,0:0:0:0:
99,237,399990,1,0,0:0:0:0:
126,208,400065,1,0,0:0:0:0:
152,180,400140,1,0,0:0:0:0:
160,141,400215,1,0,0:0:0:0:
147,104,400290,1,0,0:0:0:0:
116,79,400365,1,2,0:0:0:0:
77,74,400440,1,0,0:0:0:0:
41,90,400515,2,0,P|25:105|18:124,1,40
53,196,400665,5,4,0:0:0:0:
69,232,400740,1,0,0:0:0:0:
104,250,400815,1,0,0:0:0:0:
144,246,400890,1,0,0:0:0:0:
176,223,400965,1,2,0:0:0:0:
177,214,401040,1,0,0:0:0:0:
178,206,401115,1,0,0:0:0:0:
180,198,401190,1,0,0:0:0:0:
212,174,401265,5,4,0:0:0:0:
252,171,401340,1,0,0:0:0:0:
286,189,401415,1,0,0:0:0:0:
303,225,401490,1,0,0:0:0:0:
281,294,401565,1,2,0:0:0:0:
297,329,401640,1,0,0:0:0:0:
331,347,401715,1,0,0:0:0:0:
371,344,401790,1,0,0:0:0:0:
431,305,401865,5,6,0:0:0:0:
256,192,401940,12,0,406515,0:0:0:0:
412,59,406670,5,4,0:0:0:0:
451,129,406970,2,0,P|416:174|320:152,1,160,2|0,0:0|0:0,0:0:0:0:
303,46,407870,1,2,0:0:0:0:
173,228,408470,1,4,0:3:0:0:
134,161,408770,1,4,0:3:0:0:
157,56,409070,6,0,P|211:4|293:31,1,160,4|2,0:0|0:0,0:0:0:0:
330,90,410017,1,0,0:0:0:0:
283,155,410333,2,0,P|272:219|303:270,1,120
360,234,410964,6,0,P|371:277|340:345,1,120
274,352,411700,1,4,0:0:0:0:
111,250,412804,5,0,0:0:0:0:
102,170,413172,2,0,P|143:135|205:152,1,120
239,208,413908,2,0,P|298:222|339:187,1,120
340,116,414644,5,4,0:0:0:0:
256,192,414695,12,0,415774,0:0:0:0:
332,124,415825,5,4,0:0:0:0:
256,192,415876,12,0,417058,0:0:0:0:
324,132,417109,5,4,0:0:0:0:
256,192,417161,12,0,418342,0:0:0:0:
316,140,418393,5,4,0:0:0:0:
256,192,418445,12,0,419524,0:0:0:0:
308,148,419575,5,4,0:0:0:0:
256,192,419627,12,0,421634,0:0:0:0:
300,156,421687,5,4,0:0:0:0:
292,164,422031,5,4,0:0:0:0:
256,192,422074,12,0,430445,0:0:0:0:
