osu file format v7

[General]
AudioFilename: Dragon Force - Heroes of Our Time.mp3
AudioLeadIn: 0
PreviewTime: 221719
Countdown: 1
SampleSet: Normal
StackLeniency: 0.7
Mode: 0
LetterboxInBreaks: 1

[Editor]
Bookmarks: 9619,28819,44419,63619,82819,210319,222019,241375,331889,351544,363100,406300
DistanceSpacing: 0.200000002980232
BeatDivisor: 4
GridSize: 8

[Metadata]
Title:Heroes of Our Time
Artist:DragonForce
Creator:[DBF]
Version:Knight
Source:
Tags:dragon force stream streams extreme speed metal

[Difficulty]
HPDrainRate:10
CircleSize:4
OverallDifficulty:7
SliderMultiplier:1.7
SliderTickRate:1

[Events]
//Background and Video events
0,0,"bg.jpg"
//Break Periods
2,332094,340594
//Storyboard Layer 0 (Background)
//Storyboard Layer 1 (Fail)
//Storyboard Layer 2 (Pass)
//Storyboard Layer 3 (Foreground)
//Storyboard Sound Samples
//Background Colour Transformations
3,100,0,0,0

[TimingPoints]
9619,300,4,1,0,80,1,0
22744,-200,4,1,0,80,0,0
42319,-100,4,1,0,80,0,0
61219,-200,4,1,0,80,0,0
82969,-100,4,1,0,80,0,0
130519,-200,4,1,0,80,0,0
132469,-100,4,1,0,80,0,0
219469,-200,4,1,0,60,0,0
220519,-200,4,1,0,40,0,0
221719,-200,4,2,0,60,0,0
228769,-100,4,2,0,40,0,0
229069,-200,4,2,0,30,0,0
229669,-200,4,2,0,20,0,0
230269,-200,4,2,0,10,0,0
230869,-100,4,1,0,80,0,0
233419,-200,4,1,0,80,0,0
241375,342.857142857143,4,1,0,70,1,0
248832,-200,4,1,0,70,0,0
256375,-100,4,1,0,70,0,0
284917,-100,4,1,0,90,0,0
331894,600,4,1,0,80,1,0
339094,-100,4,1,0,80,0,0
348094,-200,4,1,0,80,0,0
363100,300,4,1,0,80,1,0
401350,-200,4,1,0,80,0,0

[Colours]
Combo1 : 236,0,118
Combo2 : 89,172,255
Combo3 : 102,102,255
Combo4 : 255,255,213

[HitObjects]
160,104,9619,2,0,B|192:136|176:208,1,85
144,272,9919,2,0,B|192:256|240:272,1,85
312,216,10219,2,0,B|296:168|328:128,1,85
256,64,10519,2,0,B|168:72|96:168,1,170
168,216,10969,5,0
168,216,11119,2,0,B|264:264,1,85
344,272,11419,2,0,B|320:224|352:176,1,85
376,104,11719,2,0,B|192:136,1,170
128,96,12169,5,0
128,96,12319,2,0,B|104:200,1,85
136,264,12619,2,0,B|192:256|232:280,1,85
304,256,12919,2,0,B|360:248|400:280,1,85
456,336,13219,6,4,B|400:152,1,170
192,48,13819,6,4,B|144:248,1,170
320,344,14419,5,0
320,344,14719,2,0,B|416:344,1,85
400,40,15169,2,0,B|312:40,1,85
40,240,15619,5,0
40,240,15919,2,0,B|40:144,1,85
472,152,16369,2,0,B|472:256,1,85
320,320,16819,5,0
304,312,16894,1,0
288,304,16969,1,0
272,296,17044,1,0
256,288,17119,1,0
240,280,17194,1,0
224,272,17269,1,0
208,264,17344,1,0
192,256,17419,1,0
176,248,17494,1,0
160,240,17569,1,0
144,232,17644,1,0
128,224,17719,1,0
112,216,17794,1,0
96,208,17869,1,0
80,200,17944,1,0
96,200,18019,1,0
112,200,18094,1,0
128,200,18169,1,0
144,200,18244,1,0
160,200,18319,1,0
176,192,18394,1,0
192,192,18469,1,0
208,192,18544,1,0
224,192,18619,1,0
240,200,18694,1,0
256,200,18769,1,0
272,200,18844,1,0
288,200,18919,1,0
304,192,18994,1,0
320,192,19069,1,0
336,192,19144,1,0
352,192,19219,6,0,B|368:144|344:96,1,85
240,64,19519,2,0,B|224:104|240:152,1,85
360,200,19819,2,0,B|376:152|352:104,1,85
232,56,20119,2,0,B|216:96|232:144,1,85
320,272,20419,6,0,B|224:296,1,85
120,248,20719,2,0,B|152:152,1,85
248,112,21019,2,0,B|344:144,1,85
432,144,21319,1,0
456,312,21619,6,0,B|424:336|368:320,1,85
168,248,21919,2,0,B|128:216|72:224,1,85
80,296,22219,2,0,B|104:328|168:328,1,85
304,224,22519,2,0,B|344:200|392:200,1,85
440,256,22819,2,4,B|408:288|352:288,3,85
210,268,24019,5,0
207,262,24094,1,0
205,255,24169,1,0
205,248,24244,1,0
206,241,24319,1,0
208,235,24394,1,0
210,229,24469,1,0
213,223,24544,1,0
214,216,24619,1,0
214,209,24694,1,0
213,202,24769,1,0
211,195,24844,1,0
209,188,24919,2,0,B|261:116,1,85
256,192,25294,12,0,26419
48,40,26869,5,0
416,152,27319,5,0
312,176,27619,1,0
96,168,28069,5,0
280,240,28519,5,0
392,264,28819,2,0,B|432:256,9,28.3333333333333
72,192,30019,6,0,B|32:176,6,28.3333333333333
152,120,30919,1,0
248,152,31219,5,0
256,152,31319,1,0
264,152,31419,1,0
272,152,31519,1,0
280,152,31619,1,0
288,152,31719,1,0
296,152,31819,1,0
304,152,31919,1,0
312,152,32019,1,0
320,152,32119,1,0
256,288,32419,5,0
248,288,32519,1,0
240,288,32619,1,0
232,288,32719,1,0
224,288,32819,1,0
216,288,32919,1,0
208,288,33019,2,0,B|104:288,1,85
224,64,33619,5,0
232,64,33719,1,0
240,64,33819,1,0
248,64,33919,1,0
256,64,34019,1,0
264,64,34119,1,0
272,64,34219,1,0
280,64,34319,1,0
288,64,34419,1,0
296,64,34519,1,0
336,264,34819,5,0
328,264,34919,1,0
320,264,35019,1,0
312,264,35119,1,0
304,264,35219,1,0
296,264,35319,1,0
288,264,35419,2,0,B|184:264,1,85
224,48,36019,5,0
232,48,36119,1,0
240,48,36219,1,0
248,48,36319,1,0
256,48,36419,1,0
264,48,36519,1,0
272,48,36619,1,0
280,48,36719,1,0
288,48,36819,1,0
296,48,36919,1,0
344,336,37219,5,0
336,336,37319,1,0
328,336,37419,1,0
320,336,37519,1,0
312,336,37619,1,0
304,336,37719,1,0
296,336,37819,2,0,B|208:336,1,85
40,192,38419,6,0,B|112:176|120:80,1,141.666666666667
136,56,39019,6,0,B|256:152,1,141.666666666667
272,168,39619,6,0,B|384:152|432:208|432:304|368:352|272:320,2,340
336,104,44419,6,0,B|376:200,1,85
344,272,44719,2,0,B|288:256|224:280,1,85
176,224,45019,2,0,B|152:112,1,85
224,64,45319,2,0,B|256:160,1,85
328,192,45619,2,0,B|376:168|432:192|448:240|448:296|400:328|352:328|312:312|312:272|232:328,2,340
248,232,46969,5,0
248,232,47119,2,0,B|152:208,1,85
96,152,47419,2,0,B|88:104|112:64,1,85
192,32,47719,2,0,B|280:88,1,85
336,136,48019,2,0,B|384:112|440:136|456:184|456:240|408:272|360:272|320:256|320:216|240:272,2,340
256,192,49294,12,0,50119
256,48,50419,6,0,B|168:88,1,85
120,160,50719,2,0,B|224:192,1,85
304,192,51019,2,0,B|344:288,1,85
264,336,51319,2,0,B|160:312,1,85
96,248,51619,5,0
104,240,51694,1,0
112,232,51769,1,0
120,224,51844,1,0
128,216,51919,1,0
136,208,51994,1,0
144,200,52069,1,0
152,192,52144,1,0
160,184,52219,1,0
168,176,52294,1,0
176,168,52369,1,0
184,160,52444,1,0
192,152,52519,1,0
200,144,52594,1,0
208,136,52669,1,0
216,128,52744,1,0
224,120,52819,2,0,B|400:120,1,170,2|2
328,176,53269,2,0,B|240:176,1,85,0|2
176,232,53569,2,0,B|264:232,1,85,0|2
320,296,53869,1,2
320,296,54019,6,0,B|360:216,1,85
416,136,54319,2,0,B|376:144|328:128,1,85
232,88,54619,2,0,B|256:192,1,85
304,256,54919,2,0,B|208:240,1,85
152,168,55219,2,0,B|200:192|256:168|272:120|272:64|224:32|176:32|136:48|136:88|56:32,2,340
80,224,56569,5,0
80,224,56719,2,0,B|96:272|80:320,1,85
168,288,57019,2,0,B|200:256|256:248,1,85
312,192,57319,2,0,B|296:144|320:96,1,85
240,48,57619,2,0,B|288:24|344:48|360:96|360:152|312:184|264:184|224:168|224:128|144:184,2,340
176,104,58969,5,0
176,104,59119,2,0,B|160:144|104:176,1,85
64,240,59419,2,0,B|120:232|160:256,1,85
216,320,59719,2,0,B|176:336|112:320,1,85
224,248,60019,2,0,B|264:232|312:240,1,85
392,304,60319,2,0,B|352:328|296:312,1,85
232,304,60619,1,0
160,272,60769,1,0
120,208,60919,1,0
96,136,61069,1,0
104,56,61219,5,0
112,56,61294,1,0
120,56,61369,1,0
128,56,61444,1,0
136,56,61519,1,0
144,56,61594,1,0
152,56,61669,1,0
160,56,61744,1,0
168,56,61819,1,0
176,56,61894,1,0
184,56,61969,1,0
192,56,62044,1,0
200,56,62119,1,0
208,56,62194,1,0
216,56,62269,1,0
224,56,62344,1,0
232,56,62419,1,0
240,56,62494,1,0
248,56,62569,1,0
256,56,62644,1,0
264,56,62719,1,0
272,56,62794,1,0
280,56,62869,1,0
288,56,62944,1,0
296,56,63019,1,0
304,56,63094,1,0
312,56,63169,1,0
320,56,63244,1,0
328,56,63319,1,0
336,56,63394,1,0
344,56,63469,1,0
352,56,63544,1,0
360,56,63619,6,0,B|360:248,1,170
112,320,65119,5,0
112,320,65419,1,0
112,320,65719,1,0
112,320,66019,2,0,B|112:136,1,170
216,72,66919,5,0
216,72,67219,1,0
352,128,67519,1,0
352,128,67819,1,0
472,72,68119,1,0
472,72,68419,1,0
456,208,68719,1,0
456,208,69019,1,0
472,344,69319,1,0
472,344,69619,1,0
352,288,69919,1,0
352,288,70219,1,0
224,344,70519,1,0
224,344,70819,6,0,B|168:264,1,85
160,248,71269,2,0,B|256:232,1,85
272,248,71719,2,0,B|296:160,1,85
448,112,72319,1,0
448,112,72469,2,0,B|344:96,1,85
336,120,72919,6,0,B|248:136,1,85
176,104,73519,1,0
184,248,73819,1,0
336,232,74119,1,0
320,80,74419,1,0
152,80,74719,5,0
160,272,75019,1,0
368,256,75319,1,0
328,48,75619,6,0,B|352:80,2,21.25
248,80,75919,2,0,B|256:112,2,21.25
160,96,76219,2,0,B|160:136,2,21.25
72,112,76519,2,0,B|64:144,2,21.25
88,328,76819,6,0,B|80:304,2,21.25
176,296,77119,2,0,B|168:264,2,21.25
264,264,77419,2,0,B|264:240,2,21.25
360,248,77719,2,0,B|368:216,2,21.25
344,328,78019,5,0
432,336,78169,1,0
440,248,78319,1,0
448,160,78469,1,0
304,16,78619,5,0
296,96,78769,1,0
288,176,78919,1,0
368,192,79069,1,0
216,136,79219,5,0
232,216,79369,1,0
248,296,79519,1,0
168,320,79669,1,0
152,176,79819,5,0
128,96,79969,1,0
208,72,80119,1,0
288,48,80269,1,0
464,192,80419,6,0,B|432:216,2,21.25
328,112,80719,6,0,B|320:136,2,21.25
184,88,81019,6,0,B|176:120,8,21.25
256,192,81694,12,0,82819
88,216,83119,6,0,B|128:240|176:232,1,85
288,128,83419,2,0,B|248:112|192:128,1,85
248,256,83719,2,0,B|296:280|352:248,1,85
440,144,84019,2,0,B|392:128|344:152,1,85
288,200,84319,1,0
200,200,84469,1,0
120,168,84619,1,0
56,112,84769,1,0
136,88,84919,1,0
216,64,85069,1,0
296,48,85219,6,0,B|328:120|296:224,1,170
376,232,85669,6,0,B|336:304|224:320,1,170
280,256,86119,6,0,B|192:280|80:256,1,170
256,192,86494,12,0,87619
144,72,87919,6,0,B|192:160,1,85
144,224,88219,2,0,B|184:248|248:232,1,85
312,200,88519,2,0,B|384:136,1,85
344,64,88819,2,0,B|288:48|240:72,1,85
136,232,89119,2,0,B|176:256|240:240,1,85
352,56,89419,2,0,B|296:40|248:64,1,85
128,240,89719,2,0,B|168:264|232:248,1,85
344,312,90019,6,0,B|304:192|376:192|320:56,2,255
160,72,91219,6,0,B|200:192|128:192|192:336,2,255
48,216,92419,6,0,B|72:304,1,85
80,208,92719,2,0,B|144:304,1,85
104,184,93019,2,0,B|176:240,1,85
128,160,93319,2,0,B|216:192,1,85
432,136,93619,6,0,B|352:104,1,85
416,168,93919,2,0,B|312:160,1,85
408,200,94219,2,0,B|304:224,1,85
408,232,94519,2,0,B|336:280,1,85
216,72,94819,6,0,B|256:160,1,85
184,88,95119,2,0,B|200:200,1,85
152,96,95419,2,0,B|136:192,1,85
120,96,95719,2,0,B|72:184,1,85
56,312,96019,2,0,B|224:208|216:336|392:256,2,340
80,232,97369,5,0
80,232,97519,2,0,B|104:192|88:136,1,85
144,80,97819,2,0,B|232:48,1,85
304,80,98119,2,0,B|352:168,1,85
296,232,98419,6,0,B|184:232,1,85
184,184,98719,2,0,B|280:184,1,85
224,120,99019,2,0,B|136:120,1,85
176,56,99319,2,0,B|272:56,1,85
432,192,99619,6,0,B|432:96,1,85
368,136,99919,2,0,B|368:232,1,85
304,192,100219,2,0,B|304:88,1,85
240,160,100519,2,0,B|240:264,1,85
192,304,100819,2,0,B|160:176|192:48,2,255
288,320,101869,1,0
368,280,102019,6,0,B|432:272|488:296,1,85
296,248,102319,2,0,B|240:240|184:256,1,85
360,208,102619,2,0,B|416:216|464:200,1,85
288,176,102919,2,0,B|232:184|176:168,1,85
376,136,103219,2,0,B|424:144|480:128,1,85
256,104,103519,2,0,B|200:96|152:112,1,85
400,64,103819,2,0,B|448:56|488:64,1,85
248,32,104119,2,0,B|184:32|136:24,1,85
88,48,104419,5,0
84,55,104494,1,0
81,63,104569,1,0
80,71,104644,1,0
81,79,104719,1,0
83,87,104794,1,0
85,95,104869,1,0
88,102,104944,1,0
92,109,105019,1,0
96,116,105094,1,0
100,123,105169,1,0
103,130,105244,1,0
104,138,105319,1,0
105,146,105394,1,0
104,154,105469,1,0
103,162,105544,1,0
101,170,105619,1,0
97,177,105694,1,0
93,184,105769,1,0
88,191,105844,1,0
83,198,105919,1,0
78,205,105994,1,0
75,213,106069,1,0
73,221,106144,1,0
72,229,106219,1,0
74,237,106294,1,0
76,245,106369,1,0
79,252,106444,1,0
82,259,106519,1,0
85,266,106594,1,0
89,273,106669,1,0
94,279,106744,1,0
100,284,106819,6,0,B|146:300|207:270,1,85
272,200,107119,2,0,B|224:192|176:208,1,85
296,272,107419,2,0,B|344:280|384:256,1,85
472,176,107719,2,0,B|424:168|368:192,1,85
273,200,108019,1,0
264,202,108094,1,0
255,201,108169,1,0
246,199,108244,1,0
237,196,108319,1,0
229,192,108394,1,0
221,188,108469,1,0
212,186,108544,1,0
203,185,108619,1,0
194,185,108694,1,0
185,186,108769,1,0
176,188,108844,1,0
168,191,108919,1,0
160,194,108994,1,0
152,197,109069,1,0
143,199,109144,1,0
136,201,109219,1,0
256,192,109294,12,0,110419
256,88,111619,6,0,B|168:112,1,85
72,96,111919,2,0,B|56:136|72:192,1,85
176,208,112219,2,0,B|272:224,1,85
352,184,112519,2,0,B|384:232|360:280,1,85
288,320,112819,6,0,B|192:336,1,85
80,296,113119,2,0,B|176:312,1,85
280,264,113419,2,0,B|176:280,1,85
64,240,113719,2,0,B|168:256,1,85
224,248,114019,6,0,B|248:200|232:160,1,85
168,80,114319,2,0,B|272:64,1,85
360,32,114619,2,0,B|336:80|368:120,1,85
392,312,114919,2,0,B|416:272|392:224,1,85
272,64,115219,6,0,B|256:112|296:160,1,85
312,312,115519,2,0,B|336:272|312:216,1,85
184,88,115819,2,0,B|168:128|192:176,1,85
232,320,116119,2,0,B|248:272|216:232,1,85
96,120,116419,6,0,B|168:160|224:88|360:144,2,255
408,240,117619,6,0,B|336:280|280:208|144:264,2,255
128,160,118819,6,0,B|176:144|224:152,1,85
232,224,119119,2,0,B|192:240|144:224,1,85
424,72,119569,5,0
424,72,119719,5,0
320,280,120019,5,0
316,272,120094,1,0
315,263,120169,1,0
316,254,120244,1,0
318,245,120319,1,0
321,237,120394,1,0
324,229,120469,1,0
322,220,120544,1,0
318,212,120619,1,0
314,204,120694,1,0
308,197,120769,1,0
302,190,120844,1,0
303,181,120919,1,0
305,172,120994,1,0
307,163,121069,1,0
307,154,121144,1,0
300,148,121219,6,0,B|252:153|203:112,1,85,2|0
88,192,121519,2,0,B|120:224|112:280,1,85,0|2
256,312,121819,2,0,B|280:272|328:264,1,85
424,184,122119,2,0,B|392:144|408:96,1,85,2|2
272,56,122419,6,0,B|224:72|176:48,1,85,2|0
64,152,122719,2,0,B|96:184|88:240,1,85,0|2
248,280,123019,2,0,B|264:240|320:232,1,85
320,104,123319,2,2,B|264:112|232:64,1,85
160,120,123619,6,0,B|168:168|144:216,1,85,2|0
224,208,123919,6,0,B|248:168|304:160,1,85,0|2
368,160,124219,6,0,B|408:192|408:256,1,85,0|2
344,280,124519,6,0,B|304:304|240:272,1,85,0|2
56,240,124819,6,0,B|96:216|152:232,1,85,0|2
352,288,125119,6,0,B|312:312|248:280,1,85,0|2
48,232,125419,6,0,B|88:208|144:224,1,85,0|2
208,240,125719,5,0
424,264,126019,5,0
417,259,126094,1,0
412,251,126169,1,0
409,242,126244,1,0
408,233,126319,1,0
410,224,126394,1,0
414,216,126469,1,0
419,209,126544,1,0
425,203,126619,1,0
432,198,126694,1,0
438,192,126769,1,0
441,184,126844,1,0
440,175,126919,1,0
436,167,126994,1,0
430,160,127069,1,0
424,153,127144,1,0
417,147,127219,1,0
409,143,127294,5,0
144,40,127519,1,0
88,264,127819,1,0
344,336,128119,1,0
344,104,128419,5,0
88,88,129019,6,0,B|104:128|96:184,1,85
256,328,129619,6,0,B|248:280|272:232,1,85
424,88,130219,6,0,B|448:128|432:184,1,85
256,328,130819,6,0,B|232:320|200:328,10,42.5
352,336,132619,1,0
352,248,132919,1,0
360,152,133219,6,0,B|264:128,1,85
176,80,133519,2,0,B|160:120|168:192,1,85
232,240,133819,2,0,B|320:232,1,85
416,200,134119,2,0,B|440:240|432:288,1,85
344,336,134419,6,0,B|288:256|344:176|344:176|256:176|192:96,2,340
248,328,135769,5,0
248,328,135919,2,0,B|192:344|144:320,1,85
88,256,136219,2,0,B|144:240|192:256,1,85
272,248,136519,2,0,B|288:192|272:152,1,85
200,104,136819,6,0,B|288:128|368:96|368:96|344:184|408:256,2,340
96,72,138169,5,0
96,72,138319,2,0,B|96:120|40:160,1,85
128,208,138619,2,0,B|120:256|160:296,1,85
240,248,138919,2,0,B|256:208|240:160,1,85
256,72,139219,2,0,B|304:80|352:56,1,85
424,112,139519,2,0,B|408:152|440:208,1,85
360,336,139819,2,0,B|376:288|352:240,1,85
256,136,140119,2,0,B|248:184|272:224,1,85
304,288,140419,5,0
168,232,140719,5,0
40,192,141019,5,0
208,136,141319,5,0
344,88,141619,5,0
344,88,142219,5,0
344,96,142294,1,0
344,104,142369,1,0
344,112,142444,1,0
344,120,142519,1,0
344,128,142594,1,0
344,136,142669,1,0
344,144,142744,1,0
344,152,142819,6,0,B|344:248,1,85
272,344,143119,2,0,B|272:256,1,85
200,152,143419,2,0,B|200:248,1,85
128,344,143719,2,0,B|128:256,1,85
80,152,144019,6,0,B|248:72|256:184|424:112,2,340
48,248,145369,5,0
48,248,145519,2,0,B|96:256|112:320,1,85
208,336,145819,2,0,B|224:288|280:272,1,85
352,224,146119,2,0,B|336:176|264:168,1,85
184,184,146419,6,0,B|168:120|200:80|264:56|328:72|368:120|368:120|440:56,2,340
208,280,147769,5,0
208,280,147919,2,0,B|256:312|312:296,1,85
400,336,148219,2,0,B|384:248,1,85
408,152,148519,2,0,B|368:136|312:160,1,85
232,208,148819,2,0,B|216:104,1,85
160,40,149119,2,0,B|120:64|72:48,1,85
48,144,149419,2,0,B|32:240,1,85
88,312,149719,2,0,B|184:336,1,85
296,312,150019,5,0
301,305,150094,1,0
306,298,150169,1,0
310,290,150244,1,0
312,281,150319,1,0
312,272,150394,1,0
310,263,150469,1,0
308,254,150544,1,0
304,246,150619,1,0
298,239,150694,1,0
291,233,150769,1,0
287,225,150844,1,0
287,216,150919,1,0
288,207,150994,1,0
291,199,151069,1,0
295,191,151144,1,0
300,184,151219,1,0
305,177,151294,1,0
310,170,151369,1,0
313,162,151444,1,0
315,153,151519,1,0
314,144,151594,1,0
311,135,151669,1,0
306,127,151744,1,0
300,120,151819,1,0
294,113,151894,1,0
287,107,151969,1,0
286,98,152044,1,0
288,89,152119,1,0
292,81,152194,1,0
296,73,152269,1,0
301,66,152344,1,0
307,60,152419,6,0,B|404:51,1,85
120,192,153619,6,0,B|32:200,1,85
320,304,154819,6,0,B|376:320,2,42.5
464,208,155119,2,0,B|416:216,2,42.5
216,192,155419,2,0,B|264:200,2,42.5
496,104,155719,2,0,B|448:112,2,42.5
176,88,156019,2,0,B|224:96,15,42.5
248,104,157219,6,0,B|304:176,1,85
64,336,158419,6,0,B|112:256,1,85
384,88,159619,6,0,B|448:168|368:256,1,170
320,296,160069,1,0
240,288,160219,1,0
160,304,160369,1,0
80,296,160519,1,0
88,216,160669,1,0
80,136,160819,1,0
80,56,160969,2,0,B|168:80,1,85
432,192,161419,2,0,B|352:248,2,85
168,256,162019,6,0,B|152:208|176:160,1,85
264,176,162319,2,0,B|352:152,1,85
424,104,162619,2,0,B|448:144|424:192,1,85
344,232,162919,2,0,B|256:256,1,85
176,288,163219,6,0,B|120:264|64:280,1,85
200,136,163519,2,0,B|232:104|296:112,1,85
416,216,163819,2,0,B|392:256|416:312,1,85
152,192,164119,2,0,B|112:176|56:200,1,85
352,88,164419,5,0
256,192,164494,12,0,165619
256,192,165694,12,0,166819
256,192,166894,12,0,169219
256,88,171619,6,0,B|152:88,1,85
168,192,171919,2,0,B|168:304,1,85
280,288,172219,2,0,B|376:288,1,85
384,184,172519,2,0,B|376:88,1,85
240,80,172819,6,0,B|152:88,1,85
152,208,173119,2,0,B|168:320,1,85
296,312,173419,2,0,B|400:296,1,85
408,168,173719,2,0,B|344:80,1,85
200,80,174019,6,0,B|112:120,1,85
128,256,174319,2,0,B|184:336,1,85
256,192,174544,12,0,175219
256,96,175519,5,0
376,288,175819,1,0
128,288,176119,1,0
184,112,176419,6,0,B|280:160,1,85
344,152,176719,2,0,B|392:264,1,85
304,216,177019,2,0,B|272:312,1,85
232,240,177319,2,0,B|152:280,1,85
176,72,177619,6,0,B|264:32,1,85
232,120,177919,2,0,B|344:112,1,85
280,176,178219,2,0,B|368:208,1,85
176,328,178519,6,0,B|216:240,1,85
248,312,178819,2,0,B|320:256,1,85
320,336,179119,2,0,B|416:304,1,85
424,160,179419,2,0,B|368:80,1,85
352,160,179719,2,0,B|256:128,1,85
288,200,180019,2,0,B|120:240,1,170
256,40,181219,5,0
216,192,183469,6,0,B|320:192,1,85
256,344,186019,5,0
40,192,187219,5,0
256,40,188419,5,0
256,192,188494,12,0,190819
144,280,193219,5,0
137,274,193294,1,0
131,267,193369,1,0
127,259,193444,1,0
124,250,193519,1,0
122,241,193594,1,0
121,232,193669,1,0
122,223,193744,1,0
125,215,193819,1,0
130,208,193894,1,0
135,201,193969,1,0
141,195,194044,1,0
148,190,194119,1,0
155,185,194194,1,0
162,181,194269,1,0
169,178,194344,1,0
177,176,194419,1,0
185,174,194494,1,0
193,173,194569,1,0
201,173,194644,1,0
209,174,194719,1,0
217,176,194794,1,0
225,178,194869,1,0
232,181,194944,1,0
239,185,195019,1,0
245,190,195094,1,0
251,195,195169,1,0
256,201,195244,1,0
261,207,195319,1,0
265,214,195394,1,0
267,221,195469,1,0
269,229,195544,1,0
268,237,195619,6,0,B|305:265|370:253,1,85
440,152,195919,2,0,B|400:136|344:144,1,85
224,296,196219,2,0,B|272:328|336:328,1,85
456,80,196519,2,0,B|408:64|344:72,1,85
304,104,196819,6,0,B|256:112|200:96,1,85
152,64,197119,2,0,B|144:160,1,85
168,344,197419,2,0,B|176:256,1,85
248,160,197719,2,0,B|256:272,1,85
256,336,198019,1,0
256,192,198094,12,0,199219
256,64,200419,6,0,B|312:72|344:112,1,85
336,224,200719,2,0,B|304:264|264:272,1,85
160,208,201019,2,0,B|136:160|168:120,1,85
376,216,201319,2,0,B|392:256|352:312,1,85
240,344,201619,6,0,B|184:328|176:272,1,85
216,168,201919,2,0,B|248:136|320:128,1,85
192,96,202219,2,0,B|152:80|104:88,1,85
144,152,202519,2,0,B|168:192|144:248,1,85
216,200,202819,6,0,B|264:216|312:192,1,85
360,240,203119,2,0,B|344:288|368:336,1,85
296,288,203419,2,0,B|256:272|208:296,1,85
144,328,203719,2,0,B|104:224,1,85
48,64,204019,5,0
448,312,204319,1,0
64,336,204619,1,0
368,40,204919,1,0
176,144,205219,6,0,B|136:232,1,85
216,240,205519,2,0,B|256:232|304:240,1,85
272,168,205819,2,0,B|296:136|352:128,1,85
280,88,206119,2,0,B|248:56|256:8,1,85
208,64,206419,6,0,B|168:80|112:56,1,85
160,128,206719,2,0,B|136:168|72:176,1,85
160,208,207019,2,0,B|176:248|152:296,1,85
216,248,207319,2,0,B|264:264|280:320,1,85
288,232,207619,6,0,B|464:168,1,170
384,216,208069,2,0,B|224:144,1,170
288,96,208519,2,0,B|304:288,1,170
256,192,208894,12,0,210019
144,136,210319,6,0,B|200:128,2,42.5
336,176,210619,2,0,B|288:168,2,42.5
136,224,210919,2,0,B|184:216,2,42.5
344,272,211219,6,0,B|296:264,2,42.5
128,328,211519,2,0,B|176:320,2,42.5
424,336,211819,2,0,B|376:344,2,42.5
40,216,212119,2,0,B|88:224,2,42.5
464,72,212419,6,0,B|400:80,2,42.5
40,40,212719,2,0,B|88:48,2,42.5
184,128,213019,2,0,B|208:88,2,42.5
352,120,213319,2,0,B|352:176,2,42.5
400,288,213619,2,0,B|352:296,2,42.5
200,296,213919,2,0,B|192:248,2,42.5
256,192,214144,12,0,214819
256,40,217219,5,0
40,176,217819,6,0,B|136:160,1,85
472,232,218419,2,0,B|376:216,1,85
64,296,219019,2,0,B|160:280,1,85
464,336,219619,2,0,B|376:344|288:296,1,170
64,256,220819,2,0,B|152:240|240:272,1,170
352,160,222019,5,2
272,136,222319,1,2
192,136,222619,1,2
120,168,222919,1,2
96,240,223219,2,0,B|184:192|176:256|280:240,1,170,2|2
320,192,224119,1,2
392,152,224419,6,0,B|432:216|400:328,2,170,2|2|2
320,112,225919,1,2
240,88,226219,2,0,B|200:104|144:88,1,85,2|0
48,168,226819,6,0,B|96:152|144:168,1,85,2|0
248,240,227419,2,0,B|208:224|160:240,1,85,2|0
40,304,228019,2,2,B|120:272|224:296,1,170,2|2
280,320,228919,5,0
280,320,229219,2,0,B|376:288,1,85,6|0
304,232,229819,2,0,B|352:160,1,85,2|0
272,160,230419,2,0,B|256:64,1,85,6|0
56,48,231619,6,0,B|160:56,1,85
464,104,232819,2,0,B|352:120,1,85
80,272,234019,2,0,B|256:320|448:272,2,340
256,40,237019,1,0
256,192,237619,2,0,B|256:256,2,42.5
256,192,238819,1,0
256,192,238894,12,0,241375
96,72,241717,5,0
88,80,241803,1,0
80,88,241889,1,0
144,160,242060,1,0
144,168,242146,1,0
144,176,242232,1,0
232,224,242403,1,0
240,232,242489,1,0
248,240,242575,1,0
352,264,242746,5,0
360,264,242832,1,0
368,264,242917,1,0
496,208,243089,1,0
488,208,243175,1,0
480,208,243260,1,0
352,176,243432,1,0
360,176,243517,1,0
368,176,243603,1,0
440,88,243775,1,0
432,88,243860,1,0
424,88,243946,1,0
296,160,244117,5,0
292,152,244203,1,0
285,146,244289,1,0
277,141,244375,1,0
269,137,244460,1,0
260,134,244546,1,0
251,133,244632,1,0
242,134,244717,1,0
234,137,244803,1,0
227,142,244889,1,0
221,148,244975,1,0
216,154,245060,1,0
212,161,245146,1,0
204,164,245232,1,0
195,166,245317,1,0
186,166,245403,1,0
177,165,245489,1,0
168,162,245575,1,0
160,158,245660,1,0
152,153,245746,1,0
145,147,245832,1,0
139,140,245917,1,0
133,133,246003,1,0
124,131,246089,1,0
115,131,246175,1,0
107,134,246260,1,0
99,137,246346,1,0
91,140,246432,1,0
84,144,246517,6,0,B|44:214|74:325,1,170
144,280,247032,5,0
144,280,247203,2,0,B|240:304,1,85
392,192,247546,2,0,B|288:208,1,85
208,248,247889,2,0,B|176:200|208:144,1,85
288,104,248232,2,0,B|384:136,1,85
304,176,248575,2,0,B|352:256,1,85
280,248,248917,2,0,B|272:336,2,85
256,192,249689,12,0,250975
256,192,251060,12,0,252346
176,80,252689,6,0,B|152:96,2,21.25
336,120,253032,2,0,B|368:104,2,21.25
160,224,253375,2,0,B|128:240,2,21.25
416,224,253717,2,0,B|448:216,2,21.25
168,328,254060,2,0,B|136:344,2,21.25
232,272,254403,1,0
256,200,254575,1,0
232,128,254746,1,0
176,72,254917,1,0
98,54,255089,5,0
94,56,255175,1,0
91,59,255260,1,0
90,63,255346,1,0
89,67,255432,1,0
89,71,255517,1,0
90,75,255603,1,0
91,79,255689,1,0
92,82,255775,1,0
94,85,255860,1,0
96,88,255946,1,0
98,91,256032,1,0
99,94,256117,1,0
99,98,256203,1,0
99,102,256289,1,0
98,106,256375,1,0
96,110,256460,6,0,B|151:186,1,85
226,174,256803,2,0,B|242:278,1,85
322,262,257146,2,0,B|298:366,1,85
384,320,257489,2,0,B|456:248,1,85
392,192,257832,5,0
386,186,257917,1,0
378,181,258003,1,0
370,177,258089,1,0
362,173,258175,1,0
354,169,258260,1,0
345,166,258346,1,0
336,163,258432,1,0
327,161,258517,1,0
318,159,258603,1,0
309,157,258689,1,0
300,156,258775,1,0
291,156,258860,1,0
282,157,258946,1,0
273,158,259032,1,0
264,160,259117,1,0
255,162,259203,6,0,B|180:184|84:159,1,170
425,120,259889,6,0,B|457:200|425:296,1,170
144,320,260575,5,0
140,312,260660,1,0
137,304,260746,1,0
134,295,260832,1,0
131,286,260917,1,0
129,277,261003,1,0
127,268,261089,1,0
126,259,261175,1,0
126,250,261260,1,0
126,241,261346,1,0
126,232,261432,1,0
127,223,261517,1,0
128,214,261603,1,0
130,205,261689,1,0
133,197,261775,1,0
135,188,261860,1,0
138,181,261946,1,0
142,173,262032,1,0
147,166,262117,1,0
153,160,262203,1,0
159,154,262289,1,0
166,149,262375,1,0
173,145,262460,1,0
181,142,262546,1,0
189,139,262632,1,0
197,137,262717,1,0
205,136,262803,1,0
213,136,262889,1,0
221,136,262975,1,0
229,136,263060,1,0
237,137,263146,1,0
245,138,263232,1,0
256,144,263317,6,0,B|304:160|368:144,1,85
416,136,263660,1,0
417,144,263746,1,0
418,152,263832,1,0
418,160,263917,1,0
418,168,264003,1,0
416,176,264089,1,0
414,184,264175,1,0
411,192,264260,1,0
407,199,264346,1,0
401,205,264432,1,0
394,209,264517,1,0
388,215,264603,1,0
380,218,264689,1,0
371,220,264775,1,0
362,222,264860,1,0
353,223,264946,1,0
344,224,265032,1,0
335,223,265117,1,0
326,221,265203,1,0
319,215,265289,1,0
312,210,265375,1,0
306,204,265460,1,0
300,197,265546,1,0
295,189,265632,1,0
292,180,265717,1,0
291,171,265803,1,0
291,162,265889,1,0
293,153,265975,1,0
296,145,266060,1,0
296,136,266146,1,0
292,128,266232,1,0
286,121,266317,1,0
279,114,266403,1,0
272,109,266489,1,0
264,105,266575,1,0
256,101,266660,1,0
248,97,266746,1,0
239,94,266832,1,0
230,91,266917,1,0
221,89,267003,1,0
212,88,267089,1,0
203,87,267175,1,0
194,87,267260,1,0
185,87,267346,1,0
176,87,267432,1,0
167,87,267517,1,0
158,88,267603,1,0
149,89,267689,1,0
140,91,267775,1,0
131,93,267860,1,0
122,95,267946,1,0
113,97,268032,1,0
105,100,268117,1,0
97,103,268203,1,0
89,107,268289,1,0
81,111,268375,1,0
74,116,268460,1,0
67,121,268546,1,0
61,127,268632,1,0
56,134,268717,1,0
50,140,268803,6,0,B|48:197,2,42.5
184,208,269146,6,0,B|200:248,2,42.5
344,216,269489,6,0,B|392:248,2,42.5
456,112,269832,6,0,B|512:120,2,42.5
304,64,270175,5,0
299,71,270260,1,0
296,79,270346,1,0
294,87,270432,1,0
293,95,270517,1,0
292,103,270603,1,0
292,111,270689,1,0
292,119,270775,1,0
293,127,270860,1,0
295,135,270946,1,0
297,143,271032,1,0
299,151,271117,1,0
302,158,271203,1,0
303,166,271289,1,0
303,174,271375,1,0
303,182,271460,1,0
300,190,271546,6,0,B|251:219|151:208,2,127.5
120,112,272232,6,0,B|184:88|264:96,2,127.5
72,264,272917,5,0
79,267,273003,1,0
87,268,273089,1,0
95,268,273175,1,0
103,268,273260,1,0
111,267,273346,1,0
119,265,273432,1,0
127,263,273517,1,0
135,261,273603,1,0
143,260,273689,1,0
151,259,273775,1,0
159,258,273860,1,0
167,258,273946,1,0
175,258,274032,1,0
183,258,274117,1,0
191,258,274203,1,0
199,259,274289,6,0,B|288:311,1,85
416,256,274632,2,0,B|384:352,1,85
312,192,274975,2,0,B|360:112,1,85
224,104,275317,2,0,B|128:112,1,85
80,216,275660,6,0,B|96:312,1,85
152,240,276003,2,0,B|224:312,1,85
224,216,276346,2,0,B|312:232,1,85
288,168,276689,2,0,B|368:136,1,85
304,96,277032,5,0
296,99,277117,1,0
287,100,277203,1,0
278,101,277289,1,0
269,101,277375,1,0
260,101,277460,1,0
251,100,277546,1,0
242,98,277632,1,0
233,96,277717,1,0
224,94,277803,1,0
215,93,277889,1,0
206,93,277975,1,0
197,93,278060,1,0
188,93,278146,1,0
179,95,278232,1,0
171,97,278317,1,0
163,100,278403,1,0
154,101,278489,1,0
145,101,278575,1,0
136,100,278660,1,0
127,98,278746,6,0,B|104:191,1,85
224,344,279089,2,0,B|216:256,1,85
296,96,279432,2,0,B|304:192,1,85
384,336,279775,5,0
386,328,279860,1,0
386,319,279946,1,0
384,310,280032,1,0
381,302,280117,1,0
377,294,280203,1,0
375,285,280289,1,0
374,276,280375,1,0
374,267,280460,1,0
375,258,280546,1,0
377,249,280632,1,0
379,240,280717,1,0
379,231,280803,1,0
377,222,280889,1,0
375,213,280975,1,0
372,204,281060,1,0
369,195,281146,1,0
367,186,281232,1,0
367,177,281317,1,0
368,168,281403,1,0
370,159,281489,1,0
370,150,281575,1,0
368,141,281660,1,0
366,132,281746,1,0
363,123,281832,1,0
364,114,281917,1,0
365,105,282003,1,0
366,96,282089,1,0
364,87,282175,1,0
362,78,282260,1,0
362,66,282346,1,0
362,57,282432,1,0
362,48,282517,6,0,B|29:154,1,340
104,192,283460,1,0
104,192,283717,1,0
104,192,283889,2,0,B|448:264,1,340
336,104,285260,5,0
328,104,285346,1,0
320,104,285432,1,0
312,104,285517,1,0
304,104,285603,1,0
296,104,285689,1,0
288,104,285775,1,0
280,104,285860,1,0
272,104,285946,1,0
264,104,286032,1,0
256,104,286117,1,0
248,104,286203,1,0
240,104,286289,1,0
232,104,286375,1,0
224,104,286460,1,0
216,104,286546,1,0
304,152,286632,1,0
296,160,286717,1,0
288,168,286803,1,0
280,176,286889,1,0
272,184,286975,1,0
264,192,287060,1,0
256,200,287146,1,0
248,208,287232,1,0
240,216,287317,1,0
232,224,287403,1,0
224,232,287489,1,0
216,240,287575,1,0
208,248,287660,1,0
200,256,287746,1,0
192,264,287832,1,0
184,272,287917,1,0
104,208,288003,1,0
104,216,288089,1,0
104,224,288175,1,0
104,232,288260,1,0
104,240,288346,1,0
104,248,288432,1,0
104,256,288518,1,0
104,264,288604,1,0
104,272,288689,2,0,B|160:296|248:272,1,127.5
240,272,289032,2,0,B|304:256|392:272,1,127.5
376,272,289375,6,0,B|408:192|384:80,1,170
160,80,290060,6,0,B|136:160|160:256,1,170
112,328,290746,5,0
120,328,290832,1,0
128,328,290917,1,0
136,328,291003,1,0
144,328,291089,1,0
152,328,291175,1,0
160,328,291260,1,0
168,328,291346,1,0
176,328,291432,1,0
184,328,291517,1,0
192,328,291603,1,0
200,328,291689,1,0
208,328,291775,1,0
216,328,291860,1,0
224,328,291946,1,0
232,328,292032,1,0
192,256,292117,1,0
200,248,292203,1,0
208,240,292289,1,0
216,232,292375,1,0
224,224,292460,1,0
232,216,292546,1,0
240,208,292632,1,0
248,200,292717,1,0
256,192,292803,1,0
264,184,292889,1,0
272,176,292975,1,0
280,168,293060,1,0
288,160,293146,1,0
296,152,293232,1,0
304,144,293317,1,0
312,136,293403,1,0
320,128,293489,1,0
256,192,293575,12,4,294860
376,128,296232,5,0
368,128,296317,1,0
360,128,296403,1,0
352,128,296489,1,0
344,128,296575,1,0
336,128,296660,1,0
328,128,296746,1,0
320,128,296832,1,0
312,128,296917,1,0
304,128,297003,1,0
296,128,297089,1,0
288,128,297175,1,0
280,128,297260,1,0
272,128,297346,1,0
264,128,297432,1,0
256,128,297517,1,0
320,200,297603,1,0
312,208,297689,1,0
304,216,297775,1,0
296,224,297860,1,0
288,232,297946,1,0
280,240,298032,1,0
272,248,298117,1,0
264,256,298203,1,0
256,264,298289,1,0
248,272,298375,1,0
240,280,298460,1,0
232,288,298546,1,0
224,296,298632,1,0
216,304,298717,1,0
208,312,298803,1,0
200,320,298889,1,0
160,240,298975,1,0
160,232,299060,1,0
160,224,299146,1,0
160,216,299232,1,0
160,208,299317,1,0
160,200,299403,1,0
160,192,299489,1,0
160,184,299575,1,0
160,176,299660,2,0,B|240:160|320:176,1,127.5
296,168,300003,2,0,B|344:216|336:304,1,127.5
344,288,300346,6,0,B|264:304|168:288,1,170
160,80,301032,6,0,B|248:64|344:80,1,170
88,192,301717,5,0
96,192,301803,1,0
104,192,301889,1,0
112,192,301975,1,0
120,192,302060,1,0
128,192,302146,1,0
136,192,302232,1,0
144,192,302317,1,0
152,192,302403,1,0
160,192,302489,1,0
168,192,302575,1,0
176,192,302660,1,0
184,192,302746,1,0
192,192,302832,1,0
200,192,302917,1,0
208,192,303003,1,0
232,280,303089,1,0
240,272,303175,1,0
248,264,303260,1,0
256,256,303346,1,0
264,248,303432,1,0
272,240,303517,1,0
280,232,303603,1,0
288,224,303689,1,0
296,216,303775,1,0
304,208,303860,1,0
312,200,303946,1,0
320,192,304032,1,0
328,184,304117,1,0
336,176,304203,1,0
344,168,304289,1,0
352,160,304375,1,0
416,240,304460,1,0
408,240,304546,1,0
400,240,304632,1,0
392,240,304717,1,0
384,240,304803,1,0
376,240,304889,1,0
368,240,304975,1,0
360,240,305060,1,0
352,240,305146,1,0
344,240,305232,1,0
336,240,305317,1,0
328,240,305403,1,0
320,240,305489,1,0
312,240,305575,1,0
304,240,305660,1,0
296,240,305746,1,0
288,240,305832,1,0
280,240,305917,1,0
272,240,306003,1,0
264,240,306089,1,0
256,240,306175,1,0
248,240,306260,1,0
240,240,306346,1,0
232,240,306432,1,0
224,240,306517,1,0
216,240,306603,1,0
208,240,306689,1,0
200,240,306775,1,0
192,240,306860,1,0
184,240,306946,1,0
176,240,307032,1,0
168,240,307117,1,0
160,240,307203,6,0,B|104:240,2,42.5
168,144,307546,6,0,B|120:120,2,42.5
264,96,307889,6,0,B|232:56,2,42.5
376,96,308232,6,0,B|384:40,2,42.5
408,192,308575,5,0
403,199,308660,1,0
396,204,308746,1,0
389,209,308832,1,0
381,213,308917,1,0
373,216,309003,1,0
364,218,309089,1,0
355,220,309175,1,0
346,221,309260,1,0
337,221,309346,1,0
328,220,309432,1,0
319,218,309517,1,0
310,216,309603,1,0
301,213,309689,1,0
293,209,309775,1,0
285,206,309860,1,0
276,203,309946,6,0,B|215:84,2,127.5
160,320,310632,6,0,B|184:192,2,127.5
104,232,311317,5,0
111,227,311403,1,0
118,223,311489,1,0
125,219,311575,1,0
133,216,311660,1,0
141,213,311746,1,0
149,211,311832,1,0
157,209,311917,1,0
165,207,312003,1,0
173,206,312089,1,0
181,205,312175,1,0
189,204,312260,1,0
197,204,312346,1,0
205,204,312432,1,0
213,204,312517,1,0
221,205,312603,1,0
296,264,312689,1,0
300,256,312775,1,0
302,248,312860,1,0
303,239,312946,1,0
302,230,313032,1,0
300,221,313117,1,0
297,212,313203,1,0
293,204,313289,1,0
288,197,313375,1,0
283,190,313460,1,0
277,183,313546,1,0
271,176,313632,1,0
264,170,313717,1,0
257,164,313803,1,0
249,159,313889,1,0
241,154,313975,1,0
152,112,314060,1,0
147,119,314146,1,0
144,127,314232,1,0
141,135,314317,1,0
138,143,314403,1,0
136,151,314489,1,0
135,159,314575,1,0
135,167,314660,1,0
136,175,314746,1,0
138,183,314832,1,0
140,191,314917,1,0
143,198,315003,1,0
147,205,315089,1,0
151,212,315175,1,0
157,217,315260,1,0
163,222,315346,1,0
216,296,315432,1,0
220,288,315517,1,0
225,281,315603,1,0
231,275,315689,1,0
238,270,315775,1,0
245,265,315860,1,0
253,262,315946,1,0
261,259,316032,1,0
269,256,316117,1,0
277,254,316203,1,0
285,252,316289,1,0
293,251,316375,1,0
301,250,316460,1,0
309,249,316546,1,0
317,248,316632,1,0
325,248,316717,1,0
408,296,316803,1,0
412,288,316889,1,0
415,280,316975,1,0
415,271,317060,1,0
415,262,317146,1,0
412,253,317232,1,0
408,245,317317,1,0
403,237,317403,1,0
400,228,317489,1,0
401,219,317575,1,0
405,211,317660,1,0
410,204,317746,1,0
409,195,317832,6,0,B|256:90,1,170
96,184,318517,6,0,B|72:240|112:328,1,127.5
104,320,318860,2,0,B|168:288|248:304,1,127.5
232,312,319203,2,0,B|216:248|256:176,1,127.5
240,192,319546,2,0,B|408:224|456:64,1,255
472,160,320232,2,0,B|400:96|288:128,1,170
248,160,320746,6,0,B|160:144,1,85
304,216,321089,2,0,B|408:192,1,85
224,232,321432,2,0,B|208:336,1,85
280,184,321775,2,0,B|296:88,1,85
224,64,322117,1,0
224,64,322289,2,0,B|112:80|80:160|96:288|216:312,2,340
296,96,323832,5,0
296,96,324003,2,0,B|384:160,1,85
224,128,324346,2,0,B|128:152,1,85
80,96,324689,2,0,B|32:176|96:264,1,170
160,224,325203,5,0
160,224,325375,2,0,B|264:216,1,85
312,176,325717,2,0,B|320:280,1,85
248,296,326060,2,0,B|144:304,1,85
88,264,326403,6,0,B|32:344,2,85
80,192,326917,2,0,B|32:112,2,85
136,144,327432,2,0,B|96:40,2,85
200,104,327946,2,0,B|192:16,2,85
272,88,328460,2,0,B|280:0,2,85
408,160,329146,5,0
401,165,329232,1,0
393,168,329317,1,0
384,170,329403,1,0
375,171,329489,1,0
366,171,329575,1,0
357,171,329660,1,0
348,169,329746,1,0
339,166,329832,1,0
330,163,329917,1,0
321,160,330003,1,0
312,159,330089,1,0
303,159,330175,1,0
294,159,330260,1,0
285,160,330346,1,0
276,162,330432,1,0
267,164,330517,1,0
259,167,330603,1,0
251,170,330689,1,0
243,173,330775,1,0
235,177,330860,1,0
226,179,330946,1,0
217,178,331032,1,0
208,176,331117,1,0
199,174,331203,1,0
190,171,331289,1,0
181,168,331375,1,0
172,165,331460,1,0
164,162,331546,1,0
155,160,331632,1,0
146,158,331717,1,0
137,157,331803,1,0
128,160,331894,1,4
56,48,341494,6,0,B|256:48,2,170
432,192,343894,2,0,B|256:192,2,170
64,344,346294,2,0,B|248:344,2,170
256,40,348694,2,0,B|160:192|352:192|256:360,1,340
257,357,351244,1,0
104,224,351544,6,0,B|72:224,2,21.25
200,88,352144,6,0,B|232:88,2,21.25
328,224,352744,6,0,B|296:224,3,21.25
432,88,353494,6,0,B|464:88,1,21.25
400,304,353944,6,0,B|400:336,2,21.25
256,104,354544,6,0,B|256:72,2,21.25
112,304,355144,6,0,B|112:344,3,21.25
112,96,355894,5,0
256,304,356194,1,0
392,96,356494,1,0
80,112,356794,1,0
288,328,357094,1,0
408,56,357394,1,0
40,128,357694,1,0
328,344,357994,1,0
448,40,358294,1,0
256,192,358444,12,0,360694
208,112,363100,6,0,B|160:120|136:176,1,85
208,208,363400,2,0,B|248:224|264:272,1,85
312,200,363700,2,0,B|312:152|368:128,1,85
280,112,364000,2,0,B|248:72|184:80,1,85
136,120,364300,2,0,B|160:160|136:224,1,85
104,272,364600,2,0,B|152:256|200:280,1,85
248,224,364900,2,0,B|296:208|352:232,1,85
392,176,365200,2,0,B|432:160|496:176,1,85
456,248,365500,6,0,B|344:232|352:160|216:160,2,255
56,248,366700,6,0,B|168:232|160:160|296:160,2,255
152,168,367900,6,0,B|192:136|168:72,1,85
240,48,368200,2,0,B|336:72,1,85
400,56,368500,2,0,B|416:160,1,85
456,208,368800,2,0,B|408:192|360:216,1,85
168,296,369100,2,0,B|216:312|272:288,1,85
464,200,369400,2,0,B|416:184|368:208,1,85
160,304,369700,2,0,B|208:320|264:296,1,85
472,192,370000,2,0,B|424:176|376:200,1,85
296,216,370300,6,0,B|192:200|240:120|64:120,2,255
160,224,371500,6,0,B|264:208|216:128|392:128,2,255
296,120,372700,6,0,B|208:96,1,85
264,32,373000,2,0,B|360:0,1,85
416,48,373300,2,0,B|384:136,1,85
416,200,373600,2,0,B|312:208,1,85
256,176,373900,2,0,B|248:224|272:280,1,85
312,320,374200,2,0,B|272:344|200:328,1,85
160,296,374500,2,0,B|168:256|152:208,1,85
112,144,374800,2,0,B|152:120|224:128,1,85
256,176,375100,6,0,B|440:200|360:120|504:128,2,255
360,80,376300,6,0,B|280:24|176:64|136:128|144:200|200:256,2,340
256,192,377575,12,0,378700
256,192,378775,12,0,379900
256,192,379975,12,0,382300
112,72,382600,6,0,B|88:168,1,85
168,128,382900,2,0,B|184:232,1,85
240,160,383200,2,0,B|280:240,1,85
320,168,383500,2,0,B|440:304,2,170
208,80,384400,1,0
83,177,384700,5,0
89,184,384775,1,0
95,190,384850,1,0
101,195,384925,1,0
108,199,385000,1,0
115,202,385075,1,0
122,205,385150,1,0
130,207,385225,1,0
138,209,385300,1,0
146,211,385375,1,0
154,212,385450,1,0
162,213,385525,1,0
170,214,385600,1,0
178,214,385675,1,0
186,214,385750,1,0
194,213,385825,1,0
202,212,385900,1,0
210,210,385975,1,0
218,207,386050,1,0
225,204,386125,1,0
232,200,386200,1,0
239,196,386275,1,0
246,192,386350,1,0
253,188,386425,1,0
260,184,386500,1,0
268,181,386575,1,0
276,178,386650,1,0
284,176,386725,1,0
292,175,386800,1,0
300,174,386875,1,0
308,174,386950,1,0
316,174,387025,1,0
324,175,387100,6,0,B|408:226,1,85
416,296,387400,2,0,B|376:320|304:304,1,85
264,272,387700,2,0,B|216:264|160:288,1,85
8,240,388000,2,0,B|56:256|96:232,1,85
128,144,388300,6,0,B|152:104|216:104,1,85
312,80,388600,2,0,B|344:128|304:176,1,85
192,248,388900,2,0,B|168:208|200:152,1,85
320,72,389200,2,0,B|352:120|312:168,1,85
184,256,389500,5,0
191,259,389575,1,0
199,260,389650,1,0
207,260,389725,1,0
215,260,389800,1,0
223,259,389875,1,0
231,257,389950,1,0
239,255,390025,1,0
247,254,390100,1,0
255,253,390175,1,0
263,253,390250,1,0
271,253,390325,1,0
279,253,390400,1,0
287,253,390475,1,0
295,254,390550,1,0
303,255,390625,1,0
311,256,390700,1,0
152,80,391900,6,0,B|112:112|136:176,1,85
200,128,392200,2,0,B|224:168|280:168,1,85
264,96,392500,2,0,B|312:88|328:40,1,85
256,24,392800,2,0,B|168:24,1,85
112,208,393100,6,0,B|72:240|96:296,1,85
160,264,393400,2,0,B|176:312|240:312,1,85
232,240,393700,2,0,B|288:248|312:184,1,85
240,168,394000,2,0,B|336:168,1,85
128,104,394300,6,0,B|80:128|96:200,1,85
168,168,394600,2,0,B|168:216|224:240,1,85
240,168,394900,2,0,B|288:192|344:168,1,85
288,112,395200,2,0,B|192:112,1,85
368,208,395500,6,0,B|408:240|384:320,1,85
320,264,395800,2,0,B|312:312|232:312,1,85
248,240,396100,2,0,B|192:256|152:200,1,85
224,168,396400,2,0,B|312:168,1,85
152,96,396700,6,0,B|104:88|72:144,1,85
144,168,397000,2,0,B|104:208|144:264,1,85
200,216,397300,2,0,B|216:264|280:264,1,85
272,192,397600,2,0,B|384:192,1,85
176,312,397900,6,0,B|112:312|88:256,1,85
168,240,398200,2,0,B|112:224|128:152,1,85
200,176,398500,2,0,B|200:120|256:104,1,85
272,176,398800,2,0,B|176:176,1,85
352,120,399100,6,0,B|416:120|416:192,1,85
344,192,399400,2,0,B|344:256|272:256,1,85
272,176,399700,2,0,B|216:184|200:120,1,85
272,104,400000,2,0,B|376:104,1,85
112,128,400300,1,0
112,136,400375,1,0
112,144,400450,1,0
112,152,400525,1,0
112,160,400600,1,0
416,288,400900,5,0
424,288,400975,1,0
432,288,401050,1,0
440,288,401125,1,0
448,288,401200,1,0
80,240,401500,6,0,B|152:264|208:192|328:224|328:224|416:184|400:96|320:48|256:72,1,510
432,240,403900,6,0,B|360:264|304:192|184:224|184:224|96:184|112:96|192:48|256:72,1,510
384,112,406300,5,0
