osu file format v9

[General]
AudioFilename: 04-Heartbreak Armageddon.mp3
AudioLeadIn: 0
PreviewTime: 115710
Countdown: 0
SampleSet: Normal
StackLeniency: 0.7
Mode: 0
LetterboxInBreaks: 1

[Editor]
Bookmarks: 1864,29556,46787,120018,135402,155095,228941,401735,446043,458043
DistanceSpacing: 2
BeatDivisor: 4
GridSize: 8

[Metadata]
Title:Heartbreak Armageddon
Artist:DragonForce
Creator:AndreasHD
Version:Armageddon
Source:
Tags:

[Difficulty]
HPDrainRate:3
CircleSize:5
OverallDifficulty:8
ApproachRate:8
SliderMultiplier:1.7
SliderTickRate:1

[Events]
//Background and Video events
0,0,"craze-grey-red-design.jpg"
//Break Periods
2,56835,58347
2,61758,63270
2,236528,261201
//Storyboard Layer 0 (Background)
//Storyboard Layer 1 (Fail)
//Storyboard Layer 2 (Pass)
//Storyboard Layer 3 (Foreground)
//Storyboard Sound Samples
//Background Colour Transformations
3,100,163,162,255

[TimingPoints]
2481.91258196921,307.692307692308,4,1,0,70,1,0
32018,-100,4,1,0,70,0,1
41864,-100,4,1,0,70,0,0
66479,-100,4,1,0,70,0,1
96018,-100,4,1,0,70,0,0
115720,-100,4,1,0,70,0,1
135336,-100,4,1,0,70,0,0
236328,-100,4,1,0,0,0,0
261921,-100,4,2,0,70,0,0
261921.427393963,400.053633517619,4,2,0,100,1,0
287424,-100,4,1,0,50,0,0
309827,-100,4,1,0,89,0,0
313120.23383692,307.692307692308,4,1,0,50,1,0
313735,-100,4,1,0,80,0,0
336504,-100,4,1,0,87,0,0
337735,-100,4,1,0,86,0,1
357427,-100,4,1,0,87,0,0
367235,-100,4,2,0,100,0,0
369351,-100,4,1,0,89,0,0
370581,-100,4,2,0,100,0,0
374504,-100,4,1,0,87,0,0
395543,-100,4,1,0,0,0,0
396774,-100,4,1,0,87,0,0
399197,-100,4,1,0,0,0,0
401658,-100,4,1,0,86,0,0
421427,-100,4,1,0,86,0,1
446043,-100,4,1,0,86,0,0
448197,-200,4,1,0,86,0,0
448504,-100,4,1,0,86,0,0
448966,-200,4,1,0,86,0,0
449274,-100,4,1,0,86,0,0
453120,-200,4,1,0,86,0,0
453427,-100,4,1,0,86,0,0
455581,-100,4,1,0,100,0,0

[Colours]
Combo1 : 151,203,143
Combo2 : 138,0,0
Combo3 : 255,255,255
Combo4 : 50,38,113

[HitObjects]
368,112,2481,2,0,B|416:104|448:64,2,85
304,168,2943,2,0,B|352:240,1,85
272,280,3251,2,0,B|176:248,1,85
184,168,3558,1,0
96,168,3712,6,0,B|48:176|16:216,3,85
96,256,4328,1,0
176,232,4481,2,0,B|208:264|208:312,1,85
280,360,4789,1,0
360,344,4943,6,0,B|400:312|400:264,1,85
320,248,5251,2,0,B|320:200|368:160,1,85
432,152,5558,1,0
384,80,5712,2,0,B|424:56|480:64,2,85
304,112,6174,6,0,B|264:136|208:128,1,85
160,64,6481,1,0
80,104,6635,1,0
96,184,6789,1,0
120,264,6943,2,0,B|88:296|40:304,2,85
176,200,7404,6,0,B|200:144|256:120,1,85
304,184,7712,1,0
296,272,7866,2,0,B|328:304|376:320,1,85
432,264,8174,2,0,B|456:216|504:200,2,85
368,208,8635,6,0,B|368:160|328:112,1,85
272,72,8943,2,0,B|232:96|216:160,1,85
136,160,9251,1,0
120,240,9404,2,0,B|101:284|55:307,2,85
176,304,9866,5,0
256,328,10020,1,0
336,304,10174,1,0
312,224,10328,1,0
256,160,10481,1,0
200,224,10635,1,0
256,288,10789,1,0
312,224,10943,1,0
392,248,11097,6,0,B|472:280,1,85
432,200,11404,2,0,B|528:176,1,85
440,136,11712,2,0,B|504:80,1,85
416,80,12020,2,0,B|456:-8,1,85
256,192,12328,8,4,14174
248,312,14481,5,0
312,256,14635,1,0
392,240,14789,2,0,B|360:160|296:96,1,170
296,184,15251,2,0,B|224:136|120:120,1,170
64,168,15712,1,4
96,336,16020,6,0,B|120:256|192:192,1,170
192,280,16481,2,0,B|264:232|352:216,1,170
424,264,16943,1,4
320,128,17251,6,0,B|256:64|152:48,2,170
160,176,18174,1,0
160,176,18481,1,0
56,312,18789,6,0,B|112:248|232:240,1,170
376,224,19404,1,4
168,16,19969,6,0,B|272:24|304:136,1,170
288,200,20430,2,0,B|216:136,1,85
224,232,20738,2,0,B|136:208,1,85
176,288,21046,2,0,B|80:320,1,85
168,352,21353,2,0,B|264:368,1,85
200,296,21661,2,0,B|296:248,1,85
192,232,21969,2,0,B|248:112,1,113.333333333333,0|4
416,312,22635,5,0
304,80,23097,2,0,B|256:80|200:120,1,85
152,152,23404,1,4
80,296,24328,6,0,B|104:320|184:328,1,85
240,288,24635,1,0
176,232,24789,2,0,B|200:192|272:200,1,85
240,288,25097,1,0
304,232,25251,2,0,B|339:262|318:332,2,85
320,152,25712,1,0
256,104,25866,6,0,B|208:88|192:48,1,85
256,104,26174,2,0,B|304:117|322:156,1,85
256,104,26481,2,0,B|235:150|194:162,1,85
256,104,26789,2,0,B|277:58|319:47,1,85
256,192,27097,8,4,28943
464,248,29558,5,0
424,240,29635,1,0
392,216,29712,1,0
376,176,29789,1,0
360,136,29866,1,0
328,112,29943,1,0
288,96,30020,1,0
248,96,30097,5,0
208,112,30174,1,0
184,144,30251,1,0
176,184,30328,1,0
192,224,30404,1,0
224,256,30481,1,0
240,296,30558,1,0
224,336,30635,5,0
184,352,30712,1,0
144,344,30789,1,0
112,320,30866,1,0
96,280,30943,1,0
104,240,31020,1,0
128,208,31097,1,0
152,176,31174,5,0
152,136,31251,1,0
160,96,31328,1,0
184,64,31404,1,0
224,48,31481,1,0
264,40,31558,1,0
304,48,31635,1,0
344,64,31712,5,0
384,88,31789,1,0
408,120,31866,1,0
432,160,31943,1,0
456,192,32020,1,4
376,248,32174,5,0
288,256,32328,1,0
288,256,32404,1,0
288,256,32481,1,8
216,296,32635,5,0
128,304,32789,1,0
168,232,32943,1,0
168,232,33020,1,0
168,232,33097,1,8
120,160,33251,5,0
184,104,33404,1,0
232,176,33558,1,0
232,176,33635,1,0
232,176,33712,1,8
280,104,33866,5,0
304,24,34020,2,0,B|360:32|368:88,1,85
344,160,34328,1,0
424,200,34481,5,0
432,288,34635,1,0
360,248,34789,1,0
360,248,34866,1,0
360,248,34943,1,8
312,320,35097,5,0
256,256,35251,1,0
232,336,35404,1,0
232,336,35481,1,0
232,336,35558,1,8
152,304,35712,5,0
72,272,35866,2,0,B|48:232|64:176,1,85
96,112,36174,2,0,B|136:136|144:192,1,85
208,232,36481,2,0,B|240:184|208:128,1,85
200,64,36789,1,0
272,104,36943,5,0
336,48,37097,1,0
352,128,37251,1,0
352,128,37328,1,0
352,128,37404,1,8
424,168,37558,6,0,B|416:224|464:240,1,85
408,304,37866,2,0,B|416:248|368:232,1,85,0|8
304,184,38174,5,0
224,168,38328,1,0
248,248,38481,1,0
248,248,38558,1,0
248,248,38635,1,8
160,240,38789,6,0,B|168:184|120:136,2,85
152,328,39251,1,0
240,328,39404,2,2,B|320:280,1,85,2|8
344,320,39635,2,2,B|400:216,1,85,2|8
424,232,39866,2,2,B|408:160|360:104|304:64|248:40,1,255,2|4
96,64,40635,5,2
88,104,40712,1,0
104,144,40789,1,0
136,176,40866,1,0
168,208,40943,6,0,B|136:248,3,42.5
184,240,41251,5,2
224,240,41328,1,0
256,216,41404,1,0
296,216,41481,1,0
336,208,41558,6,0,B|384:232,3,42.5
400,256,41866,5,0
248,328,42174,1,0
96,256,42481,1,8
248,176,42789,1,0
400,104,43097,1,0
248,32,43404,1,0
96,104,43712,1,8
96,104,43866,1,0
96,104,44020,1,12
88,272,44328,6,2,B|168:216|264:216,1,170
272,296,44789,2,2,B|336:264|352:192|312:120,1,170
272,88,45251,1,8
440,48,45558,6,0,B|456:96,3,42.5
448,128,45866,5,2
440,168,45943,1,0
416,208,46020,1,2
384,232,46097,1,0
344,248,46174,2,2,B|240:208|152:264,1,170,2|0
80,112,46789,5,2
112,88,46866,1,0
152,80,46943,1,2
192,96,47020,1,0
216,128,47097,1,0
224,168,47174,1,0
216,208,47251,1,0
184,240,47328,1,0
144,248,47404,5,2
104,240,47481,1,0
64,248,47558,1,2
48,288,47635,1,0
56,328,47712,1,0
88,352,47789,1,0
128,368,47866,1,0
168,360,47943,1,0
208,344,48020,5,2
240,312,48097,1,0
256,272,48174,1,2
272,232,48251,1,0
304,208,48328,1,2
344,192,48404,1,0
384,200,48481,1,2
424,216,48558,1,0
464,208,48635,5,2
496,176,48712,1,0
496,136,48789,1,2
472,96,48866,1,0
440,72,48943,2,2,B|408:40|352:32,1,85
256,192,49251,8,0,50174
256,192,50328,5,4
256,192,50481,8,0,51404
256,192,51558,5,4
256,192,51712,8,4,52943
256,24,53558,6,0,B|256:368,1,340
410,293,54481,5,0
474,237,54635,1,0
474,149,54789,1,0
410,93,54943,1,0
346,149,55097,1,0
346,237,55251,1,0
272,192,55404,5,0
264,208,55481,1,0
256,224,55558,1,0
248,240,55635,1,0
240,256,55712,1,8
176,304,55866,5,0
168,288,55943,1,0
160,272,56020,1,8
168,184,56174,5,0
152,192,56251,1,0
136,200,56328,1,0
120,208,56404,1,0
104,216,56481,1,0
88,224,56558,1,0
72,232,56635,1,12
256,192,59097,5,4
424,120,60328,5,0
424,128,60404,1,0
424,136,60481,1,0
424,144,60558,1,0
416,144,60635,5,4
416,152,60712,1,4
416,160,60789,1,4
416,168,60866,1,4
424,176,60943,5,0
424,184,61020,1,0
424,192,61097,1,0
424,200,61174,1,0
416,200,61251,5,0
416,208,61328,1,0
416,216,61404,1,0
416,224,61481,1,0
416,232,61558,1,4
256,192,64020,5,0
80,96,65251,5,0
144,128,65404,5,0
144,136,65481,1,0
144,144,65558,1,0
144,152,65635,1,0
144,160,65712,1,4
208,208,65866,5,0
208,216,65943,1,0
208,224,66020,1,0
208,232,66097,1,0
208,240,66174,1,0
208,248,66251,1,0
208,256,66328,1,4
288,288,66481,5,0
360,248,66635,1,0
416,184,66789,2,0,B|456:216,2,42.5
392,104,67097,5,0
304,104,67251,2,0,B|264:80|200:80,1,85
152,128,67558,1,0
80,176,67712,1,0
152,224,67866,5,2
256,360,68174,2,2,B|192:272,1,85
256,224,68481,1,0
305,291,68635,2,2,B|241:379,1,85
256,272,68943,5,0
256,184,69097,1,0
256,96,69251,2,0,B|256:32,2,42.5
176,64,69558,5,0
120,128,69712,2,0,B|96:176|128:224,1,85
48,256,70020,1,0
96,328,70174,1,0
144,256,70328,5,2
320,256,70635,2,2,B|367:329,2,85
224,108,71097,1,14
384,56,71404,5,0
456,104,71558,1,0
464,192,71712,2,0,B|520:160,2,42.5
456,280,72020,5,0
384,328,72174,1,0
304,296,72328,2,0,B|280:344,2,42.5
272,216,72635,5,0
200,176,72789,1,2
128,24,73097,2,2,B|72:32|56:96,2,85
144,112,73558,2,2,B|160:168|120:208,1,85,2|10
88,264,73866,5,4
424,264,74481,1,4
384,96,74789,6,0,B|352:64|304:56,1,85
288,144,75097,2,0,B|232:144|192:104,1,85
216,32,75404,2,0,B|160:32|120:88,2,85
288,72,75866,2,0,B|328:80|360:128,1,85
392,200,76174,1,0
328,256,76328,5,0
256,216,76481,1,0
256,304,76635,1,0
256,304,76712,1,0
256,304,76789,1,8
184,256,76943,5,0
96,256,77097,1,0
144,184,77251,1,0
144,184,77328,1,0
144,184,77404,1,8
144,96,77558,5,0
192,24,77712,1,0
232,96,77866,1,0
232,96,77943,1,0
232,96,78020,1,8
320,96,78174,5,0
360,168,78328,1,0
408,96,78481,1,0
408,96,78558,1,0
408,96,78635,1,8
456,168,78789,6,0,B|496:192|496:256,1,85
464,320,79097,2,0,B|416:296|408:232,1,85
344,208,79404,1,0
272,160,79558,1,0
192,184,79712,1,0
256,192,79866,8,0,80481
320,320,81251,6,0,B|352:296|392:240,1,85
384,176,81558,1,0
458,135,81712,2,0,B|394:71|322:103|290:159,1,170
232,288,82328,5,0
152,304,82481,2,0,B|96:280|56:240|48:168,1,170
136,200,82943,2,0,B|88:104|176:24,1,170
232,88,83404,2,0,B|192:120|184:176,1,85
240,224,83712,6,0,B|328:224|392:312,1,170
456,256,84174,1,0
400,192,84328,1,0
400,104,84481,1,0
392,104,84558,1,0
384,104,84635,1,0
296,104,84789,1,0
232,160,84943,1,0
168,216,85097,1,0
168,304,85251,5,0
176,304,85328,1,0
184,304,85404,1,0
192,304,85481,1,0
200,304,85558,1,0
288,304,85712,1,0
352,248,85866,1,0
416,192,86020,1,0
352,136,86174,6,0,B|264:56,1,85
224,24,86481,1,0
224,112,86635,1,0
224,200,86789,2,0,B|168:272,1,85
88,272,87097,1,0
88,184,87251,1,0
144,120,87404,6,0,B|104:72|48:64,3,85
88,152,88020,2,0,B|104:208|80:240,3,85
160,264,88635,6,0,B|184:304|240:320,1,85
304,272,88943,1,0
264,344,89097,2,0,B|344:296|376:192,1,170
304,160,89558,5,0
256,88,89712,1,0
192,32,89866,2,0,B|184:80|144:128,1,85
88,160,90174,1,0
48,232,90328,6,0,B|104:160|216:136,1,170
264,176,90789,2,0,B|328:144|384:152,1,85
424,184,91097,5,4
336,328,91404,1,0
176,280,91712,1,0
176,112,92020,1,0
336,48,92328,1,0
288,192,92635,5,0
288,192,92789,1,4
200,48,93097,1,0
200,48,93251,1,4
80,184,93558,6,0,B|72:232,3,42.5
112,280,93866,2,0,B|80:312,3,42.5
152,248,94174,2,0,B|208:200,3,42.5
232,264,94481,2,0,B|216:328,3,42.5
256,328,94789,5,0
336,296,94943,1,0
376,224,95097,1,0
376,224,95174,1,0
376,224,95251,1,8
448,184,95404,5,0
440,96,95558,1,0
368,56,95712,1,0
368,56,95789,1,0
368,56,95866,1,8
360,144,96020,6,0,B|280:88|168:104,1,170
136,160,96481,2,0,B|224:160|296:104,1,170
232,48,96943,2,0,B|192:32|144:40,1,85
72,80,97251,5,0
104,248,97558,1,0
104,248,97712,1,0
272,280,98020,1,0
344,328,98174,2,0,B|424:272,1,85
472,216,98481,6,0,B|384:256|296:208,1,170
392,200,98943,2,0,B|320:136|240:128,1,170
184,64,99404,2,0,B|184:120|208:160,1,85
192,232,99712,5,0
288,88,100020,1,0
288,88,100174,1,0
440,32,100481,1,0
392,104,100635,2,0,B|368:144|368:192,1,85
376,272,100943,1,4
56,80,101866,6,0,B|80:48|136:48,1,85
200,96,102174,2,0,B|144:176|48:160,1,170
120,104,102635,2,0,B|232:104|272:208,1,170
272,264,103097,2,0,B|216:272|176:216,1,85
152,168,103404,6,0,B|168:80|264:48,1,170
328,104,103866,2,0,B|312:192|216:224,1,170
176,296,104328,2,0,B|128:256|80:256,1,85
48,192,104635,5,4
128,40,104943,1,4
200,192,105251,1,4
272,40,105558,1,0
272,40,105635,1,0
272,40,105712,1,0
272,40,105789,1,0
272,40,105866,5,12
232,160,106020,1,0
232,160,106174,1,0
352,128,106328,1,8
320,248,106481,1,0
320,248,106635,1,0
280,368,106789,1,8
184,280,106943,1,0
232,160,107097,5,8
136,72,107251,1,0
136,72,107404,1,0
88,192,107558,1,8
184,280,107712,1,0
184,280,107866,1,0
320,248,108020,1,8
360,128,108174,1,0
264,48,108328,6,0,B|256:144|360:208,1,170
376,120,108789,2,0,B|280:152|272:256,1,170
288,328,109251,2,0,B|280:280|216:256,1,85
168,312,109558,6,0,B|224:232|216:128,1,170
216,64,110020,2,0,B|160:128|168:232,1,170
136,144,110481,2,0,B|128:96|80:64,1,85
24,32,110789,1,4
256,312,112943,6,0,B|312:344|200:352|272:384,2,85,4|0|4
392,208,113558,5,0
328,152,113712,1,0
256,112,113866,1,0
184,152,114020,1,0
120,208,114174,1,0
208,216,114328,1,0
296,216,114481,5,12
256,288,114635,1,0
256,280,114712,1,0
256,272,114789,1,0
256,264,114866,1,0
256,256,114943,1,4
256,168,115097,5,12
256,80,115251,1,0
256,88,115328,1,0
256,96,115404,1,0
256,104,115481,1,0
256,112,115558,1,0
176,88,115712,6,0,B|104:128|64:240,1,170
88,304,116174,2,0,B|112:208|64:112,1,170
64,56,116635,2,0,B|80:104|144:120,1,85
144,200,116943,6,0,B|216:136|328:144,1,170
384,160,117404,2,0,B|328:80|224:64,1,170
168,24,117866,2,0,B|176:80|232:120,1,85
144,152,118174,6,0,B|232:200|232:328,1,170
144,296,118635,2,0,B|144:192|240:136,1,170
296,184,119097,1,0
400,48,119404,1,0
472,200,119712,1,0
368,336,120020,1,0
296,184,120328,1,0
200,40,120635,6,0,B|144:56|136:120,1,85
112,176,120943,1,0
152,248,121097,2,0,B|168:96|312:40,1,255
464,40,121866,2,0,B|360:48|304:120,1,170
256,272,122481,1,0
256,272,122789,6,0,B|288:224|248:160,1,85
304,112,123097,2,0,B|208:136|176:240,1,170
208,304,123558,2,0,B|136:248|160:120,1,170
192,72,124020,1,0
192,72,124097,1,0
192,72,124174,1,12
272,40,124328,5,0
352,64,124481,1,0
400,136,124635,1,0
400,136,124712,1,0
400,136,124789,1,12
352,200,124943,5,0
416,256,125097,1,0
400,336,125251,1,0
400,336,125328,1,0
400,336,125404,1,12
336,280,125558,6,0,B|240:320|144:272,1,170
256,264,126020,2,0,B|208:192|96:192,1,170
88,272,126481,2,0,B|40:256|24:184,1,85
64,128,126789,6,0,B|104:48|232:40,1,170
160,112,127251,2,0,B|264:120|320:32,1,170
392,24,127712,2,0,B|384:72|344:104,1,85
296,160,128020,5,0
296,160,128174,1,0
224,208,128328,2,0,B|240:256|304:264,1,85
360,216,128635,2,0,B|376:272|352:304,2,85
336,136,129097,1,0
256,104,129251,6,0,B|168:104,1,85
104,152,129558,2,0,B|208:152,1,85
256,200,129866,2,0,B|152:200,1,85
96,240,130174,1,0
152,304,130328,1,0
240,312,130481,6,0,B|336:288|400:192,1,170
464,192,130943,2,0,B|376:152|352:72,1,170
328,16,131404,2,0,B|320:56|280:88,1,85
224,144,131712,1,4
280,336,132635,6,0,B|232:328|200:280,2,85
360,304,133097,2,0,B|336:272|352:200,1,85
400,160,133404,1,0
408,72,133558,2,0,B|352:64|320:128,1,85
192,8,134020,2,0,B|272:80|216:184,1,170,0|4
440,320,135404,5,2
400,328,135481,1,0
360,328,135558,1,0
328,304,135635,1,0
304,264,135712,1,0
296,224,135789,1,0
304,184,135866,1,2
336,160,135943,1,0
368,136,136020,6,0,B|360:80,7,42.5
328,64,136635,5,2
304,96,136712,1,0
272,128,136789,1,0
232,144,136866,1,0
192,144,136943,1,0
152,128,137020,1,0
120,104,137097,1,2
96,72,137174,1,0
56,56,137251,6,0,B|24:88,7,42.5
32,128,137866,6,2,B|32:232|120:280,1,170
184,312,138328,2,0,B|200:256|272:240,1,85,0|8
312,288,138635,2,0,B|352:272|376:224,1,85
360,144,138943,1,8
352,56,139097,2,2,B|288:48|264:96,2,85
424,96,139558,1,0
472,168,139712,1,4
120,64,140328,5,2
96,96,140404,1,0
88,136,140481,1,0
96,176,140558,1,0
120,216,140635,1,0
152,240,140712,1,0
192,256,140789,1,2
232,256,140866,1,0
272,240,140943,6,0,B|296:288,7,42.5
320,312,141558,5,2
360,328,141635,1,0
400,328,141712,1,0
440,304,141789,1,0
464,272,141866,1,0
480,232,141943,1,0
464,192,142020,1,2
432,168,142097,1,0
408,136,142174,6,0,B|464:104,6,42.5
352,72,142789,6,2,B|336:120|288:136,1,85
248,200,143097,2,2,B|224:152|184:128,2,85
280,280,143558,1,8
360,296,143712,2,2,B|392:336|448:344,1,85,2|10
472,264,144020,6,2,B|472:208|416:176,1,85
392,24,144481,2,2,B|368:72|304:88,1,85,2|6
88,80,145251,6,0,B|48:80|24:104,3,42.5,2|2|2|0
128,96,145558,1,0
136,136,145635,1,0
160,168,145712,1,0
200,176,145789,1,0
240,160,145866,6,0,B|240:184|280:208,3,42.5,2|2|2|0
304,200,146174,1,0
336,176,146251,1,0
352,136,146328,1,0
344,96,146404,1,0
312,64,146481,6,0,B|264:64,3,42.5,2|2|2|0
224,56,146789,1,0
184,64,146866,1,0
144,88,146943,1,0
120,128,147020,1,0
136,168,147097,6,0,B|152:184|136:216,3,42.5,2|2|2|0
112,240,147404,2,2,B|112:304|168:352|240:336,1,170,2|2
312,328,147866,1,0
384,288,148020,1,2
368,208,148174,1,0
288,184,148328,1,2
232,248,148481,1,0
224,336,148635,2,0,B|176:336|112:304,1,85,0|0
120,232,148943,6,2,B|96:160|16:160,2,127.5
256,192,149558,8,0,150020
360,256,150174,5,2
392,224,150251,1,0
408,184,150328,1,2
400,144,150404,1,0
376,112,150481,1,2
336,88,150558,1,0
296,88,150635,1,2
256,104,150712,1,0
224,136,150789,1,2
208,176,150866,1,0
208,216,150943,1,2
224,256,151020,1,0
232,296,151097,1,2
224,336,151174,1,0
192,368,151251,1,2
152,376,151328,1,0
112,360,151404,5,0
80,336,151481,1,0
56,296,151558,1,0
56,256,151635,1,0
80,216,151712,1,0
120,192,151789,1,0
152,168,151866,1,0
176,136,151943,1,0
192,96,152020,1,0
224,64,152097,1,0
264,48,152174,1,0
304,48,152251,1,0
344,64,152328,1,0
360,104,152404,1,0
352,144,152481,1,0
312,168,152558,1,0
272,184,152635,5,2
248,264,152789,1,2
330,242,152943,1,6
416,256,153097,2,2,B|408:312|368:352,2,85
464,184,153558,1,8
344,64,153866,6,0,B|280:64|240:104,1,85
176,88,154174,1,10
112,144,154328,2,0,B|88:184|96:232,1,85
176,248,154635,1,0
144,328,154789,1,10
256,200,155097,5,4
256,200,155251,1,4
280,280,155558,5,0
256,288,155635,1,0
232,280,155712,1,0
256,248,155866,1,0
232,168,156174,5,0
256,160,156251,1,0
280,168,156328,1,0
256,88,156481,1,0
176,56,156635,1,0
152,136,156789,1,0
64,136,156943,1,0
104,208,157097,1,0
64,280,157251,1,4
256,336,157558,5,0
256,336,157712,1,0
256,248,158020,1,0
256,224,158097,1,0
256,200,158174,1,0
256,160,158328,1,0
376,24,158635,5,0
376,40,158712,1,0
376,56,158789,5,0
376,72,158866,1,0
376,88,158943,1,0
376,104,159020,1,0
376,120,159097,1,0
376,136,159174,1,0
376,152,159251,1,0
376,168,159328,1,0
376,184,159404,1,0
376,200,159481,1,0
376,216,159558,1,0
376,232,159635,1,0
376,248,159712,1,0
376,264,159789,1,0
376,280,159866,1,0
376,296,159943,1,0
352,328,160020,5,0
296,264,160174,1,0
216,288,160328,1,0
216,288,160404,1,0
216,288,160481,1,8
240,208,160635,5,0
248,120,160789,1,0
160,120,160943,1,0
160,120,161020,1,0
160,120,161097,1,8
112,48,161251,1,0
32,80,161404,5,0
112,232,161712,2,0,B|160:264|192:224,1,85
256,176,162020,1,0
320,120,162174,2,0,B|360:88|408:128,1,85,0|8
360,200,162481,5,0
232,88,162789,1,0
104,200,163097,1,0
144,280,163251,1,0
232,312,163404,2,0,B|200:272|280:264|216:216,1,85
232,64,163866,1,0
400,88,164174,6,0,B|400:0,2,85
400,288,164635,1,2
256,192,164943,5,0
176,224,165097,1,0
136,152,165251,1,0
136,152,165328,1,0
136,152,165404,1,8
72,208,165558,5,0
112,280,165712,1,0
200,280,165866,1,0
200,280,165943,1,0
200,280,166020,1,8
248,208,166174,5,0
200,136,166328,1,0
344,48,166635,2,0,B|360:96|344:136,1,85
384,208,166943,1,0
422,132,167097,2,0,B|406:84|422:44,1,85
493,91,167404,5,4
440,256,167712,1,4
280,304,168020,1,4
176,168,168328,2,0,B|160:216|144:248,1,85
72,288,168635,5,2
64,256,168712,1,0
64,216,168789,1,0
72,176,168866,1,0
96,144,168943,1,2
128,120,169020,1,0
168,104,169097,1,0
208,104,169174,1,0
248,120,169251,5,2
280,152,169328,1,0
296,192,169404,1,2
288,232,169481,1,0
288,272,169558,1,2
320,304,169635,1,0
360,304,169712,1,2
400,280,169789,1,0
424,248,169866,6,0,B|448:192|424:80,1,170,0|2
408,168,170328,2,0,B|376:96|272:56,1,170,0|2
232,128,170789,5,0
232,128,170866,1,0
232,128,170943,1,8
184,56,171097,6,0,B|104:96|64:176,1,170,0|2
136,120,171558,2,0,B|128:216|176:296,1,170,0|2
240,232,172020,5,0
240,232,172097,1,0
240,232,172174,1,8
304,176,172328,5,0
472,160,172635,1,0
360,32,172943,2,0,B|376:128,1,85
373,115,173251,1,0
256,192,173404,8,0,174174
176,296,174789,6,0,B|264:336|360:288,1,170
317,214,175251,2,0,B|254:168|184:224,1,127.5
256,8,175866,5,0
336,48,176020,2,0,B|240:120|160:24,1,170
182,131,176481,2,0,B|278:59|358:155,1,170
256,160,176943,5,0
256,160,177020,1,0
256,160,177097,1,8
256,248,177251,5,4
256,80,177558,5,0
328,120,177712,1,0
368,192,177866,1,0
328,264,178020,1,0
256,304,178174,1,0
184,264,178328,1,0
184,352,178481,6,0,B|184:288,3,42.5
144,288,178789,2,0,B|144:232,3,42.5
104,224,179097,2,0,B|104:176,3,42.5
64,160,179404,2,0,B|64:112,3,42.5
104,120,179712,5,0
256,48,180020,1,8
408,120,180328,1,0
341,275,180635,1,8
173,275,180943,1,0
256,168,181251,1,8
256,168,181558,1,8
256,168,181712,1,0
256,168,181866,1,12
376,48,182174,6,2,B|456:104|456:216,1,170
416,264,182635,1,0
256,352,183097,5,0
96,304,183404,2,2,B|176:248|176:136,1,170
136,88,183866,1,0
256,312,184328,6,0,B|312:272|184:272|288:240,1,85
256,168,184635,1,0
256,136,184943,1,0
256,104,185251,1,0
256,72,185558,1,0
256,40,185866,1,0
360,176,186174,6,0,B|400:224|440:248,1,85
280,328,186635,2,0,B|272:272|240:224,1,85
88,296,187097,5,0
96,288,187174,1,0
104,280,187251,1,0
112,272,187328,1,0
120,264,187404,1,0
128,256,187481,1,0
136,248,187558,1,0
144,240,187635,1,0
152,232,187712,1,0
160,224,187789,1,0
168,216,187866,1,0
176,208,187943,1,0
184,200,188020,1,0
192,192,188097,1,0
200,184,188174,1,0
208,176,188251,1,0
216,168,188328,6,8,B|264:136|312:176,1,85
360,216,188635,1,0
360,216,188712,1,0
360,216,188789,1,0
296,272,188943,6,8,B|248:304|200:264,1,85
168,216,189251,1,0
168,216,189328,1,0
168,216,189404,1,0
112,152,189558,6,0,B|256:16|432:168,1,340
256,216,190481,1,0
136,336,190789,2,0,B|72:272|56:168,1,170
48,272,191251,2,0,B|40:176|104:104,1,170
176,88,191712,1,0
336,32,192020,6,0,B|424:80|448:192,1,170
504,216,192481,2,0,B|432:144|352:136,1,170
368,224,192943,1,0
256,96,193251,5,0
256,352,193712,1,0
172,110,194174,1,0
341,111,194481,1,4
80,336,195404,6,0,B|32:320|40:264,2,85
136,272,195866,2,0,B|128:216|192:208,1,85
216,288,196174,1,0
392,104,196635,1,0
232,48,196943,5,8
208,128,197097,1,0
216,136,197174,1,0
224,144,197251,1,0
232,152,197328,1,0
240,160,197404,1,8
296,272,197558,5,0
288,264,197635,1,0
280,256,197712,1,0
272,248,197789,1,0
264,240,197866,1,0
256,232,197943,1,0
248,224,198020,1,4
320,176,198174,5,8
384,232,198328,1,0
392,224,198404,1,0
400,216,198481,1,0
408,208,198558,1,0
416,200,198635,1,8
384,48,198789,5,0
376,56,198866,1,0
368,64,198943,1,0
360,72,199020,1,0
352,80,199097,1,0
344,88,199174,1,0
336,96,199251,1,4
256,64,199404,5,8
168,152,199558,1,0
168,152,199712,1,0
256,248,199866,1,8
344,152,200020,1,0
344,152,200174,1,0
464,192,200328,1,8
376,288,200481,1,0
256,328,200635,5,8
136,288,200789,1,0
136,288,200943,1,0
48,192,201097,1,8
168,152,201251,1,0
168,152,201404,1,0
256,248,201558,1,8
344,152,201712,1,0
256,64,201866,6,0,B|328:136|168:168|288:240,1,170
176,248,202328,2,0,B|264:288|367:237,1,170
424,232,202789,2,0,B|457:180|402:128,1,85
344,120,203097,6,0,B|256:80|153:131,1,170
120,176,203558,2,0,B|96:288|176:344,1,170
160,248,204020,2,0,B|184:296|240:296,1,85
296,240,204328,1,4
376,56,206481,6,0,B|376:104|320:128,2,85
288,48,206943,1,0
288,48,207020,1,0
288,48,207097,1,0
288,48,207174,1,0
288,48,207251,1,0
160,64,207404,5,4
224,176,207558,1,4
96,176,207712,1,4
160,288,207866,1,4
288,288,208020,5,0
352,176,208174,1,0
352,176,208251,1,0
352,176,208328,1,0
352,176,208404,1,0
352,176,208481,1,0
224,176,208635,5,4
288,64,208789,1,4
160,64,208943,1,4
224,176,209097,1,4
336,112,209251,6,0,B|424:160|448:248,1,170
456,152,209712,2,0,B|440:48|328:16,1,170
392,104,210174,2,0,B|328:80|296:96,1,85
256,160,210481,6,0,B|312:224|328:320,1,170
272,248,210943,2,0,B|208:176|128:160,1,170
192,224,211404,2,0,B|208:280|208:312,1,85
272,248,211712,6,0,B|328:168|424:144,1,170
384,232,212174,2,0,B|352:136|264:112,1,170
216,48,212635,5,0
72,136,212943,1,0
232,200,213251,1,0
88,288,213558,1,0
248,352,213866,1,0
408,288,214174,6,0,B|368:256|352:208,1,85
328,144,214481,1,0
408,160,214635,2,0,B|344:24|192:64,1,255
272,216,215404,6,0,B|224:304|120:312,1,170
128,136,216020,1,0
128,136,216328,2,0,B|152:104|224:80,1,85
280,64,216635,2,0,B|384:40|432:136,1,170
344,104,217097,2,0,B|416:192|376:280,1,170
304,224,217558,5,0
304,224,217635,1,0
304,224,217712,1,8
264,296,217866,5,0
192,248,218020,1,0
112,272,218174,1,0
112,272,218251,1,0
112,272,218328,1,8
136,192,218481,5,0
88,120,218635,1,0
160,72,218789,1,0
160,72,218866,1,0
160,72,218943,1,8
208,144,219097,6,0,B|280:192|376:168,1,170
304,120,219558,2,0,B|368:192|360:280,1,170
312,200,220020,2,0,B|312:248|272:288,1,85
216,336,220328,6,0,B|184:240|104:216,1,170
24,184,220789,2,0,B|72:104|160:88,1,170
232,40,221251,2,0,B|280:56|320:112,1,85
264,160,221558,5,0
264,160,221712,1,0
224,232,221866,2,0,B|264:264|312:224,1,85
344,160,222174,2,0,B|344:112|304:88,2,85
264,160,222635,1,0
216,88,222789,6,0,B|216:176,1,85,8|0
168,240,223097,2,0,B|168:136,1,85,8|0
112,88,223404,2,0,B|112:184,1,85,8|0
64,240,223712,1,0
112,312,223866,1,8
200,320,224020,6,0,B|256:240|360:240,1,170
296,312,224481,2,0,B|400:296|440:216,1,170
400,144,224943,2,0,B|352:144|312:184,1,85
280,248,225251,1,4
104,192,226174,6,0,B|80:232|16:224,2,85
144,120,226635,2,0,B|160:64|232:56,1,85
232,144,226943,1,0
264,64,227097,2,0,B|312:80|328:152,1,85
416,264,227558,2,0,B|352:328|256:296,1,170
256,192,228943,8,0,236328
464,240,261951,6,2,B|432:208|392:184,1,85,2|0
328,192,262321,1,0
304,112,262521,2,2,B|240:184|120:144,1,170,2|0
112,80,263121,5,2
72,152,263321,1,0
112,224,263521,2,2,B|184:360|344:312,1,255,2|0
400,360,264321,5,2
400,272,264521,1,0
320,240,264721,1,2
325,317,264921,1,0
248,280,265121,2,0,B|208:256,2,42.5,0|0|0
128,40,266121,5,2
232,112,266422,1,0
336,48,266722,2,2,B|464:24|440:168,1,170,2|0
280,184,267522,6,2,B|240:248|280:320,1,127.5,2|0
384,248,268122,1,0
352,168,268322,2,0,B|376:120|432:136,2,85
312,248,268922,1,4
144,336,269922,6,2,B|112:304|120:256,1,85,2|0
160,184,270322,1,0
96,128,270522,1,2
248,48,270922,1,2
344,128,271222,1,0
272,232,271522,1,2
272,232,271622,1,0
272,232,271722,1,2
72,160,272722,5,0
88,120,272822,1,2
120,88,272922,1,0
200,56,273122,2,2,B|200:128|144:192,1,127.5,2|0
200,56,273723,1,0
264,112,273923,1,2
264,240,274223,1,2
376,176,274523,1,0
464,168,274723,6,2,B|432:72|304:56,1,170,2|0
248,200,275523,2,0,B|288:224|304:264,1,85,2|0
216,272,275923,2,0,B|176:248|160:192,1,85,2|0
200,128,276323,1,0
128,88,276523,1,2
296,40,276923,1,4
256,335,278123,5,0
308,270,278323,2,0,B|300:222|252:206,1,85,2|0
204,270,278723,2,0,B|212:222|260:206,1,85,2|0
307,146,279123,2,0,B|299:194|251:210,1,85,2|0
203,146,279523,2,0,B|211:194|259:210,1,85,2|0
255,123,279923,1,2
104,40,280323,5,0
24,72,280523,2,0,B|32:184|112:240,1,170,0|2
216,336,281324,1,0
288,296,281524,1,2
216,248,281724,1,0
144,296,281924,1,4
392,64,282724,6,2,B|424:96|432:160,1,85,2|0
288,48,283324,1,2
360,200,283724,1,2
192,168,284124,1,0
264,216,284324,2,0,B|248:280|312:312,2,85
288,136,284924,1,6
144,320,285924,6,0,B|104:288|128:232,1,85,2|0
144,320,286524,1,4
312,288,286924,1,0
312,288,287124,2,2,B|368:272|368:208,1,85,2|0
296,176,287524,6,0,B|248:184|184:152,1,85
152,112,287924,1,0
72,96,288124,2,0,B|160:56|264:88,1,170
224,168,288725,2,0,B|192:208|144:208,1,85
96,272,289125,2,0,B|184:304|264:240,1,170
256,245,289625,1,0
256,245,289725,1,0
256,245,289825,1,0
256,245,289925,6,0,B|272:136|400:128,1,170
341,214,290525,1,0
424,184,290725,2,0,B|408:293|280:301,1,170
152,240,291525,6,0,B|120:272|80:264,2,42.5
184,160,291925,2,0,B|216:128|256:136,2,42.5
104,176,292325,2,0,B|72:128|24:128,1,85
36,128,292625,1,0
36,128,292725,1,0
72,48,292925,1,0
160,56,293125,2,0,B|264:64|320:152,1,170,0|4
312,320,294125,5,0
408,240,294325,1,8
288,200,294525,1,0
400,264,294725,1,0
304,184,294925,1,8
280,312,295125,1,0
168,256,295325,6,0,B|136:296|96:312,1,85
16,312,295725,2,0,B|32:208|176:240|168:96,1,255,0|4
416,64,296726,5,0
496,96,296926,1,0
424,144,297126,2,0,B|272:168|240:312,1,255
242,300,297926,1,4
128,72,298726,6,0,B|176:40|144:16,4,42.5
248,112,299426,1,0
144,184,299726,2,0,B|128:240|184:256,1,85
88,248,300126,1,0
128,320,300326,2,0,B|232:336|304:240,1,170,4|0
424,176,301126,5,0
408,136,301226,1,0
384,104,301326,1,0
344,80,301426,1,0
304,80,301526,1,0
264,96,301626,1,0
240,128,301726,1,0
224,168,301826,1,0
208,208,301926,5,0
176,240,302026,1,0
136,248,302126,1,0
96,240,302226,1,0
64,216,302326,1,0
48,176,302426,1,0
56,136,302526,1,0
80,104,302626,1,0
120,96,302726,6,0,B|160:72|160:32,3,42.5
192,48,303126,5,0
232,32,303226,1,0
272,40,303326,1,0
304,64,303426,1,0
336,96,303527,2,0,B|408:176|352:272,1,170
208,192,304327,1,4
304,328,304927,6,0,B|352:328|336:376,2,42.5
232,280,305327,1,0
304,232,305527,1,0
232,184,305727,1,0
304,136,305927,1,4
72,80,306927,6,0,B|48:128|80:168,1,85
152,120,307327,1,0
232,88,307527,2,0,B|256:136|224:176,1,85
152,120,307927,1,12
362,321,308527,6,0,B|410:343|449:309,1,85
400,240,308927,1,0
365,161,309127,2,0,B|412:135|453:165,1,85
400,240,309527,1,12
312,240,309727,1,4
256,304,309927,6,0,B|144:328|96:240,1,170
192,264,310527,1,0
184,176,310727,1,0
264,208,310927,1,0
256,120,311128,1,0
336,152,311328,1,0
328,64,311528,1,0
256,120,311728,1,0
240,32,311928,1,0
176,88,312128,1,0
256,120,312328,1,0
184,176,312528,1,0
264,208,312728,1,0
256,120,312928,1,0
344,112,313143,5,4
344,112,313274,1,4
406,258,314043,6,2,B|422:154|334:106,1,170,2|0
344,112,314504,1,4
198,48,315274,6,2,B|257:134|354:110,1,170,2|0
342,111,315735,1,4
280,257,316504,6,2,B|264:153|352:105,1,170,2|0
342,111,316965,1,4
88,80,317427,5,0
288,352,318043,5,0
304,312,318120,1,0
336,288,318197,1,0
376,280,318274,1,0
416,280,318351,1,0
448,304,318427,1,0
432,264,318504,1,0
416,224,318581,1,0
416,184,318658,5,0
440,152,318735,1,0
480,136,318812,1,0
440,112,318889,1,0
408,88,318966,1,0
392,48,319043,1,0
360,80,319120,1,0
320,96,319197,1,0
280,96,319274,6,4,B|240:120|224:72,3,42.5
240,144,319581,2,4,B|272:168|248:208,3,42.5
216,200,319889,2,4,B|176:208|184:256,3,42.5
224,248,320197,6,2,B|264:344|376:288,1,170,2|0
392,256,320581,1,0
408,216,320658,1,0
400,176,320735,1,0
376,144,320812,1,0
344,120,320889,1,0
304,112,320966,1,0
264,120,321043,1,0
232,144,321120,5,0
192,160,321197,1,0
152,160,321274,1,0
120,136,321351,1,0
112,96,321427,1,0
128,56,321504,1,0
168,40,321581,1,0
208,56,321658,1,0
248,56,321735,6,4,B|296:24,3,42.5
328,32,322043,2,4,B|368:56,3,42.5
408,56,322351,2,4,B|472:16,3,42.5
480,48,322658,6,2,B|512:136|432:224,1,170,2|0
432,248,323043,1,0
424,288,323120,1,0
392,320,323197,1,0
352,336,323274,1,0
312,336,323351,1,0
280,312,323427,1,0
272,272,323504,1,0
288,232,323581,1,0
296,192,323658,1,0
272,160,323735,1,0
232,144,323812,1,0
192,152,323889,1,0
160,176,323966,1,0
144,216,324043,1,0
152,256,324120,1,0
128,288,324197,22,0,B|72:320,1,42.5,8|0
104,264,324351,2,0,B|48:264,1,42.5
80,224,324504,2,0,B|32:200,1,42.5,8|0
80,184,324658,2,0,B|56:136,1,42.5
104,152,324812,2,0,B|112:88,1,42.5,8|0
144,136,324966,2,0,B|184:96,1,42.5,0|0
192,144,325120,2,0,B|248:128,1,42.5,8|0
216,176,325274,2,0,B|256:200,1,42.5
272,240,325427,38,0,B|240:272,3,42.5
344,240,325735,2,0,B|392:280,3,42.5
272,168,326043,2,0,B|240:136,3,42.5
344,168,326351,2,0,B|392:128,3,42.5
256,192,326658,8,0,327735
184,80,327889,5,2
104,184,328043,1,0
184,80,328197,1,2
104,184,328351,1,0
184,80,328504,1,2
104,184,328658,1,0
184,80,328812,1,2
104,184,328966,1,0
216,240,329120,6,0,B|232:288,15,42.5
264,224,330351,5,2
368,152,330504,1,0
264,224,330658,1,2
368,152,330812,1,0
264,224,330966,1,2
368,152,331120,1,0
264,224,331274,1,2
368,152,331427,1,0
248,104,331581,5,2
216,72,331658,1,0
176,64,331735,1,0
136,72,331812,1,0
104,96,331889,1,2
80,136,331966,1,0
80,176,332043,1,0
104,208,332120,1,0
144,232,332197,5,2
184,224,332274,1,0
224,240,332351,1,2
248,272,332427,1,0
280,296,332504,1,2
320,304,332581,1,0
360,288,332658,1,2
392,256,332735,1,0
424,240,332812,5,2
328,160,332966,1,0
424,240,333120,1,2
328,160,333274,1,0
424,240,333427,1,2
328,160,333581,1,0
424,240,333735,1,2
328,160,333889,1,0
216,104,334043,6,0,B|216:72,7,21.25
216,128,334351,2,0,B|216:160,7,21.25
176,152,334658,2,0,B|176:184,7,21.25
176,128,334966,2,0,B|176:96,7,21.25
136,128,335274,5,2
104,160,335351,1,0
96,200,335427,1,0
104,240,335504,1,0
136,264,335581,1,2
176,280,335658,1,0
216,272,335735,1,0
248,240,335812,1,0
264,200,335889,5,2
288,168,335966,1,0
320,144,336043,1,0
360,136,336120,1,0
400,152,336197,1,2
432,184,336274,1,0
440,224,336351,1,0
424,264,336427,1,0
424,304,336504,5,12
88,80,336812,1,12
426,82,337120,1,12
90,302,337427,1,12
255,276,337735,6,0,B|271:228|231:212,2,42.5
272,192,338043,1,8
255,108,338197,2,0,B|271:156|231:172,2,42.5,0|0|0
240,192,338504,1,8
176,248,338658,5,0
128,176,338812,1,0
176,104,338966,2,0,B|176:64|168:48,2,42.5
128,176,339274,1,8
80,248,339427,2,0,B|72:272|80:296,2,42.5
176,248,339735,1,8
256,272,339889,1,0
312,336,340043,1,0
392,296,340197,5,0
424,264,340274,1,0
448,224,340351,1,0
456,184,340427,1,0
440,144,340504,1,12
408,112,340581,1,0
368,104,340658,1,0
328,120,340735,1,0
296,152,340812,1,0
256,160,340889,1,0
216,144,340966,1,0
192,64,341120,5,8
104,72,341274,1,0
72,152,341427,1,0
152,136,341581,2,0,B|152:192|200:208,1,85
272,232,341889,1,0
344,184,342043,6,2,B|392:200|384:280|344:288,1,127.5,2|0
320,320,342351,1,0
288,344,342427,1,0
248,344,342504,1,0
216,312,342581,1,0
240,280,342658,5,0
256,240,342735,1,0
256,200,342812,1,0
232,160,342889,1,0
192,136,342966,1,0
152,136,343043,1,0
112,160,343120,1,0
96,200,343197,1,0
112,240,343274,5,0
144,264,343351,1,0
160,304,343427,1,0
144,344,343504,1,0
104,360,343581,1,0
64,344,343658,1,0
48,304,343735,1,0
64,264,343812,1,0
56,224,343889,6,0,B|8:224,3,42.5
32,184,344197,2,0,B|88:184,3,42.5
96,152,344504,2,0,B|48:152,3,42.5
80,112,344812,2,0,B|136:112,3,42.5
152,80,345120,5,8
216,24,345274,1,0
296,48,345427,1,8
312,128,345581,1,0
248,184,345735,1,8
168,160,345889,1,0
232,104,346043,1,4
232,104,346197,1,4
256,192,346351,8,0,347274
352,264,347581,6,2,B|376:224|448:240,2,85
296,328,348043,1,2
136,280,348351,2,2,B|200:200|296:272,1,170
232,200,348812,6,2,B|176:192|176:128,2,85
320,184,349274,1,2
408,40,349581,2,2,B|296:16|256:120,1,170
352,112,350043,5,2
392,128,350120,1,0
416,160,350197,1,0
424,200,350274,1,0
416,240,350351,5,2
392,272,350427,1,0
352,296,350504,1,0
312,288,350581,1,0
280,256,350658,5,2
240,240,350735,1,0
200,248,350812,1,0
168,272,350889,1,0
136,304,350966,5,2
96,312,351043,1,0
56,296,351120,1,0
40,256,351197,1,0
56,216,351274,6,2,B|152:184|160:72,1,170
72,96,351735,2,2,B|128:24|200:48|248:56,1,170
304,88,352197,1,2
368,144,352351,1,4
288,168,352504,5,2
304,208,352581,1,0
336,232,352658,1,0
376,240,352735,1,0
416,232,352812,2,0,B|440:216|424:176,3,42.5
440,152,353120,5,2
408,120,353197,1,0
368,104,353274,1,0
328,104,353351,2,0,B|280:136,4,42.5
312,64,353735,5,2
272,40,353812,1,0
232,40,353889,1,0
192,64,353966,1,0
184,104,354043,1,0
192,144,354120,1,0
224,176,354197,1,0
248,216,354274,1,0
248,256,354351,1,0
224,288,354427,1,0
184,288,354504,1,0
152,264,354581,1,0
144,224,354658,1,0
112,200,354735,1,0
72,192,354812,1,0
40,224,354889,1,0
32,264,354966,5,2
48,304,355043,1,0
88,320,355120,1,0
128,312,355197,1,0
168,320,355274,1,2
208,328,355351,1,0
240,352,355427,1,0
280,360,355504,1,0
320,344,355581,1,2
352,312,355658,1,0
360,272,355735,1,0
352,232,355812,1,0
320,208,355889,1,2
280,200,355966,1,0
240,208,356043,1,0
200,192,356120,1,0
184,152,356197,5,0
200,112,356274,1,0
240,88,356351,1,0
280,88,356427,1,0
320,96,356504,1,0
360,120,356581,1,0
392,152,356658,1,0
400,192,356735,1,0
392,232,356812,1,0
368,264,356889,1,0
328,288,356966,1,0
288,288,357043,1,0
256,264,357120,1,0
232,232,357197,1,0
232,192,357274,1,12
176,256,357427,6,2,B|96:192|144:88,1,170,0|0
192,168,357889,2,2,B|344:104|416:248,1,255
448,232,358427,2,0,B|464:288,2,42.5
456,104,358812,1,0
384,64,358966,1,0
376,152,359120,1,8
304,104,359274,2,2,B|208:96|136:152,1,170,2|0
240,288,359889,5,0
320,312,360043,1,0
376,248,360197,1,0
320,312,360351,1,0
296,232,360504,2,4,B|288:184|240:160,2,85
80,96,361274,5,0
152,56,361427,2,0,B|192:104|144:152,1,85
88,184,361735,1,0
168,208,361889,2,0,B|216:224|208:280,1,85,0|4
264,112,362351,5,2
304,96,362427,1,0
344,104,362504,1,0
376,136,362581,1,0
384,176,362658,1,2
368,216,362735,1,0
328,232,362812,1,0
288,216,362889,1,0
248,216,362966,5,2
208,240,363043,1,0
200,280,363120,1,0
224,320,363197,1,0
264,320,363274,1,2
296,288,363351,1,0
296,248,363427,1,0
280,208,363504,1,0
240,192,363581,5,2
200,184,363658,1,0
168,160,363735,1,0
152,120,363812,1,0
160,80,363889,1,2
192,48,363966,1,0
232,48,364043,1,0
264,72,364120,1,0
288,112,364197,5,2
320,136,364274,1,2
360,128,364351,1,10
392,96,364427,1,10
400,56,364504,1,14
120,288,364812,6,0,B|144:296|144:320,3,42.5
120,288,365120,2,0,B|98:301|80:286,3,42.5
120,288,365427,2,0,B|126:263|150:261,3,42.5
120,288,365735,5,0
112,248,365812,1,0
120,208,365889,1,0
152,176,365966,1,0
192,168,366043,5,0
232,184,366120,1,0
256,216,366197,1,0
264,256,366274,1,0
296,288,366351,1,0
336,304,366427,1,0
376,296,366504,1,0
408,264,366581,1,0
432,232,366658,5,0
440,192,366735,1,0
432,152,366812,1,0
408,112,366889,1,0
376,88,366966,1,0
336,80,367043,1,0
296,88,367120,1,0
264,112,367197,1,0
224,96,367274,6,0,B|224:72,26,21.25
180,215,368504,2,0,B|156:231,8,21.25
268,215,368966,2,0,B|292:231,8,21.25
221,144,369427,5,0
288,96,369581,1,0
368,112,369735,6,0,B|416:112|464:144,1,85,2|0
344,208,370043,2,0,B|385:231|411:283,1,85,2|0
272,288,370351,2,0,B|295:329|292:387,1,85,2|0
192,296,370658,6,0,B|176:320|200:328,3,21.25
96,184,370966,2,0,B|74:164|63:186,3,21.25,0|0|0|0
240,160,371274,2,0,B|263:143|244:127,3,21.25,0|0|0|0
160,272,371581,2,0,B|177:295|192:275,3,21.25
96,144,371889,2,0,B|85:116|65:131,3,21.25
240,144,372197,6,0,B|240:120|240:112,25,21.25
368,304,373427,2,0,B|368:328|368:336,25,21.25
384,176,374658,6,0,B|448:184,1,42.5,0|4
240,80,375120,2,0,B|216:40,1,42.5,0|4
240,256,375581,2,0,B|216:296,1,42.5,0|4
280,171,375889,5,4
280,171,376504,1,4
136,336,377120,6,0,B|136:208|376:200|376:360,1,340
456,192,378043,5,0
338,68,378351,1,0
170,68,378658,1,0
56,192,378966,1,0
172,316,379274,1,0
340,316,379581,1,4
256,144,380504,5,0
212,216,380658,1,0
300,216,380812,1,8
214,168,380966,5,0
257,241,381120,1,0
298,165,381274,1,0
360,112,381427,1,8
301,50,381581,1,0
213,50,381735,1,0
152,112,381889,1,8
96,48,382043,5,0
56,72,382120,1,0
32,112,382197,1,0
32,152,382274,1,0
56,184,382351,1,0
96,208,382427,1,0
136,216,382504,1,0
168,240,382581,1,0
184,280,382658,5,0
208,312,382735,1,0
240,336,382812,1,0
280,344,382889,1,0
320,328,382966,2,2,B|368:312|392:256,1,85
464,240,383274,5,0
472,200,383351,1,0
464,160,383427,1,0
432,128,383504,1,0
392,120,383581,1,0
352,136,383658,1,0
328,168,383735,1,0
296,200,383812,1,0
256,216,383889,5,0
216,208,383966,1,0
184,184,384043,1,0
168,144,384120,1,0
160,104,384197,2,2,B|128:64|80:48,1,85
88,272,384504,6,0,B|48:256,1,42.5
104,216,384658,2,0,B|64:184,1,42.5
136,168,384812,2,0,B|120:120,1,42.5
184,144,384966,2,0,B|200:104,1,42.5
240,152,385120,6,0,B|288:128,1,42.5
264,192,385274,2,0,B|304:208,1,42.5
248,240,385427,2,0,B|280:280,1,42.5
208,272,385581,2,0,B|200:320,1,42.5
256,344,385735,5,0
296,360,385812,1,0
336,360,385889,1,0
368,336,385966,1,0
384,296,386043,1,0
384,256,386120,1,0
368,216,386197,1,0
336,184,386274,1,0
296,160,386351,5,0
280,120,386427,1,0
296,80,386504,1,0
336,64,386581,1,0
376,72,386658,1,0
400,104,386735,1,0
400,144,386812,1,0
376,176,386889,1,0
400,208,386966,6,0,B|464:216|456:296,3,85
368,272,387581,2,0,B|312:264|312:208,1,85
240,168,387889,6,0,B|208:200|216:248,1,85
168,312,388197,2,0,B|128:288|136:240,1,85
152,160,388504,2,0,B|120:120|56:136,1,85
152,160,388812,2,0,B|160:104|240:104,1,85
296,104,389120,2,0,B|352:104|360:160,1,85
328,232,389427,5,0
336,320,389581,1,0
256,296,389735,1,0
176,320,389889,1,0
184,232,390043,1,0
256,192,390197,1,0
320,136,390351,1,0
256,80,390504,1,0
192,136,390658,6,0,B|152:112|104:144,1,85
72,216,390966,2,0,B|120:232|160:200,1,85
224,152,391274,2,0,B|257:119|311:138,1,85
384,168,391581,2,2,B|416:136|424:80,1,85
352,320,391889,5,0
352,320,391966,2,0,B|352:256,1,42.5,0|8
288,224,392197,1,0
288,224,392274,2,0,B|288:272,1,42.5,0|8
224,320,392504,1,0
224,320,392581,2,0,B|224:256,1,42.5,0|8
224,192,392812,1,0
136,200,392966,6,2,B|168:112|272:96,1,170
344,96,393427,2,2,B|344:144|288:176,1,85
264,88,393735,5,2
184,72,393889,1,0
160,152,394043,1,2
240,168,394197,1,6
264,88,394351,5,0
288,56,394427,1,0
328,40,394504,1,0
368,48,394581,1,0
408,72,394658,1,0
424,112,394735,1,0
416,152,394812,1,0
392,184,394889,1,0
352,200,394966,5,0
320,232,395043,1,0
312,272,395120,1,0
288,312,395197,1,0
248,328,395274,1,0
208,312,395351,1,0
192,272,395427,1,0
168,240,395504,1,0
128,256,395581,6,0,B|128:112,1,127.5
168,80,395889,2,0,B|168:168,1,85
216,208,396120,2,0,B|216:120,1,85
264,80,396351,2,0,B|264:168,1,85
312,208,396581,2,0,B|312:112,1,85
336,88,396812,5,2
376,72,396889,1,0
416,88,396966,1,0
448,120,397043,1,0
464,160,397120,1,2
456,200,397197,1,0
432,240,397274,1,0
392,272,397351,1,0
352,280,397427,1,2
304,280,397504,1,0
264,264,397581,1,0
248,224,397658,1,0
224,192,397735,1,2
184,184,397812,1,0
144,200,397889,1,0
120,232,397966,1,0
120,272,398043,5,2
144,304,398120,1,0
184,312,398197,1,0
224,288,398274,1,0
240,248,398351,1,2
240,208,398427,1,0
232,168,398504,1,0
200,144,398581,1,0
160,128,398658,1,2
128,104,398735,1,0
112,64,398812,1,2
136,32,398889,1,0
176,32,398966,1,2
208,56,399043,1,0
248,48,399120,1,2
256,192,399274,8,0,401581
288,272,401735,6,0,B|376:240|416:136,1,170
416,72,402197,2,0,B|328:104|288:208,1,170
224,224,402658,2,0,B|168:216|144:152,1,85
72,184,402966,6,0,B|88:88|184:56,1,170
256,40,403427,2,0,B|272:136|368:168,1,170
424,216,403889,2,0,B|456:184|448:128,1,85
384,80,404197,6,0,B|288:96|240:168,1,170
320,192,404658,2,0,B|264:272|179:285,1,170
112,232,405120,1,0
200,88,405427,1,0
368,64,405735,1,0
280,208,406043,1,0
112,232,406351,1,0
280,208,406658,6,0,B|328:216|344:256,1,85
328,344,406966,1,0
248,312,407120,2,0,B|112:248|184:80,1,255
344,48,407889,2,0,B|448:64|456:192,1,170
288,192,408504,1,0
288,192,408812,6,0,B|288:280,1,85
208,312,409120,2,0,B|208:216|120:160,1,170
80,104,409581,2,0,B|176:152|264:120,1,170
320,88,410043,1,0
320,88,410120,1,0
320,88,410197,1,8
336,168,410351,5,0
408,208,410504,1,0
392,288,410658,1,0
392,288,410735,1,0
392,288,410812,1,8
304,304,410966,5,0
272,224,411120,1,0
192,192,411274,1,0
192,192,411351,1,0
192,192,411427,1,8
176,272,411581,6,0,B|80:224|80:112,1,170
56,56,412043,2,0,B|168:40|232:104,1,170
224,176,412504,2,0,B|272:208|336:176,1,85
368,248,412812,6,0,B|448:192|424:80,1,170
392,24,413274,2,0,B|328:72|344:184,1,170
312,256,413735,2,0,B|304:304|264:328,1,85
224,248,414043,5,0
224,248,414197,1,0
144,224,414351,2,0,B|104:256|48:224,1,85
96,152,414658,2,0,B|128:112|184:128,2,85
144,224,415120,1,0
208,280,415274,6,0,B|304:280,1,85
368,240,415581,2,0,B|280:240,1,85
208,200,415889,2,0,B|296:200,1,85
368,152,416197,1,0
432,96,416351,1,0
352,72,416504,6,0,B|280:40|184:48,1,170
104,64,416966,2,0,B|160:144|96:248,1,170
96,312,417427,2,0,B|184:344,1,85
256,320,417735,1,0
112,272,418658,6,0,B|64:264|32:216,2,85
192,240,419120,2,0,B|168:208|184:136,1,85
232,96,419427,1,0
312,64,419581,2,0,B|352:32|408:48,1,85
256,192,420043,8,0,421120
432,344,421427,6,0,B|328:376|256:280,1,170
276,304,421889,1,0
360,160,422197,1,0
296,216,422351,1,0
272,136,422504,1,0
336,80,422658,5,0
168,56,422966,1,0
168,56,423120,2,0,B|88:120|112:240,1,170
168,264,423581,1,0
88,288,423735,1,0
32,224,423889,6,0,B|48:120,1,85
104,80,424197,1,0
176,32,424351,2,0,B|328:16|392:152,1,255
216,112,425120,2,0,B|152:184|192:272,1,170
344,352,425735,2,0,B|408:280|368:192,1,170
256,64,426351,6,0,B|208:40|168:72,1,85
216,144,426658,1,0
256,216,426812,1,0
480,96,427120,2,0,B|448:88|416:88|392:96,1,85
328,144,427427,1,0
336,232,427581,2,0,B|288:320|168:296,2,170
384,160,428351,1,0
344,88,428504,1,0
264,56,428658,1,0
264,144,428812,2,0,B|232:184|176:184,1,85
168,184,429043,1,0
146,185,429120,1,0
125,190,429197,1,0
104,196,429274,1,0
50,261,429427,5,0
208,328,429581,1,0
40,344,429735,1,0
184,248,429889,1,0
296,192,430043,2,0,B|328:160|392:168,1,85
395,168,430274,1,0
415,173,430351,1,0
464,240,430504,1,0
320,336,430658,1,0
184,248,430812,1,0
320,144,430966,1,0
320,144,431274,6,0,B|352:184|336:248,1,85
256,200,431581,1,0
216,120,431735,2,0,B|168:144|168:192,2,85
256,200,432197,1,0
256,224,432274,1,0
256,248,432351,1,0
224,328,432504,2,0,B|272:360|344:360|392:296,1,170
432,248,432966,2,0,B|424:152|336:104,1,170
336,192,433427,2,0,B|336:288,1,85
280,344,433735,1,0
256,264,433889,1,0
192,320,434043,1,0
168,240,434197,1,0
232,184,434351,2,0,B|280:184,2,42.5
184,112,434658,2,0,B|136:112,2,42.5
256,64,434966,2,0,B|304:72|320:120,1,85
240,136,435274,2,0,B|176:200,1,85
168,280,435581,2,0,B|120:272|104:224,1,85
184,200,435889,2,0,B|280:200,1,85
320,136,436197,6,0,B|432:152|432:272,1,170
448,328,436658,2,0,B|336:312|336:192,1,170
320,136,437120,1,0
264,72,437274,1,0
184,40,437427,1,4
320,280,438351,6,0,B|296:320|240:320,1,85
248,232,438658,1,0
112,128,438966,1,0
88,152,439043,1,0
72,184,439120,1,0
40,248,439274,2,0,B|16:296|40:344|104:352,1,127.5
136,264,439735,1,0
176,192,439889,6,0,B|176:144,2,42.5
256,296,440197,2,0,B|256:344,2,42.5
336,192,440504,2,0,B|336:144,2,42.5
256,296,440812,1,0
256,272,440889,1,0
256,248,440966,1,0
256,224,441043,1,0
256,200,441120,6,0,B|264:96|360:72,1,170
256,200,441581,2,0,B|248:96|152:72,1,170
256,200,442043,1,0
368,256,442197,1,0
256,312,442351,1,0
256,312,442658,5,0
144,256,442812,1,0
256,200,442966,1,0
296,120,443274,6,0,B|256:96|216:120,1,85
256,200,443581,2,0,B|312:272|432:248,1,170
256,200,444197,2,0,B|160:200,1,85
256,192,444658,12,0,445735
256,192,446043,5,0
256,192,446197,1,0
440,160,446504,1,0
448,192,446581,1,0
440,224,446658,1,0
352,192,446812,1,0
72,160,447120,5,0
64,192,447197,1,0
72,224,447274,1,0
160,192,447427,1,0
256,192,447581,2,0,B|296:224|296:224|320:288,1,85
256,192,447889,2,0,B|216:224|216:224|192:288,1,85
256,192,448197,2,0,B|256:72,1,85
256,107,448658,5,0
256,107,448966,1,0
256,88,449043,1,0
256,64,449120,2,0,B|256:0,1,42.5
400,104,449581,1,0
400,104,449658,1,0
424,128,449735,5,0
432,160,449812,1,0
424,192,449889,1,0
400,216,449966,1,0
368,224,450043,1,0
336,216,450120,1,0
312,192,450197,1,0
288,168,450274,1,0
256,160,450351,1,0
224,168,450427,1,0
200,192,450504,1,0
176,216,450581,1,0
152,240,450658,2,0,B|120:280|64:288,1,85
256,272,450966,5,0
256,272,451120,1,0
256,272,451427,1,0
256,240,451504,1,0
256,208,451581,2,0,B|256:120,1,85
256,272,452043,5,0
256,304,452120,1,0
256,336,452197,2,0,B|212:340|212:340|168:352,1,85
256,336,452504,2,0,B|299:340|299:340|344:352,1,85
168,280,452812,1,0
344,280,452966,1,0
256,160,453120,2,0,B|256:72,1,85
256,75,453581,5,0
384,192,453889,1,0
368,224,453966,1,0
344,248,454043,1,0
256,232,454197,1,0
256,320,454351,1,0
256,232,454504,1,0
184,272,454658,5,0
162,269,454735,1,0
145,256,454812,1,0
139,235,454889,1,0
150,217,454966,1,0
168,206,455043,1,0
183,191,455120,1,0
187,170,455197,1,0
173,153,455274,1,0
153,145,455351,1,0
135,133,455427,1,0
129,112,455504,1,0
135,91,455581,1,4
256,56,456043,5,0
336,280,456197,1,0
136,144,456351,1,0
376,144,456504,1,0
176,280,456658,1,0
256,184,457274,5,0
352,336,457427,1,0
256,184,457581,1,0
160,336,457735,1,0
256,184,457889,1,0
256,24,458043,1,4
