osu file format v5

[General]
AudioFilename: 02 Fury Of The Storm.mp3
AudioLeadIn: 0
PreviewTime: -1
Countdown: 1
SampleSet: Normal
StackLeniency: 0.3
Mode: 0
LetterboxInBreaks: 1
EditorBookmarks: 1978,11879,21394,41569,46594,51994,58444,72394,77569,82594,92494,102094,110494,120469,144844,156994,166894,176494,184819,194869

[Metadata]
Title:Fury of the Storm
Artist:DragonForce
Creator:kingcobra52
Version:Hard
Source:
Tags:

[Difficulty]
HPDrainRate:6
CircleSize:5
OverallDifficulty:6
SliderMultiplier:1.4
SliderTickRate:2

[Events]
//Background and Video events
0,0,"lightning.jpg"
//Break Periods
2,32544,40744
2,63744,71944
2,128544,143944
//Storyboard Layer 0 (Background)
//Storyboard Layer 1 (Failing)
//Storyboard Layer 2 (Passing)
//Storyboard Layer 3 (Foreground)
//Storyboard Sound Samples
//Background Colour Transformations
3,100,163,162,255

[TimingPoints]
3544,300.000680796834,4,1,0,90,1

[Colours]
Combo1 : 191,0,0
Combo2 : 255,255,255
Combo3 : 0,191,0
Combo4 : 253,253,0

[HitObjects]
256,88,2343,1,4
176,144,2643,1,0
128,168,2793,1,0
112,216,2943,1,0
136,256,3093,1,0
184,272,3243,1,0
256,336,3544,1,4
328,272,3844,1,0
368,248,3994,1,0
368,200,4144,1,0
352,152,4294,1,0
304,144,4444,1,0
208,144,4744,5,4
144,64,5044,1,0
104,96,5194,1,0
72,128,5344,1,0
104,168,5494,1,0
144,200,5644,1,0
184,224,5794,1,0
224,248,5944,2,4,B|267:286|327:286|376:224,4,140
152,320,7444,5,0
120,280,7594,1,0
88,232,7744,1,0
120,192,7894,1,0
160,160,8044,1,0
248,104,8344,1,4
336,160,8644,1,0
376,192,8794,1,0
408,232,8944,1,0
376,272,9094,1,0
344,312,9244,1,0
240,312,9544,5,4
240,208,9844,1,4
136,208,10144,1,4
136,104,10444,1,4
240,104,10744,1,4
240,208,11044,1,4
136,208,11344,1,4
136,104,11644,1,4
240,104,11944,6,0,B|312:56,1,70
352,56,12244,2,0,B|408:120,1,70
432,152,12544,2,0,B|456:240,1,70
456,272,12844,1,0
352,304,13144,6,0,B|272:352,1,70
240,352,13444,2,0,B|168:280,1,70
184,248,13744,2,0,B|248:192,1,70
236,201,14044,1,0
312,128,14344,6,0,B|272:56,1,70
224,56,14644,2,0,B|128:32,1,70
136,88,14944,2,0,B|64:64,1,70
48,112,15244,2,0,B|128:144,1,70
88,184,15544,2,2,C|62:220|92:249|56:288,3,140
160,304,16744,6,0,B|224:360,1,70
264,344,17044,2,0,B|328:288,1,70
368,296,17344,2,0,B|424:352,1,70
472,344,17644,1,0
416,256,17944,6,0,B|352:184,1,70
328,168,18244,2,0,B|264:96,1,70
240,80,18544,2,0,B|192:24,1,70
144,24,18844,1,0
144,128,19144,6,0,B|88:192,1,70
136,216,19444,2,0,B|192:152,1,70
224,192,19744,2,0,B|168:264,1,70
224,280,20044,2,0,B|272:224,1,70
304,184,20344,2,2,C|339:158|319:136|384:136,3,140
440,224,21544,6,0,B|368:272,1,70
336,288,21844,2,0,B|264:288,1,70
216,280,22144,2,0,B|136:216,1,70
128,192,22444,1,0
128,88,22744,6,0,B|208:40,1,70
240,40,23044,2,0,B|312:112,1,70
336,112,23344,2,0,B|392:64,1,70
440,64,23644,1,0
432,168,23944,6,0,B|432:240,1,70
400,192,24244,2,0,B|400:280,1,70
368,216,24544,2,0,B|368:288,1,70
336,240,24844,2,0,B|336:320,1,70
280,320,25144,2,2,C|136:320,1,140
136,224,25744,2,2,B|280:224,1,140
280,120,26344,6,0,B|216:56,1,70
176,72,26644,2,0,B|112:136,1,70
88,160,26944,2,0,B|32:208,1,70
32,256,27244,1,0
120,312,27544,6,0,B|48:264,1,70
112,256,27844,2,0,B|192:312,1,70
176,240,28144,2,0,B|240:288,1,70
232,282,28444,1,0
256,176,28744,2,0,B|312:176,15,35
256,192,29944,12,4,32344
72,168,41944,5,0
136,80,42244,1,2
192,168,42544,1,0
248,80,42844,1,2
304,168,43144,1,0
360,80,43444,1,2
416,168,43744,1,0
480,80,44044,1,2
416,168,44344,5,0
376,264,44644,1,2
280,320,44944,1,0
176,304,45244,1,2
96,232,45544,1,0
72,128,45844,1,2
128,40,46144,1,0
232,24,46444,1,2
336,32,46744,6,0,B|392:104,1,70
408,128,47044,2,0,B|464:184,1,70
456,232,47344,2,0,B|392:272,1,70
408,320,47644,2,0,B|344:352,1,70
288,352,47944,2,0,B|224:312,1,70
192,280,48244,2,0,B|192:184,1,70
184,160,48544,2,0,B|240:112,1,70
288,112,48844,2,0,B|344:168,1,70
376,192,49144,6,0,B|376:248,3,35
400,224,49444,6,0,B|400:168,3,35
424,192,49744,6,0,B|424:248,3,35
448,224,50044,6,0,B|448:168,3,35
256,192,50344,12,4,51544
112,192,52744,5,4
392,192,53044,1,4
328,280,53344,5,0
240,336,53644,1,0
152,280,53944,2,0,B|64:240,1,70
88,200,54244,2,0,B|160:176,1,70
168,128,54544,2,0,B|256:96,1,70
288,104,54844,2,0,B|360:136,1,70
400,152,55144,2,0,B|455:225|376:288,1,140
344,304,55594,2,0,B|292:352|192:304,1,140
56,144,56344,5,0
96,112,56494,1,0
136,80,56644,1,0
176,48,56794,1,0
224,48,56944,2,0,B|312:48,1,70
344,56,57244,2,0,B|416:96,1,70
440,128,57544,2,2,B|455:186|431:225|352:240,1,140
328,256,57994,1,2
72,56,58744,5,0
72,104,58894,1,0
72,152,59044,1,0
72,200,59194,1,0
120,200,59344,2,0,B|200:200,1,70
240,200,59644,2,0,B|312:200,1,70
360,200,59944,2,0,B|418:185|457:209|472:288,1,140
464,312,60394,1,0
360,312,60694,1,0
104,312,61144,5,0
64,272,61294,1,0
64,216,61444,1,0
104,176,61594,1,0
144,136,61744,2,0,B|216:96,1,70
256,104,62044,2,0,B|328:144,1,70
360,168,62344,2,0,L|425:205|384:272,1,140
256,192,62794,12,4,63544
256,328,73144,5,0
232,280,73294,1,0
256,232,73444,1,0
232,184,73594,1,0
256,136,73744,2,0,B|265:92|336:104,1,70
360,104,74044,2,0,B|400:103|416:152,1,70
416,192,74344,2,0,B|416:336,1,140
360,336,74794,2,0,B|208:336,1,140
64,168,75544,5,0
64,112,75694,1,0
64,56,75844,1,0
112,56,75994,1,0
160,56,76144,2,0,B|248:56,1,70
232,104,76444,1,0
280,104,76594,1,0
280,152,76744,2,2,B|289:206|328:230|386:215,1,140
432,216,77194,1,2
48,320,77944,5,0
88,280,78094,1,0
128,240,78244,1,0
168,200,78394,1,0
208,168,78544,2,0,B|272:224,1,70
296,176,78844,2,0,B|232:112,1,70
208,96,79144,2,0,L|171:51|88:72,1,140
40,88,79594,1,0
40,192,79894,1,0
312,184,80344,5,0
320,232,80494,1,0
360,264,80644,1,0
408,264,80794,1,0
408,208,80944,2,0,B|480:168,1,70
472,120,81244,2,0,B|408:80,1,70
360,80,81544,2,2,L|379:138|280:104,1,140
256,96,81994,2,2,L|159:55|40:96,1,210
56,192,82744,5,4
56,296,83044,1,4
160,296,83344,1,4
264,296,83644,1,4
264,192,83944,1,4
368,192,84244,1,4
472,192,84544,1,4
472,88,84844,1,4
368,88,85144,2,4,L|248:8,1,140
176,88,85744,2,4,B|312:176,1,140
296,272,86344,2,0,L|352:272,15,35
360,144,87844,5,0
400,104,87994,1,0
440,144,88144,2,0,L|496:96|456:40,1,140
352,32,88744,1,0
296,32,88894,1,0
192,32,89194,2,0,B|128:25|77:65|76:136|128:192,1,210
152,264,89944,1,0
256,264,90244,1,0
304,264,90394,2,0,B|304:48,1,210
256,192,91144,12,4,92344
256,192,92644,5,0
152,192,92944,1,0
64,136,93244,2,0,B|128:80,1,70
160,56,93544,1,0
216,56,93694,1,0
272,56,93844,2,0,B|368:56,5,70
400,56,94744,1,0
400,168,95044,1,0
456,168,95194,2,0,B|496:216|450:318|368:328,1,210
320,312,95794,1,0
264,288,95944,1,0
216,264,96094,2,0,B|152:224,1,70
112,192,96394,2,0,B|40:144,1,70
48,96,96694,2,0,B|128:56,1,70
160,40,96994,1,0
216,40,97144,1,0
320,80,97444,5,0
376,80,97594,1,0
376,192,97894,1,0
432,192,98044,1,0
376,288,98344,2,0,B|304:312|232:280,1,140
128,248,98944,2,0,B|56:264,1,70
48,208,99244,2,0,B|128:192,1,70
168,184,99544,2,2,B|139:109|248:72,1,140
288,80,99994,2,2,B|381:111|352:186,1,140
344,240,100444,1,2
256,192,100744,12,4,101944
320,200,102244,6,4,B|257:241|184:200,2,140
320,96,103144,1,0
400,168,103444,1,0
440,208,103594,1,0
440,312,103894,1,0
400,344,104044,1,0
296,352,104344,2,0,B|224:336|200:248,1,140
202,257,104794,2,0,B|248:197|196:132|142:202|101:144|144:64,1,210
232,96,105544,1,2
344,96,105844,1,2
432,160,106144,5,0
408,264,106444,1,0
312,320,106744,2,0,B|240:273|336:251|264:184,1,140
276,196,107194,2,0,B|272:136|244:64|180:136|143:124|128:40,1,210
48,128,107944,1,0
96,224,108244,1,0
120,272,108394,1,0
224,280,108694,1,0
248,320,108844,1,0
256,192,109144,12,4,110344
256,88,110644,5,4
168,232,110944,1,4
352,232,111244,1,4
256,192,111544,2,0,B|256:336,1,140
200,336,111994,1,0
96,336,112294,1,0
96,280,112444,1,0
96,184,112744,2,0,B|152:128,1,70
184,96,113044,1,0
232,184,113344,6,0,B|296:128,1,70
336,136,113644,2,0,B|392:184,1,70
432,216,113944,2,0,B|432:296|336:320,1,140
296,328,114394,1,0
192,296,114694,1,0
136,296,114844,1,0
56,232,115144,2,2,B|56:136,1,70
56,112,115444,2,2,B|136:112,1,70
176,112,115744,1,2
280,112,116044,1,0
384,128,116344,6,0,B|442:162|424:256,1,140
416,304,116794,1,0
312,304,117094,1,0
280,264,117244,1,0
184,304,117544,2,0,B|96:280|88:224|88:208,1,140
88,160,117994,1,0
128,64,118294,1,0
176,64,118444,1,0
280,64,118744,2,0,B|376:88,1,70
400,96,119044,2,0,B|456:160,1,70
448,200,119344,2,0,B|424:280,1,70
400,312,119644,2,0,B|320:336,1,70
288,312,119944,2,2,B|208:256,1,70
208,224,120244,2,2,B|200:152,1,70
192,96,120544,5,2
128,176,120844,1,0
72,264,121144,2,0,B|107:337|200:304,1,140
240,304,121594,1,0
336,264,121894,1,0
384,240,122044,1,0
440,152,122344,2,0,B|440:64,1,70
384,80,122644,2,0,B|384:152,1,70
328,152,122944,6,0,B|328:64,1,70
272,80,123244,2,0,B|272:168,1,70
272,208,123544,2,0,B|232:264|176:248|152:208,1,140
120,168,123994,1,0
80,64,124294,1,0
32,96,124444,1,0
32,208,124744,2,0,B|32:264,15,35
32,272,125944,5,4
144,272,126244,1,0
200,272,126394,1,0
272,184,126694,1,0
328,184,126844,1,0
416,112,127144,1,4
256,192,127594,12,4,128344
256,192,145144,12,4,146344
256,192,146644,5,4
456,48,147544,5,0
416,88,147694,1,0
376,48,147844,1,0
344,88,147994,1,0
304,56,148144,2,0,B|295:12|224:24,1,70
216,64,148444,2,0,B|229:104|269:103,1,70
272,152,148744,2,0,B|286:215|200:252|168:184,1,140
144,160,149194,2,0,B|98:119|28:156|40:216,1,140
240,320,149944,5,0
288,296,150094,1,0
336,320,150244,1,0
384,296,150394,1,0
424,264,150544,2,0,B|488:216,1,70
480,168,150844,1,0
480,112,150994,1,0
424,104,151144,2,2,B|415:50|376:26|318:41,1,140
272,56,151594,1,2
56,296,152344,5,0
56,240,152494,1,0
104,240,152644,1,0
152,240,152794,1,0
200,240,152944,2,0,B|264:304,1,70
304,288,153244,2,0,B|376:248,1,70
416,232,153544,2,0,L|425:161|376:96,1,140
352,64,153994,1,0
248,64,154294,1,0
248,328,154744,5,0
208,288,154894,1,0
168,328,155044,1,0
136,288,155194,1,0
104,248,155344,2,0,B|176:208,1,70
216,200,155644,2,0,B|288:248,1,70
320,264,155944,2,2,L|380:284|440:232,1,140
440,176,156394,2,2,L|355:107|256:160,1,210
168,112,157144,6,0,B|104:56,1,70,0|0
56,72,157444,2,0,B|16:136,1,70,0|0
24,184,157744,2,0,B|64:256,1,70,0|0
80,296,158044,2,0,B|152:320,1,70,0|0
176,272,158344,2,0,B|256:296,1,70,0|0
272,248,158644,2,0,B|344:280,1,70
376,240,158944,2,0,B|432:192,1,70
440,136,159244,2,0,B|384:80,1,70
344,56,159544,2,0,L|256:32,1,70
216,40,159844,2,0,B|168:112,1,70
176,152,160144,2,0,B|232:224,1,70
224,264,160444,2,0,B|184:328,1,70
128,328,160744,2,0,L|72:328,15,35
232,328,162244,5,0
344,328,162544,2,0,L|313:271|384:240,1,140
488,200,163144,1,0
400,128,163444,1,0
344,128,163594,2,0,B|308:92|237:93|197:144|204:208,1,210
112,136,164344,1,0
112,248,164644,1,0
112,304,164794,2,0,B|112:88,1,210
256,192,165544,12,4,166744
256,192,167044,5,0
256,304,167344,1,0
368,304,167644,2,0,B|432:248,1,70
416,200,167944,2,0,B|360:152,1,70
360,96,168244,2,0,B|440:40,4,70
304,96,168994,1,0
248,96,169144,1,0
136,96,169444,1,0
80,96,169594,2,0,B|40:144|86:246|168:256,1,210
208,280,170194,1,0
256,304,170344,1,0
312,312,170494,2,0,B|400:312,1,70
384,256,170794,2,0,B|304:256,1,70
312,200,171094,2,2,B|392:200,1,70
384,144,171394,2,2,B|312:144,1,70
224,72,171844,5,0
168,72,171994,1,0
168,184,172294,1,0
224,184,172444,1,0
272,288,172744,2,0,B|208:334|128:280,1,140
24,288,173344,2,0,B|24:208,1,70
24,160,173644,2,0,B|104:160,1,70
152,160,173944,2,2,B|123:235|232:272,1,140
215,266,174394,2,2,B|221:333|331:346,1,140
376,344,174844,1,2
256,192,175144,12,4,176344
320,184,176644,6,4,B|257:143|184:184,2,140
256,96,177544,2,0,B|192:64,1,70
136,64,177844,1,0
80,64,177994,1,0
80,120,178144,2,0,B|80:200,1,70
80,248,178444,1,0
80,304,178594,1,0
136,304,178744,2,0,B|152:232|240:208,1,140
231,210,179194,2,0,B|278:241|336:200|266:146|331:94|391:140,1,210
480,184,179944,1,0
480,296,180244,1,0
368,296,180544,5,0
256,296,180844,1,0
144,296,181144,2,0,B|144:152,1,140
144,96,181594,2,0,B|288:96,1,140,0|0
336,96,182044,1,0
416,176,182344,1,0
336,256,182644,1,0
280,256,182794,1,0
168,256,183094,1,0
224,256,183244,1,0
256,192,183544,12,4,184744
152,96,185044,5,4
256,264,185344,1,4
360,96,185644,1,4
432,264,185944,2,0,B|428:348|312:344,1,140
280,344,186394,1,0
168,344,186694,1,0
168,288,186844,1,0
80,216,187144,2,0,B|136:160,1,70
168,128,187444,2,0,B|224:72,1,70
272,80,187744,6,0,B|336:152,1,70
360,168,188044,2,0,B|408:224,1,70
440,264,188344,2,0,B|440:344|344:352,1,140
296,352,188794,1,0
184,352,189094,1,0
240,352,189244,1,0
240,240,189544,2,0,B|240:144,1,70
240,112,189844,2,0,B|144:112,1,70
112,112,190144,2,2,B|112:32,1,70
56,40,190444,1,2
56,152,190744,6,0,B|39:243|136:248,1,140
184,248,191194,1,0
296,248,191494,1,0
336,288,191644,1,0
440,256,191944,2,0,B|352:232|344:176|344:160,1,140
336,112,192394,1,0
224,144,192694,1,0
192,96,192844,1,0
80,96,193144,2,0,B|80:192,1,70
80,224,193444,2,0,B|136:288,1,70
168,312,193744,2,0,B|248:328,1,70
288,320,194044,2,0,B|360:296,1,70
400,264,194344,2,2,B|432:192,1,70
432,144,194644,2,2,B|400:72,1,70
360,48,194944,6,2,B|272:48,1,70
288,104,195244,2,2,B|216:104,1,70
216,160,195544,2,0,B|181:233|88:200,1,140
40,208,195994,1,0
40,320,196294,1,0
96,320,196444,1,0
208,328,196744,2,0,B|288:328,3,70
336,328,197344,6,0,B|384:264,1,70
384,216,197644,2,0,B|336:136,1,70
320,104,197944,2,0,B|280:48|224:64|200:104,1,140
203,98,198394,1,0
88,96,198694,1,0
88,152,198844,1,0
168,224,199144,2,0,B|216:264,15,35
216,264,200344,5,4
264,280,200494,1,0
320,272,200644,1,0
368,248,200794,1,0
408,208,200944,1,0
416,152,201094,1,0
416,96,201244,1,0
384,48,201394,1,0
328,32,201544,1,4
256,192,201994,12,4,203944
