osu file format v14

[General]
AudioFilename: Dragonforce - Fury of the Storm_(song365.cc).mp3
AudioLeadIn: 0
PreviewTime: 108552
Countdown: 0
SampleSet: Normal
StackLeniency: 0.7
Mode: 1
LetterboxInBreaks: 0
WidescreenStoryboard: 0

[Editor]
Bookmarks: 126178,183852,211378,240178,259378,297778,316978,333778,350578
DistanceSpacing: 0.8
BeatDivisor: 4
GridSize: 4
TimelineZoom: 2.299999

[Metadata]
Title:Fury of the Storm
TitleUnicode:Fury of the Storm
Artist:DragonForce
ArtistUnicode:DragonForce
Creator:OzzyOzrock
Version:Tatsujin
Source:
Tags:sonic firestorm speed metal english fots guitar hero 6 warriors of rock deathstream herman li is cool
BeatmapID:690886
BeatmapSetID:308987

[Difficulty]
HPDrainRate:4
CircleSize:5
OverallDifficulty:6.5
ApproachRate:6
SliderMultiplier:1.4
SliderTickRate:1

[Events]
//Background and Video events
0,0,"edgycolorediting.jpg",0,0
//Break Periods
2,370052,376002
//Storyboard Layer 0 (Background)
//Storyboard Layer 1 (Fail)
//Storyboard Layer 2 (Pass)
//Storyboard Layer 3 (Foreground)
//Storyboard Sound Samples

[TimingPoints]
252,300,4,1,0,100,1,0
109452,-100,4,1,0,100,0,1
126252,-100,4,1,0,100,0,0
183852,-100,4,1,0,100,0,1
200652,-100,4,1,0,100,0,0
269052,-100,4,1,0,100,0,1
297852,-100,4,1,0,100,0,0
379452,-100,4,1,0,100,0,1
402927,-100,4,1,0,100,0,0

[HitObjects]
128,128,251,5,4,0:0:0:0:
96,288,552,1,0,0:0:0:0:
416,288,702,1,8,0:0:0:0:
416,288,852,1,8,0:0:0:0:
160,288,1002,1,0,0:0:0:0:
128,128,1152,1,4,0:0:0:0:
128,128,1302,1,4,0:0:0:0:
128,128,1452,1,4,0:0:0:0:
128,288,1752,1,0,0:0:0:0:
416,320,1902,1,8,0:0:0:0:
416,320,2052,1,8,0:0:0:0:
416,320,2202,1,8,0:0:0:0:
160,320,2352,1,0,0:0:0:0:
160,128,2652,1,4,0:0:0:0:
160,320,2952,1,0,0:0:0:0:
384,320,3102,1,8,0:0:0:0:
384,320,3252,1,8,0:0:0:0:
224,320,3402,1,0,0:0:0:0:
384,320,3552,1,8,0:0:0:0:
224,320,3702,1,0,0:0:0:0:
384,320,3852,1,8,0:0:0:0:
384,320,3927,1,8,0:0:0:0:
384,320,4002,1,8,0:0:0:0:
256,320,4152,1,0,0:0:0:0:
256,320,4227,1,0,0:0:0:0:
416,320,4302,1,8,0:0:0:0:
256,320,4452,1,0,0:0:0:0:
256,320,4527,1,0,0:0:0:0:
256,320,4602,1,0,0:0:0:0:
256,320,4752,1,0,0:0:0:0:
128,96,5052,1,4,0:0:0:0:
256,320,5352,1,0,0:0:0:0:
352,320,5502,1,8,0:0:0:0:
352,320,5652,1,8,0:0:0:0:
256,320,5802,1,0,0:0:0:0:
256,320,5952,1,0,0:0:0:0:
128,128,6252,1,4,0:0:0:0:
256,320,6552,1,0,0:0:0:0:
384,320,6702,1,8,0:0:0:0:
384,320,6852,1,8,0:0:0:0:
384,320,7002,1,8,0:0:0:0:
256,320,7152,1,0,0:0:0:0:
128,160,7452,1,4,0:0:0:0:
128,160,7752,1,4,0:0:0:0:
128,128,8052,1,4,0:0:0:0:
128,128,8352,1,4,0:0:0:0:
128,128,8652,1,4,0:0:0:0:
128,128,8952,1,4,0:0:0:0:
128,128,9252,1,4,0:0:0:0:
160,288,9402,1,0,0:0:0:0:
160,288,9452,1,0,0:0:0:0:
160,288,9502,1,0,0:0:0:0:
384,288,9552,1,8,0:0:0:0:
160,288,9852,1,0,0:0:0:0:
160,288,9927,1,0,0:0:0:0:
352,256,10002,1,8,0:0:0:0:
160,288,10077,1,0,0:0:0:0:
384,288,10152,1,8,0:0:0:0:
384,288,10227,1,8,0:0:0:0:
160,288,10302,1,0,0:0:0:0:
160,288,10377,1,0,0:0:0:0:
352,288,10452,1,8,0:0:0:0:
352,288,10527,1,8,0:0:0:0:
192,288,10602,1,0,0:0:0:0:
352,288,10677,1,8,0:0:0:0:
192,288,10752,1,0,0:0:0:0:
192,288,10827,1,0,0:0:0:0:
352,288,10902,1,8,0:0:0:0:
352,288,10977,1,8,0:0:0:0:
192,320,11052,1,0,0:0:0:0:
192,320,11127,1,0,0:0:0:0:
352,288,11202,1,8,0:0:0:0:
224,288,11277,1,0,0:0:0:0:
288,288,11352,1,8,0:0:0:0:
320,288,11427,1,8,0:0:0:0:
160,288,11502,1,0,0:0:0:0:
192,288,11577,1,0,0:0:0:0:
352,288,11652,1,8,0:0:0:0:
224,320,11727,1,0,0:0:0:0:
320,288,11802,1,8,0:0:0:0:
320,288,11877,1,8,0:0:0:0:
224,288,11952,1,0,0:0:0:0:
224,288,12027,1,0,0:0:0:0:
224,288,12102,1,0,0:0:0:0:
128,288,12252,1,0,0:0:0:0:
128,288,12327,1,0,0:0:0:0:
352,288,12402,1,8,0:0:0:0:
352,288,12477,1,8,0:0:0:0:
352,288,12552,1,8,0:0:0:0:
192,288,12627,1,0,0:0:0:0:
192,288,12702,1,0,0:0:0:0:
192,288,12777,1,0,0:0:0:0:
352,288,12852,1,8,0:0:0:0:
352,288,12927,1,8,0:0:0:0:
224,288,13002,1,0,0:0:0:0:
320,288,13077,1,8,0:0:0:0:
192,288,13152,1,0,0:0:0:0:
160,288,13227,1,0,0:0:0:0:
352,288,13302,1,8,0:0:0:0:
352,288,13377,1,8,0:0:0:0:
192,288,13452,1,0,0:0:0:0:
192,288,13527,1,0,0:0:0:0:
192,288,13602,1,0,0:0:0:0:
320,288,13752,1,8,0:0:0:0:
320,288,13827,1,8,0:0:0:0:
320,288,13902,1,8,0:0:0:0:
160,288,14052,1,0,0:0:0:0:
160,288,14127,1,0,0:0:0:0:
160,288,14202,1,0,0:0:0:0:
352,288,14352,1,8,0:0:0:0:
160,288,14652,1,0,0:0:0:0:
160,288,14727,1,0,0:0:0:0:
352,288,14802,1,8,0:0:0:0:
224,288,14877,1,0,0:0:0:0:
320,288,14952,1,8,0:0:0:0:
320,288,15027,1,8,0:0:0:0:
224,288,15102,1,0,0:0:0:0:
160,288,15177,1,0,0:0:0:0:
320,288,15252,1,8,0:0:0:0:
320,288,15327,1,8,0:0:0:0:
192,288,15402,1,0,0:0:0:0:
320,288,15477,1,8,0:0:0:0:
320,288,15552,1,8,0:0:0:0:
320,288,15627,1,8,0:0:0:0:
192,288,15702,1,0,0:0:0:0:
160,288,15852,1,0,0:0:0:0:
160,288,15927,1,0,0:0:0:0:
384,288,16002,1,8,0:0:0:0:
128,256,16077,1,0,0:0:0:0:
320,288,16152,1,8,0:0:0:0:
320,288,16227,1,8,0:0:0:0:
192,288,16302,1,0,0:0:0:0:
352,288,16377,1,8,0:0:0:0:
352,288,16452,1,8,0:0:0:0:
352,288,16527,1,8,0:0:0:0:
160,288,16602,1,0,0:0:0:0:
320,288,16677,1,8,0:0:0:0:
384,288,16752,1,8,0:0:0:0:
192,288,16827,1,0,0:0:0:0:
192,288,16902,1,0,0:0:0:0:
160,288,17052,1,0,0:0:0:0:
160,288,17127,1,0,0:0:0:0:
352,288,17202,1,8,0:0:0:0:
192,288,17277,1,0,0:0:0:0:
384,288,17352,1,8,0:0:0:0:
384,288,17427,1,8,0:0:0:0:
192,288,17502,1,0,0:0:0:0:
352,288,17577,1,8,0:0:0:0:
352,288,17652,1,8,0:0:0:0:
352,288,17727,1,8,0:0:0:0:
224,288,17802,1,0,0:0:0:0:
384,288,17877,1,8,0:0:0:0:
160,288,17952,1,0,0:0:0:0:
160,288,18027,1,0,0:0:0:0:
320,288,18102,1,8,0:0:0:0:
352,288,18252,1,8,0:0:0:0:
352,288,18327,1,8,0:0:0:0:
352,288,18402,1,8,0:0:0:0:
192,288,18552,1,0,0:0:0:0:
192,288,18627,1,0,0:0:0:0:
352,288,18702,1,8,0:0:0:0:
192,320,18852,1,0,0:0:0:0:
192,320,18927,1,0,0:0:0:0:
192,320,19002,1,0,0:0:0:0:
320,288,19152,1,8,0:0:0:0:
160,288,19452,1,0,0:0:0:0:
160,288,19527,1,0,0:0:0:0:
384,288,19602,1,8,0:0:0:0:
192,288,19677,1,0,0:0:0:0:
352,288,19752,1,8,0:0:0:0:
352,288,19827,1,8,0:0:0:0:
160,288,19902,1,0,0:0:0:0:
160,288,19977,1,0,0:0:0:0:
352,288,20052,1,8,0:0:0:0:
352,288,20127,1,8,0:0:0:0:
192,288,20202,1,0,0:0:0:0:
352,288,20277,1,8,0:0:0:0:
192,288,20352,1,0,0:0:0:0:
192,288,20427,1,0,0:0:0:0:
384,288,20502,1,8,0:0:0:0:
384,288,20652,1,8,0:0:0:0:
384,288,20727,1,8,0:0:0:0:
160,288,20802,1,0,0:0:0:0:
160,288,20877,1,0,0:0:0:0:
320,288,20952,1,8,0:0:0:0:
160,288,21027,1,0,0:0:0:0:
320,288,21102,1,8,0:0:0:0:
160,288,21177,1,0,0:0:0:0:
320,288,21252,1,8,0:0:0:0:
320,288,21327,1,8,0:0:0:0:
192,288,21402,1,0,0:0:0:0:
352,288,21477,1,8,0:0:0:0:
192,288,21552,1,0,0:0:0:0:
192,288,21627,1,0,0:0:0:0:
384,288,21702,1,8,0:0:0:0:
160,288,21852,1,0,0:0:0:0:
160,288,21927,1,0,0:0:0:0:
320,288,22002,1,8,0:0:0:0:
192,288,22077,1,0,0:0:0:0:
320,256,22152,1,8,0:0:0:0:
320,256,22227,1,8,0:0:0:0:
192,288,22302,1,0,0:0:0:0:
192,288,22377,1,0,0:0:0:0:
352,288,22452,1,8,0:0:0:0:
352,288,22527,1,8,0:0:0:0:
192,288,22602,1,0,0:0:0:0:
384,288,22677,1,8,0:0:0:0:
192,288,22752,1,0,0:0:0:0:
192,288,22827,1,0,0:0:0:0:
352,288,22902,1,8,0:0:0:0:
352,288,22977,1,8,0:0:0:0:
192,288,23052,1,0,0:0:0:0:
192,288,23127,1,0,0:0:0:0:
192,288,23202,1,0,0:0:0:0:
192,288,23277,1,0,0:0:0:0:
352,288,23352,1,8,0:0:0:0:
352,288,23427,1,8,0:0:0:0:
352,288,23502,1,8,0:0:0:0:
352,288,23577,1,8,0:0:0:0:
224,288,23652,1,0,0:0:0:0:
224,288,23727,1,0,0:0:0:0:
224,288,23802,1,0,0:0:0:0:
224,288,23877,1,0,0:0:0:0:
352,288,23952,1,8,0:0:0:0:
192,288,24252,1,0,0:0:0:0:
192,288,24327,1,0,0:0:0:0:
352,288,24402,1,8,0:0:0:0:
224,288,24477,1,0,0:0:0:0:
384,288,24552,1,8,0:0:0:0:
384,288,24627,1,8,0:0:0:0:
192,288,24702,1,0,0:0:0:0:
192,288,24777,1,0,0:0:0:0:
384,288,24852,1,8,0:0:0:0:
384,288,24927,1,8,0:0:0:0:
224,288,25002,1,0,0:0:0:0:
352,288,25077,1,8,0:0:0:0:
352,288,25152,1,8,0:0:0:0:
192,288,25227,1,0,0:0:0:0:
192,288,25302,1,0,0:0:0:0:
192,288,25452,1,0,0:0:0:0:
192,288,25527,1,0,0:0:0:0:
384,288,25602,1,8,0:0:0:0:
192,288,25677,1,0,0:0:0:0:
352,288,25752,1,8,0:0:0:0:
352,288,25827,1,8,0:0:0:0:
160,288,25902,1,0,0:0:0:0:
160,288,25977,1,0,0:0:0:0:
320,288,26052,1,8,0:0:0:0:
320,288,26127,1,8,0:0:0:0:
352,288,26202,1,8,0:0:0:0:
160,288,26277,1,0,0:0:0:0:
352,288,26352,1,8,0:0:0:0:
352,288,26427,1,8,0:0:0:0:
160,288,26502,1,0,0:0:0:0:
352,288,26652,1,8,0:0:0:0:
352,288,26727,1,8,0:0:0:0:
160,288,26802,1,0,0:0:0:0:
160,288,26877,1,0,0:0:0:0:
352,288,26952,1,8,0:0:0:0:
160,288,27027,1,0,0:0:0:0:
352,288,27102,1,8,0:0:0:0:
352,288,27177,1,8,0:0:0:0:
352,288,27252,1,8,0:0:0:0:
192,288,27327,1,0,0:0:0:0:
192,288,27402,1,0,0:0:0:0:
192,288,27477,1,0,0:0:0:0:
352,288,27552,1,8,0:0:0:0:
352,288,27627,1,8,0:0:0:0:
192,288,27702,1,0,0:0:0:0:
192,288,27777,1,0,0:0:0:0:
320,256,27852,1,8,0:0:0:0:
352,256,30252,1,8,0:0:0:0:
352,256,30327,1,8,0:0:0:0:
64,288,30402,1,0,0:0:0:0:
64,288,30477,1,0,0:0:0:0:
352,256,30552,1,8,0:0:0:0:
128,288,30627,1,0,0:0:0:0:
128,288,30702,1,0,0:0:0:0:
128,288,30777,1,0,0:0:0:0:
352,256,30852,1,8,0:0:0:0:
352,256,30927,1,8,0:0:0:0:
64,288,31002,1,0,0:0:0:0:
64,288,31077,1,0,0:0:0:0:
352,256,31152,1,8,0:0:0:0:
128,288,31227,1,0,0:0:0:0:
128,288,31302,1,0,0:0:0:0:
128,288,31377,1,0,0:0:0:0:
352,256,31452,1,8,0:0:0:0:
352,256,31527,1,8,0:0:0:0:
64,288,31602,1,0,0:0:0:0:
64,288,31677,1,0,0:0:0:0:
352,256,31752,1,8,0:0:0:0:
128,288,31827,1,0,0:0:0:0:
128,288,31902,1,0,0:0:0:0:
128,288,31977,1,0,0:0:0:0:
352,256,32052,1,8,0:0:0:0:
352,256,32127,1,8,0:0:0:0:
64,288,32202,1,0,0:0:0:0:
64,288,32277,1,0,0:0:0:0:
352,256,32352,1,8,0:0:0:0:
128,288,32427,1,0,0:0:0:0:
128,288,32502,1,0,0:0:0:0:
128,288,32577,1,0,0:0:0:0:
352,256,32652,1,8,0:0:0:0:
352,256,32727,1,8,0:0:0:0:
64,288,32802,1,0,0:0:0:0:
64,288,32877,1,0,0:0:0:0:
352,256,32952,1,8,0:0:0:0:
128,288,33027,1,0,0:0:0:0:
128,288,33102,1,0,0:0:0:0:
128,288,33177,1,0,0:0:0:0:
352,256,33252,1,8,0:0:0:0:
352,256,33327,1,8,0:0:0:0:
64,288,33402,1,0,0:0:0:0:
64,288,33477,1,0,0:0:0:0:
352,256,33552,1,8,0:0:0:0:
128,288,33627,1,0,0:0:0:0:
128,288,33702,1,0,0:0:0:0:
128,288,33777,1,0,0:0:0:0:
352,256,33852,1,8,0:0:0:0:
352,256,33927,1,8,0:0:0:0:
64,288,34002,1,0,0:0:0:0:
64,288,34077,1,0,0:0:0:0:
352,256,34152,1,8,0:0:0:0:
128,288,34227,1,0,0:0:0:0:
128,288,34302,1,0,0:0:0:0:
128,288,34377,1,0,0:0:0:0:
352,256,34452,1,8,0:0:0:0:
352,256,34527,1,8,0:0:0:0:
64,288,34602,1,0,0:0:0:0:
64,288,34677,1,0,0:0:0:0:
352,256,34752,1,8,0:0:0:0:
128,288,34827,1,0,0:0:0:0:
128,288,34902,1,0,0:0:0:0:
128,288,34977,1,0,0:0:0:0:
352,256,35052,1,8,0:0:0:0:
352,256,35127,1,8,0:0:0:0:
64,288,35202,1,0,0:0:0:0:
64,288,35277,1,0,0:0:0:0:
352,256,35352,1,8,0:0:0:0:
128,288,35427,1,0,0:0:0:0:
128,288,35502,1,0,0:0:0:0:
128,288,35577,1,0,0:0:0:0:
352,256,35652,1,8,0:0:0:0:
352,256,35727,1,8,0:0:0:0:
64,288,35802,1,0,0:0:0:0:
64,288,35877,1,0,0:0:0:0:
352,256,35952,1,8,0:0:0:0:
128,288,36027,1,0,0:0:0:0:
128,288,36102,1,0,0:0:0:0:
128,288,36177,1,0,0:0:0:0:
352,256,36252,1,8,0:0:0:0:
352,256,36327,1,8,0:0:0:0:
64,288,36402,1,0,0:0:0:0:
64,288,36477,1,0,0:0:0:0:
352,256,36552,1,8,0:0:0:0:
128,288,36627,1,0,0:0:0:0:
128,288,36702,1,0,0:0:0:0:
128,288,36777,1,0,0:0:0:0:
352,256,36852,1,8,0:0:0:0:
352,256,36927,1,8,0:0:0:0:
64,288,37002,1,0,0:0:0:0:
64,288,37077,1,0,0:0:0:0:
352,256,37152,1,8,0:0:0:0:
128,288,37227,1,0,0:0:0:0:
128,288,37302,1,0,0:0:0:0:
128,288,37377,1,0,0:0:0:0:
352,256,37452,1,8,0:0:0:0:
352,256,37527,1,8,0:0:0:0:
64,288,37602,1,0,0:0:0:0:
64,288,37677,1,0,0:0:0:0:
352,256,37752,1,8,0:0:0:0:
128,288,37827,1,0,0:0:0:0:
128,288,37902,1,0,0:0:0:0:
128,288,37977,1,0,0:0:0:0:
352,256,38052,1,8,0:0:0:0:
352,256,38127,1,8,0:0:0:0:
64,288,38202,1,0,0:0:0:0:
64,288,38277,1,0,0:0:0:0:
352,256,38352,1,8,0:0:0:0:
128,288,38427,1,0,0:0:0:0:
128,288,38502,1,0,0:0:0:0:
128,288,38577,1,0,0:0:0:0:
352,256,38652,1,8,0:0:0:0:
352,256,38727,1,8,0:0:0:0:
340,288,38802,1,8,0:0:0:0:
340,288,38877,1,8,0:0:0:0:
48,292,38952,1,0,0:0:0:0:
128,288,39027,1,0,0:0:0:0:
332,272,39102,1,8,0:0:0:0:
332,272,39177,1,8,0:0:0:0:
112,304,39252,1,0,0:0:0:0:
112,304,39327,1,0,0:0:0:0:
64,288,39402,1,0,0:0:0:0:
64,288,39477,1,0,0:0:0:0:
352,256,39552,1,8,0:0:0:0:
352,256,39627,1,8,0:0:0:0:
128,288,39702,1,0,0:0:0:0:
128,288,39777,1,0,0:0:0:0:
352,256,39852,1,8,0:0:0:0:
352,256,39927,1,8,0:0:0:0:
64,288,40002,1,0,0:0:0:0:
64,288,40077,1,0,0:0:0:0:
352,256,40152,1,8,0:0:0:0:
128,288,40227,1,0,0:0:0:0:
128,288,40302,1,0,0:0:0:0:
128,288,40377,1,0,0:0:0:0:
352,256,40452,1,8,0:0:0:0:
352,256,40527,1,8,0:0:0:0:
64,288,40602,1,0,0:0:0:0:
64,288,40677,1,0,0:0:0:0:
352,256,40752,1,8,0:0:0:0:
128,288,40827,1,0,0:0:0:0:
128,288,40902,1,0,0:0:0:0:
128,288,40977,1,0,0:0:0:0:
352,256,41052,1,8,0:0:0:0:
352,256,41127,1,8,0:0:0:0:
64,288,41202,1,0,0:0:0:0:
64,288,41277,1,0,0:0:0:0:
352,256,41352,1,8,0:0:0:0:
128,288,41427,1,0,0:0:0:0:
128,288,41502,1,0,0:0:0:0:
128,288,41577,1,0,0:0:0:0:
352,256,41652,1,8,0:0:0:0:
352,256,41727,1,8,0:0:0:0:
64,288,41802,1,0,0:0:0:0:
64,288,41877,1,0,0:0:0:0:
352,256,41952,1,8,0:0:0:0:
128,288,42027,1,0,0:0:0:0:
128,288,42102,1,0,0:0:0:0:
128,288,42177,1,0,0:0:0:0:
352,256,42252,1,8,0:0:0:0:
352,256,42327,1,8,0:0:0:0:
64,288,42402,1,0,0:0:0:0:
64,288,42477,1,0,0:0:0:0:
352,256,42552,1,8,0:0:0:0:
128,288,42627,1,0,0:0:0:0:
128,288,42702,1,0,0:0:0:0:
128,288,42777,1,0,0:0:0:0:
352,256,42852,1,8,0:0:0:0:
352,256,42927,1,8,0:0:0:0:
64,288,43002,1,0,0:0:0:0:
64,288,43077,1,0,0:0:0:0:
352,256,43152,1,8,0:0:0:0:
128,288,43227,1,0,0:0:0:0:
128,288,43302,1,0,0:0:0:0:
128,288,43377,1,0,0:0:0:0:
408,228,43452,1,8,0:0:0:0:
68,260,43527,1,0,0:0:0:0:
380,244,43602,1,8,0:0:0:0:
72,280,43677,1,0,0:0:0:0:
56,288,43752,1,0,0:0:0:0:
80,272,43827,1,0,0:0:0:0:
348,228,43902,1,8,0:0:0:0:
160,276,43977,1,0,0:0:0:0:
396,232,44052,1,8,0:0:0:0:
120,296,44127,1,0,0:0:0:0:
92,288,44202,1,0,0:0:0:0:
92,288,44277,1,0,0:0:0:0:
336,256,44352,1,8,0:0:0:0:
108,296,44427,1,0,0:0:0:0:
124,300,44502,1,0,0:0:0:0:
140,304,44577,1,0,0:0:0:0:
352,256,44652,1,8,0:0:0:0:
352,256,44727,1,8,0:0:0:0:
64,288,44802,1,0,0:0:0:0:
64,288,44877,1,0,0:0:0:0:
352,256,44952,1,8,0:0:0:0:
128,288,45027,1,0,0:0:0:0:
128,288,45102,1,0,0:0:0:0:
128,288,45177,1,0,0:0:0:0:
352,256,45252,1,8,0:0:0:0:
352,256,45327,1,8,0:0:0:0:
64,288,45402,1,0,0:0:0:0:
64,288,45477,1,0,0:0:0:0:
352,256,45552,1,8,0:0:0:0:
128,288,45627,1,0,0:0:0:0:
128,288,45702,1,0,0:0:0:0:
128,288,45777,1,0,0:0:0:0:
352,256,45852,1,8,0:0:0:0:
352,256,45927,1,8,0:0:0:0:
64,288,46002,1,0,0:0:0:0:
64,288,46077,1,0,0:0:0:0:
352,256,46152,1,8,0:0:0:0:
128,288,46227,1,0,0:0:0:0:
128,288,46302,1,0,0:0:0:0:
128,288,46377,1,0,0:0:0:0:
352,256,46452,1,8,0:0:0:0:
352,256,46527,1,8,0:0:0:0:
64,288,46602,1,0,0:0:0:0:
64,288,46677,1,0,0:0:0:0:
352,256,46752,1,8,0:0:0:0:
128,288,46827,1,0,0:0:0:0:
128,288,46902,1,0,0:0:0:0:
128,288,46977,1,0,0:0:0:0:
352,256,47052,1,8,0:0:0:0:
352,256,47127,1,8,0:0:0:0:
308,284,47202,1,8,0:0:0:0:
308,284,47277,1,8,0:0:0:0:
100,276,47352,1,0,0:0:0:0:
128,288,47427,1,0,0:0:0:0:
128,288,47502,1,0,0:0:0:0:
128,288,47577,1,0,0:0:0:0:
352,256,47652,1,8,0:0:0:0:
352,256,47727,1,8,0:0:0:0:
336,296,47802,1,8,0:0:0:0:
336,296,47877,1,8,0:0:0:0:
112,292,47952,1,0,0:0:0:0:
128,288,48027,1,0,0:0:0:0:
128,288,48102,1,0,0:0:0:0:
128,288,48177,1,0,0:0:0:0:
384,256,48252,1,8,0:0:0:0:
384,256,48327,1,8,0:0:0:0:
128,288,48402,1,0,0:0:0:0:
128,288,48477,1,0,0:0:0:0:
352,288,48552,1,8,0:0:0:0:
352,288,48627,1,8,0:0:0:0:
128,288,48702,1,0,0:0:0:0:
128,288,48777,1,0,0:0:0:0:
352,256,48852,1,8,0:0:0:0:
352,256,48927,1,8,0:0:0:0:
96,288,49002,1,0,0:0:0:0:
96,288,49077,1,0,0:0:0:0:
320,288,49152,1,8,0:0:0:0:
320,288,49227,1,8,0:0:0:0:
160,288,49302,1,0,0:0:0:0:
160,288,49377,1,0,0:0:0:0:
12,32,49452,2,0,L|480:212,1,498.75
128,96,50652,1,4,0:0:0:0:
128,96,50952,1,4,0:0:0:0:
384,288,51852,1,8,0:0:0:0:
160,288,52002,1,0,0:0:0:0:
160,288,52077,1,0,0:0:0:0:
160,288,52152,1,0,0:0:0:0:
160,288,52227,1,0,0:0:0:0:
160,288,52302,1,8,0:0:0:0:
160,288,52377,1,0,0:0:0:0:
160,288,52452,1,0,0:0:0:0:
160,288,52527,1,0,0:0:0:0:
160,288,52602,1,0,0:0:0:0:
160,288,52677,1,0,0:0:0:0:
160,288,52752,1,8,0:0:0:0:
160,288,52827,1,0,0:0:0:0:
160,288,52902,1,0,0:0:0:0:
160,288,52977,1,0,0:0:0:0:
448,320,53052,1,8,0:0:0:0:
192,288,53202,1,0,0:0:0:0:
192,288,53277,1,0,0:0:0:0:
192,288,53352,1,0,0:0:0:0:
448,288,53502,1,8,0:0:0:0:
192,288,53652,1,0,0:0:0:0:
192,288,53727,1,0,0:0:0:0:
192,288,53802,1,0,0:0:0:0:
448,320,53952,1,8,0:0:0:0:
448,320,54027,1,8,0:0:0:0:
192,288,54102,1,0,0:0:0:0:
192,288,54177,1,0,0:0:0:0:
416,320,54252,1,8,0:0:0:0:
192,288,54402,1,0,0:0:0:0:
192,288,54477,1,0,0:0:0:0:
192,288,54552,1,0,0:0:0:0:
192,288,54627,1,0,0:0:0:0:
384,288,54702,1,8,0:0:0:0:
192,288,54777,1,0,0:0:0:0:
192,288,54852,1,0,0:0:0:0:
192,288,54927,1,0,0:0:0:0:
192,288,55002,1,0,0:0:0:0:
192,288,55077,1,0,0:0:0:0:
384,288,55152,1,8,0:0:0:0:
192,288,55227,1,0,0:0:0:0:
192,288,55302,1,0,0:0:0:0:
192,288,55377,1,0,0:0:0:0:
384,288,55452,1,8,0:0:0:0:
224,288,55602,1,0,0:0:0:0:
224,288,55677,1,0,0:0:0:0:
384,288,55752,1,8,0:0:0:0:
384,288,55902,1,8,0:0:0:0:
224,288,56052,1,0,0:0:0:0:
384,288,56202,1,8,0:0:0:0:
384,288,56352,1,8,0:0:0:0:
384,288,56427,1,8,0:0:0:0:
224,288,56502,1,0,0:0:0:0:
384,288,56652,1,8,0:0:0:0:
160,288,56802,1,0,0:0:0:0:
160,288,56877,1,0,0:0:0:0:
160,288,56952,1,0,0:0:0:0:
160,288,57027,1,0,0:0:0:0:
448,320,57102,1,8,0:0:0:0:
160,288,57177,1,0,0:0:0:0:
160,288,57252,1,0,0:0:0:0:
160,288,57327,1,0,0:0:0:0:
160,288,57402,1,0,0:0:0:0:
160,288,57477,1,0,0:0:0:0:
448,320,57552,1,8,0:0:0:0:
160,288,57627,1,0,0:0:0:0:
160,288,57702,1,0,0:0:0:0:
160,288,57777,1,0,0:0:0:0:
448,320,57852,1,8,0:0:0:0:
192,288,58002,1,0,0:0:0:0:
192,288,58077,1,0,0:0:0:0:
192,288,58152,1,0,0:0:0:0:
448,288,58302,1,8,0:0:0:0:
192,288,58452,1,0,0:0:0:0:
192,288,58527,1,0,0:0:0:0:
192,288,58602,1,0,0:0:0:0:
448,320,58752,1,8,0:0:0:0:
448,320,58827,1,8,0:0:0:0:
192,288,58902,1,0,0:0:0:0:
192,288,58977,1,0,0:0:0:0:
416,320,59052,1,8,0:0:0:0:
160,288,59202,1,0,0:0:0:0:
160,288,59277,1,0,0:0:0:0:
160,288,59352,1,0,0:0:0:0:
160,288,59427,1,0,0:0:0:0:
352,320,59502,1,8,0:0:0:0:
160,288,59577,1,0,0:0:0:0:
160,288,59652,1,0,0:0:0:0:
160,288,59727,1,0,0:0:0:0:
160,288,59802,1,0,0:0:0:0:
160,288,59877,1,0,0:0:0:0:
352,320,59952,1,8,0:0:0:0:
160,288,60027,1,0,0:0:0:0:
160,288,60102,1,0,0:0:0:0:
160,288,60177,1,0,0:0:0:0:
384,320,60252,1,8,0:0:0:0:
160,288,60402,1,0,0:0:0:0:
160,288,60477,1,0,0:0:0:0:
352,320,60552,1,8,0:0:0:0:
192,320,60627,1,0,0:0:0:0:
192,320,60702,1,0,0:0:0:0:
192,320,60777,1,0,0:0:0:0:
352,320,60852,1,8,0:0:0:0:
160,288,60927,1,0,0:0:0:0:
160,288,61002,1,0,0:0:0:0:
160,288,61077,1,0,0:0:0:0:
352,320,61152,1,8,0:0:0:0:
192,288,61227,1,0,0:0:0:0:
192,288,61302,1,0,0:0:0:0:
384,320,61452,1,8,0:0:0:0:
384,320,61527,1,8,0:0:0:0:
192,320,61602,1,0,0:0:0:0:
192,320,61677,1,0,0:0:0:0:
352,288,61752,1,8,0:0:0:0:
192,320,61827,1,0,0:0:0:0:
192,320,61902,1,0,0:0:0:0:
192,320,61977,1,0,0:0:0:0:
352,288,62052,1,8,0:0:0:0:
352,288,62127,1,8,0:0:0:0:
160,320,62202,1,0,0:0:0:0:
160,320,62277,1,0,0:0:0:0:
384,320,62352,1,8,0:0:0:0:
192,320,62427,1,0,0:0:0:0:
192,320,62502,1,0,0:0:0:0:
192,320,62577,1,0,0:0:0:0:
384,320,62652,1,8,0:0:0:0:
384,320,62727,1,8,0:0:0:0:
192,320,62802,1,0,0:0:0:0:
192,320,62877,1,0,0:0:0:0:
352,288,62952,1,8,0:0:0:0:
192,320,63027,1,0,0:0:0:0:
192,320,63102,1,0,0:0:0:0:
192,320,63177,1,0,0:0:0:0:
352,288,63252,1,8,0:0:0:0:
352,288,63327,1,8,0:0:0:0:
160,320,63402,1,0,0:0:0:0:
160,320,63477,1,0,0:0:0:0:
384,320,63552,1,8,0:0:0:0:
192,320,63627,1,0,0:0:0:0:
192,320,63702,1,0,0:0:0:0:
192,320,63777,1,0,0:0:0:0:
384,320,63852,1,8,0:0:0:0:
384,320,63927,1,8,0:0:0:0:
192,320,64002,1,0,0:0:0:0:
192,320,64077,1,0,0:0:0:0:
352,288,64152,1,8,0:0:0:0:
192,320,64227,1,0,0:0:0:0:
192,320,64302,1,0,0:0:0:0:
192,320,64377,1,0,0:0:0:0:
352,288,64452,1,8,0:0:0:0:
352,288,64527,1,8,0:0:0:0:
160,320,64602,1,0,0:0:0:0:
160,320,64677,1,0,0:0:0:0:
384,320,64752,1,8,0:0:0:0:
192,320,64827,1,0,0:0:0:0:
192,320,64902,1,0,0:0:0:0:
192,320,64977,1,0,0:0:0:0:
384,320,65052,1,8,0:0:0:0:
384,320,65127,1,8,0:0:0:0:
192,320,65202,1,0,0:0:0:0:
192,320,65277,1,0,0:0:0:0:
352,288,65352,1,8,0:0:0:0:
192,320,65427,1,0,0:0:0:0:
192,320,65502,1,0,0:0:0:0:
192,320,65577,1,0,0:0:0:0:
352,288,65652,1,8,0:0:0:0:
352,288,65727,1,8,0:0:0:0:
392,304,65802,1,8,0:0:0:0:
392,304,65877,1,8,0:0:0:0:
176,324,65952,1,0,0:0:0:0:
192,320,66027,1,0,0:0:0:0:
192,320,66102,1,0,0:0:0:0:
192,320,66177,1,0,0:0:0:0:
384,320,66252,1,8,0:0:0:0:
384,320,66327,1,8,0:0:0:0:
192,320,66402,1,0,0:0:0:0:
192,320,66477,1,0,0:0:0:0:
352,288,66552,1,8,0:0:0:0:
192,320,66627,1,0,0:0:0:0:
192,320,66702,1,0,0:0:0:0:
192,320,66777,1,0,0:0:0:0:
352,288,66852,1,8,0:0:0:0:
352,288,66927,1,8,0:0:0:0:
160,320,67002,1,0,0:0:0:0:
160,320,67077,1,0,0:0:0:0:
384,320,67152,1,8,0:0:0:0:
192,320,67227,1,0,0:0:0:0:
192,320,67302,1,0,0:0:0:0:
192,320,67377,1,0,0:0:0:0:
384,320,67452,1,8,0:0:0:0:
384,320,67527,1,8,0:0:0:0:
192,320,67602,1,0,0:0:0:0:
192,320,67677,1,0,0:0:0:0:
352,288,67752,1,8,0:0:0:0:
192,320,67827,1,0,0:0:0:0:
192,320,67902,1,0,0:0:0:0:
192,320,67977,1,0,0:0:0:0:
352,288,68052,1,8,0:0:0:0:
352,288,68127,1,8,0:0:0:0:
160,320,68202,1,0,0:0:0:0:
160,320,68277,1,0,0:0:0:0:
384,320,68352,1,8,0:0:0:0:
192,320,68427,1,0,0:0:0:0:
192,320,68502,1,0,0:0:0:0:
192,320,68577,1,0,0:0:0:0:
384,320,68652,1,8,0:0:0:0:
384,320,68727,1,8,0:0:0:0:
192,320,68802,1,0,0:0:0:0:
192,320,68877,1,0,0:0:0:0:
352,288,68952,1,8,0:0:0:0:
192,320,69027,1,0,0:0:0:0:
192,320,69102,1,0,0:0:0:0:
192,320,69177,1,0,0:0:0:0:
352,288,69252,1,8,0:0:0:0:
352,288,69327,1,8,0:0:0:0:
160,320,69402,1,0,0:0:0:0:
160,320,69477,1,0,0:0:0:0:
384,320,69552,1,8,0:0:0:0:
192,320,69627,1,0,0:0:0:0:
192,320,69702,1,0,0:0:0:0:
192,320,69777,1,0,0:0:0:0:
256,192,69852,12,0,70902,0:0:0:0:
384,288,71052,5,8,0:0:0:0:
160,288,71202,1,0,0:0:0:0:
160,288,71277,1,0,0:0:0:0:
160,288,71352,1,0,0:0:0:0:
160,288,71427,1,0,0:0:0:0:
416,320,71502,1,8,0:0:0:0:
160,288,71577,1,0,0:0:0:0:
160,288,71652,1,0,0:0:0:0:
160,288,71727,1,0,0:0:0:0:
160,288,71802,1,0,0:0:0:0:
160,288,71877,1,0,0:0:0:0:
416,320,71952,1,8,0:0:0:0:
160,288,72027,1,0,0:0:0:0:
160,288,72102,1,0,0:0:0:0:
160,288,72177,1,0,0:0:0:0:
448,320,72252,1,8,0:0:0:0:
192,288,72402,1,0,0:0:0:0:
192,288,72477,1,0,0:0:0:0:
192,288,72552,1,0,0:0:0:0:
448,288,72702,1,8,0:0:0:0:
192,288,72852,1,0,0:0:0:0:
192,288,72927,1,0,0:0:0:0:
192,288,73002,1,0,0:0:0:0:
448,320,73152,1,8,0:0:0:0:
448,320,73227,1,8,0:0:0:0:
192,288,73302,1,0,0:0:0:0:
192,288,73377,1,0,0:0:0:0:
416,320,73452,1,8,0:0:0:0:
160,320,73602,1,0,0:0:0:0:
160,320,73677,1,0,0:0:0:0:
160,320,73752,1,0,0:0:0:0:
160,320,73827,1,0,0:0:0:0:
448,320,73902,1,8,0:0:0:0:
160,320,73977,1,0,0:0:0:0:
160,320,74052,1,0,0:0:0:0:
160,320,74127,1,0,0:0:0:0:
160,320,74202,1,0,0:0:0:0:
160,320,74277,1,0,0:0:0:0:
448,320,74352,1,8,0:0:0:0:
160,320,74427,1,0,0:0:0:0:
160,320,74502,1,0,0:0:0:0:
160,320,74577,1,0,0:0:0:0:
448,320,74652,1,8,0:0:0:0:
448,320,74802,1,8,0:0:0:0:
448,320,74952,1,8,0:0:0:0:
160,320,75102,1,0,0:0:0:0:
160,320,75152,1,0,0:0:0:0:
160,320,75202,1,0,0:0:0:0:
448,320,75252,1,8,0:0:0:0:
416,288,75402,1,8,0:0:0:0:
160,320,75552,1,0,0:0:0:0:
160,320,75602,1,0,0:0:0:0:
160,320,75652,1,0,0:0:0:0:
448,320,75702,1,8,0:0:0:0:
384,288,75852,1,8,0:0:0:0:
160,288,76002,1,0,0:0:0:0:
160,288,76077,1,0,0:0:0:0:
160,288,76152,1,0,0:0:0:0:
160,288,76227,1,0,0:0:0:0:
448,320,76302,1,8,0:0:0:0:
160,288,76377,1,0,0:0:0:0:
160,288,76452,1,0,0:0:0:0:
160,288,76527,1,0,0:0:0:0:
160,288,76602,1,0,0:0:0:0:
160,288,76677,1,0,0:0:0:0:
448,320,76752,1,8,0:0:0:0:
160,288,76827,1,0,0:0:0:0:
160,288,76902,1,0,0:0:0:0:
160,288,76977,1,0,0:0:0:0:
448,320,77052,1,8,0:0:0:0:
192,288,77202,1,0,0:0:0:0:
192,288,77277,1,0,0:0:0:0:
192,288,77352,1,0,0:0:0:0:
448,288,77502,1,8,0:0:0:0:
192,288,77652,1,0,0:0:0:0:
192,288,77727,1,0,0:0:0:0:
192,288,77802,1,0,0:0:0:0:
448,320,77952,1,8,0:0:0:0:
448,320,78027,1,8,0:0:0:0:
192,288,78102,1,0,0:0:0:0:
192,288,78177,1,0,0:0:0:0:
416,320,78252,1,8,0:0:0:0:
160,288,78402,1,0,0:0:0:0:
160,288,78477,1,0,0:0:0:0:
160,288,78552,1,0,0:0:0:0:
160,288,78627,1,0,0:0:0:0:
416,320,78702,1,8,0:0:0:0:
160,288,78777,1,0,0:0:0:0:
160,288,78852,1,0,0:0:0:0:
160,288,78927,1,0,0:0:0:0:
160,288,79002,1,0,0:0:0:0:
160,288,79077,1,0,0:0:0:0:
416,320,79152,1,8,0:0:0:0:
160,288,79227,1,0,0:0:0:0:
160,288,79302,1,0,0:0:0:0:
160,288,79377,1,0,0:0:0:0:
448,320,79452,1,8,0:0:0:0:
416,320,79677,1,8,0:0:0:0:
416,320,79902,1,8,0:0:0:0:
448,320,80052,1,8,0:0:0:0:
448,320,80127,1,8,0:0:0:0:
448,320,80202,1,8,0:0:0:0:
448,320,80277,1,8,0:0:0:0:
160,320,80352,1,0,0:0:0:0:
160,320,80427,1,0,0:0:0:0:
160,320,80502,1,0,0:0:0:0:
160,320,80577,1,0,0:0:0:0:
448,320,80652,1,8,0:0:0:0:
192,320,80802,1,0,0:0:0:0:
512,352,80952,1,8,0:0:0:0:
192,320,81102,1,0,0:0:0:0:
192,320,81177,1,0,0:0:0:0:
416,320,81252,1,8,0:0:0:0:
192,320,81402,1,0,0:0:0:0:
448,320,81552,1,8,0:0:0:0:
416,320,81627,1,8,0:0:0:0:
192,320,81702,1,0,0:0:0:0:
192,320,81777,1,0,0:0:0:0:
448,320,81852,1,8,0:0:0:0:
192,320,82002,1,0,0:0:0:0:
512,352,82152,1,8,0:0:0:0:
192,320,82302,1,0,0:0:0:0:
192,320,82377,1,0,0:0:0:0:
416,320,82452,1,8,0:0:0:0:
192,320,82602,1,0,0:0:0:0:
448,320,82752,1,8,0:0:0:0:
480,320,82827,1,8,0:0:0:0:
192,256,82902,1,0,0:0:0:0:
192,320,82977,1,0,0:0:0:0:
448,320,83052,1,8,0:0:0:0:
224,320,83202,1,0,0:0:0:0:
416,320,83352,1,8,0:0:0:0:
192,288,83502,1,0,0:0:0:0:
192,288,83577,1,0,0:0:0:0:
384,320,83652,1,8,0:0:0:0:
192,288,83802,1,0,0:0:0:0:
416,320,83952,1,8,0:0:0:0:
192,288,84102,1,0,0:0:0:0:
192,288,84177,1,0,0:0:0:0:
416,320,84252,1,8,0:0:0:0:
224,320,84327,1,0,0:0:0:0:
224,320,84402,1,0,0:0:0:0:
224,320,84477,1,0,0:0:0:0:
224,320,84552,1,0,0:0:0:0:
224,320,84627,1,0,0:0:0:0:
384,288,84702,1,8,0:0:0:0:
192,288,84777,1,0,0:0:0:0:
160,288,84852,1,0,0:0:0:0:
192,320,84927,1,0,0:0:0:0:
192,320,85002,1,0,0:0:0:0:
192,320,85077,1,0,0:0:0:0:
416,288,85152,1,8,0:0:0:0:
416,288,85452,1,8,0:0:0:0:
192,320,85602,1,0,0:0:0:0:
192,320,85677,1,0,0:0:0:0:
192,320,85752,1,0,0:0:0:0:
352,288,85902,1,8,0:0:0:0:
148,312,86052,1,0,0:0:0:0:
192,320,86202,1,0,0:0:0:0:
160,320,86277,1,0,0:0:0:0:
416,288,86352,1,8,0:0:0:0:
192,320,86502,1,0,0:0:0:0:
352,288,86652,1,8,0:0:0:0:
192,320,86802,1,0,0:0:0:0:
192,320,86877,1,0,0:0:0:0:
192,288,86952,1,0,0:0:0:0:
320,288,87102,1,8,0:0:0:0:
176,328,87252,1,0,0:0:0:0:
372,240,87402,1,8,0:0:0:0:
352,288,87477,1,8,0:0:0:0:
380,240,87552,1,8,0:0:0:0:
192,288,87702,1,0,0:0:0:0:
404,328,87852,1,8,0:0:0:0:
408,300,88002,1,8,0:0:0:0:
128,256,88152,1,0,0:0:0:0:
412,244,88302,1,8,0:0:0:0:
388,244,88452,1,8,0:0:0:0:
128,256,88602,1,0,0:0:0:0:
352,288,88752,1,8,0:0:0:0:
160,288,88902,1,0,0:0:0:0:
352,288,89052,1,8,0:0:0:0:
192,288,89127,1,0,0:0:0:0:
192,288,89202,1,0,0:0:0:0:
192,288,89277,1,0,0:0:0:0:
160,288,89352,1,0,0:0:0:0:
160,288,89427,1,0,0:0:0:0:
352,288,89502,1,8,0:0:0:0:
352,288,89577,1,8,0:0:0:0:
352,288,89652,1,8,0:0:0:0:
352,288,89727,1,8,0:0:0:0:
192,288,89802,1,0,0:0:0:0:
192,288,89877,1,0,0:0:0:0:
352,288,89952,1,8,0:0:0:0:
352,288,90027,1,8,0:0:0:0:
192,288,90102,1,0,0:0:0:0:
132,112,90252,1,4,0:0:0:0:
352,288,90402,1,8,0:0:0:0:
160,288,90552,1,0,0:0:0:0:
160,288,90627,1,0,0:0:0:0:
352,288,90702,1,8,0:0:0:0:
160,288,90852,1,0,0:0:0:0:
352,288,91002,1,8,0:0:0:0:
160,288,91152,1,0,0:0:0:0:
160,288,91227,1,0,0:0:0:0:
352,288,91302,1,8,0:0:0:0:
160,288,91452,1,0,0:0:0:0:
352,288,91602,1,8,0:0:0:0:
160,288,91752,1,0,0:0:0:0:
160,288,91827,1,0,0:0:0:0:
352,288,91902,1,8,0:0:0:0:
160,288,92052,1,0,0:0:0:0:
352,288,92202,1,8,0:0:0:0:
320,288,92277,1,8,0:0:0:0:
160,288,92352,1,0,0:0:0:0:
320,288,92502,1,8,0:0:0:0:
160,288,92652,1,0,0:0:0:0:
352,288,92802,1,8,0:0:0:0:
160,288,92952,1,0,0:0:0:0:
160,288,93027,1,0,0:0:0:0:
352,288,93102,1,8,0:0:0:0:
160,288,93252,1,0,0:0:0:0:
352,288,93402,1,8,0:0:0:0:
160,288,93552,1,0,0:0:0:0:
160,288,93627,1,0,0:0:0:0:
352,288,93702,1,8,0:0:0:0:
160,288,93852,1,0,0:0:0:0:
352,288,94002,1,8,0:0:0:0:
160,288,94152,1,0,0:0:0:0:
160,288,94227,1,0,0:0:0:0:
352,288,94302,1,8,0:0:0:0:
160,288,94452,1,0,0:0:0:0:
352,288,94602,1,8,0:0:0:0:
352,288,94752,1,8,0:0:0:0:
352,288,94827,1,8,0:0:0:0:
352,288,94902,1,8,0:0:0:0:
160,288,95052,1,0,0:0:0:0:
352,288,95202,1,8,0:0:0:0:
160,288,95352,1,0,0:0:0:0:
160,288,95427,1,0,0:0:0:0:
352,288,95502,1,8,0:0:0:0:
160,288,95652,1,0,0:0:0:0:
352,288,95802,1,8,0:0:0:0:
160,288,95952,1,0,0:0:0:0:
160,288,96027,1,0,0:0:0:0:
352,288,96102,1,8,0:0:0:0:
160,288,96252,1,0,0:0:0:0:
352,288,96402,1,8,0:0:0:0:
160,288,96552,1,0,0:0:0:0:
160,288,96627,1,0,0:0:0:0:
352,288,96702,1,8,0:0:0:0:
160,288,96852,1,0,0:0:0:0:
160,288,97002,1,0,0:0:0:0:
160,288,97077,1,0,0:0:0:0:
160,288,97152,1,0,0:0:0:0:
320,288,97302,1,8,0:0:0:0:
160,288,97452,1,0,0:0:0:0:
352,288,97602,1,8,0:0:0:0:
160,288,97752,1,0,0:0:0:0:
160,288,97827,1,0,0:0:0:0:
352,288,97902,1,8,0:0:0:0:
160,288,98052,1,0,0:0:0:0:
352,288,98202,1,8,0:0:0:0:
160,288,98352,1,0,0:0:0:0:
160,288,98427,1,0,0:0:0:0:
352,288,98502,1,8,0:0:0:0:
320,288,98652,1,8,0:0:0:0:
320,288,98727,1,8,0:0:0:0:
160,288,98802,1,0,0:0:0:0:
160,288,98877,1,0,0:0:0:0:
160,288,98952,1,0,0:0:0:0:
160,288,99027,1,0,0:0:0:0:
352,288,99102,1,8,0:0:0:0:
352,288,99177,1,8,0:0:0:0:
160,288,99252,1,0,0:0:0:0:
160,288,99327,1,0,0:0:0:0:
160,288,99402,1,0,0:0:0:0:
160,288,99477,1,0,0:0:0:0:
320,288,99552,1,8,0:0:0:0:
320,288,99627,1,8,0:0:0:0:
320,288,99702,1,8,0:0:0:0:
320,288,99777,1,8,0:0:0:0:
352,288,99852,1,8,0:0:0:0:
160,288,100002,1,0,0:0:0:0:
160,288,100077,1,0,0:0:0:0:
160,288,100152,1,0,0:0:0:0:
160,288,100227,1,0,0:0:0:0:
352,288,100302,1,8,0:0:0:0:
160,288,100452,1,0,0:0:0:0:
160,288,100527,1,0,0:0:0:0:
160,288,100602,1,0,0:0:0:0:
160,288,100677,1,0,0:0:0:0:
320,288,100752,1,8,0:0:0:0:
192,288,100902,1,0,0:0:0:0:
192,288,100977,1,0,0:0:0:0:
352,288,101052,1,8,0:0:0:0:
160,288,101202,1,0,0:0:0:0:
160,288,101277,1,0,0:0:0:0:
160,288,101352,1,0,0:0:0:0:
160,288,101427,1,0,0:0:0:0:
352,288,101502,1,8,0:0:0:0:
160,288,101652,1,0,0:0:0:0:
160,288,101727,1,0,0:0:0:0:
160,288,101802,1,0,0:0:0:0:
160,288,101877,1,0,0:0:0:0:
320,288,101952,1,8,0:0:0:0:
320,288,102027,1,8,0:0:0:0:
192,288,102102,1,0,0:0:0:0:
192,288,102177,1,0,0:0:0:0:
352,288,102252,1,8,0:0:0:0:
160,288,102402,1,0,0:0:0:0:
160,288,102477,1,0,0:0:0:0:
160,288,102552,1,0,0:0:0:0:
160,288,102627,1,0,0:0:0:0:
352,288,102702,1,8,0:0:0:0:
160,288,102852,1,0,0:0:0:0:
160,288,102927,1,0,0:0:0:0:
160,288,103002,1,0,0:0:0:0:
160,288,103077,1,0,0:0:0:0:
320,288,103152,1,8,0:0:0:0:
160,288,103302,1,0,0:0:0:0:
160,288,103377,1,0,0:0:0:0:
160,288,103452,1,0,0:0:0:0:
320,288,103602,1,8,0:0:0:0:
192,288,103752,1,0,0:0:0:0:
192,288,103827,1,0,0:0:0:0:
288,288,103902,1,8,0:0:0:0:
192,320,104052,1,0,0:0:0:0:
288,288,104202,1,8,0:0:0:0:
224,288,104352,1,0,0:0:0:0:
224,288,104427,1,0,0:0:0:0:
320,288,104502,1,8,0:0:0:0:
320,320,104652,1,8,0:0:0:0:
160,288,104802,1,0,0:0:0:0:
160,288,104877,1,0,0:0:0:0:
160,288,104952,1,0,0:0:0:0:
160,288,105027,1,0,0:0:0:0:
352,288,105102,1,8,0:0:0:0:
160,288,105252,1,0,0:0:0:0:
160,288,105327,1,0,0:0:0:0:
160,288,105402,1,0,0:0:0:0:
160,288,105477,1,0,0:0:0:0:
320,288,105552,1,8,0:0:0:0:
160,288,105702,1,0,0:0:0:0:
160,288,105777,1,0,0:0:0:0:
416,288,105852,1,8,0:0:0:0:
416,288,105927,1,8,0:0:0:0:
192,288,106002,1,0,0:0:0:0:
192,288,106077,1,0,0:0:0:0:
352,288,106152,1,8,0:0:0:0:
352,288,106227,1,8,0:0:0:0:
192,288,106302,1,0,0:0:0:0:
192,288,106377,1,0,0:0:0:0:
320,288,106452,1,8,0:0:0:0:
320,288,106527,1,8,0:0:0:0:
192,288,106602,1,0,0:0:0:0:
192,288,106677,1,0,0:0:0:0:
320,288,106752,1,8,0:0:0:0:
320,288,106827,1,8,0:0:0:0:
224,288,106902,1,0,0:0:0:0:
224,288,106977,1,0,0:0:0:0:
352,288,107052,1,8,0:0:0:0:
192,288,107202,1,0,0:0:0:0:
224,288,107352,1,0,0:0:0:0:
224,288,107427,1,0,0:0:0:0:
320,288,107502,1,8,0:0:0:0:
320,288,107577,1,8,0:0:0:0:
192,288,107652,1,0,0:0:0:0:
192,288,107727,1,0,0:0:0:0:
192,288,107802,1,0,0:0:0:0:
192,288,107877,1,0,0:0:0:0:
352,288,107952,1,8,0:0:0:0:
352,288,108027,1,8,0:0:0:0:
192,288,108102,1,0,0:0:0:0:
192,288,108177,1,0,0:0:0:0:
352,288,108252,1,8,0:0:0:0:
352,288,109452,1,8,0:0:0:0:
224,288,109527,1,0,0:0:0:0:
224,288,109602,1,0,0:0:0:0:
224,288,109677,1,0,0:0:0:0:
352,288,109752,1,8,0:0:0:0:
224,288,109827,1,0,0:0:0:0:
224,288,109902,1,0,0:0:0:0:
224,288,109977,1,0,0:0:0:0:
352,288,110052,1,8,0:0:0:0:
192,288,110127,1,0,0:0:0:0:
192,288,110202,1,0,0:0:0:0:
192,288,110277,1,0,0:0:0:0:
352,288,110352,1,8,0:0:0:0:
224,288,110427,1,0,0:0:0:0:
224,288,110502,1,0,0:0:0:0:
224,288,110577,1,0,0:0:0:0:
384,288,110652,1,8,0:0:0:0:
384,288,110727,1,8,0:0:0:0:
192,288,110802,1,0,0:0:0:0:
192,288,110877,1,0,0:0:0:0:
384,288,110952,1,8,0:0:0:0:
384,288,111027,1,8,0:0:0:0:
160,256,111102,1,0,0:0:0:0:
160,256,111177,1,0,0:0:0:0:
384,288,111252,1,8,0:0:0:0:
384,288,111327,1,8,0:0:0:0:
160,288,111402,1,0,0:0:0:0:
160,288,111477,1,0,0:0:0:0:
384,288,111552,1,8,0:0:0:0:
384,320,111627,1,8,0:0:0:0:
224,288,111702,1,0,0:0:0:0:
224,288,111777,1,0,0:0:0:0:
352,320,111852,1,8,0:0:0:0:
352,320,111927,1,8,0:0:0:0:
352,320,112002,1,8,0:0:0:0:
224,288,112077,1,0,0:0:0:0:
352,288,112152,1,8,0:0:0:0:
352,288,112227,1,8,0:0:0:0:
352,288,112302,1,8,0:0:0:0:
224,288,112377,1,0,0:0:0:0:
320,288,112452,1,8,0:0:0:0:
320,288,112527,1,8,0:0:0:0:
320,288,112602,1,8,0:0:0:0:
192,288,112677,1,0,0:0:0:0:
352,320,112752,1,8,0:0:0:0:
352,288,112827,1,8,0:0:0:0:
384,288,112902,1,8,0:0:0:0:
192,288,112977,1,0,0:0:0:0:
352,320,113052,1,8,0:0:0:0:
352,320,113127,1,8,0:0:0:0:
192,288,113202,1,0,0:0:0:0:
192,288,113277,1,0,0:0:0:0:
320,288,113352,1,8,0:0:0:0:
320,288,113427,1,8,0:0:0:0:
192,288,113502,1,0,0:0:0:0:
192,288,113577,1,0,0:0:0:0:
384,288,113652,1,8,0:0:0:0:
384,288,113727,1,8,0:0:0:0:
192,288,113802,1,0,0:0:0:0:
192,288,113877,1,0,0:0:0:0:
320,288,113952,1,8,0:0:0:0:
320,288,114027,1,8,0:0:0:0:
192,288,114102,1,0,0:0:0:0:
192,288,114177,1,0,0:0:0:0:
288,288,114252,1,8,0:0:0:0:
192,288,114327,1,0,0:0:0:0:
192,288,114402,1,0,0:0:0:0:
192,288,114477,1,0,0:0:0:0:
224,320,114552,1,0,0:0:0:0:
224,320,114627,1,0,0:0:0:0:
352,288,114702,1,8,0:0:0:0:
224,320,114777,1,0,0:0:0:0:
192,320,114852,1,0,0:0:0:0:
192,320,114927,1,0,0:0:0:0:
192,320,115002,1,0,0:0:0:0:
192,320,115077,1,0,0:0:0:0:
320,320,115152,1,8,0:0:0:0:
192,320,115227,1,0,0:0:0:0:
192,320,115302,1,0,0:0:0:0:
192,320,115377,1,0,0:0:0:0:
320,288,115452,1,8,0:0:0:0:
192,320,115527,1,0,0:0:0:0:
192,320,115602,1,0,0:0:0:0:
192,320,115677,1,0,0:0:0:0:
160,288,115752,1,0,0:0:0:0:
160,288,115827,1,0,0:0:0:0:
352,320,115902,1,8,0:0:0:0:
224,288,115977,1,0,0:0:0:0:
192,320,116052,1,0,0:0:0:0:
192,288,116127,1,0,0:0:0:0:
192,288,116202,1,0,0:0:0:0:
192,288,116277,1,0,0:0:0:0:
320,320,116352,1,8,0:0:0:0:
224,320,116427,1,0,0:0:0:0:
224,320,116502,1,0,0:0:0:0:
224,320,116577,1,0,0:0:0:0:
352,320,116652,1,8,0:0:0:0:
192,320,116802,1,0,0:0:0:0:
192,320,116877,1,0,0:0:0:0:
384,288,116952,1,8,0:0:0:0:
192,320,117027,1,0,0:0:0:0:
224,320,117102,1,0,0:0:0:0:
192,320,117177,1,0,0:0:0:0:
384,288,117252,1,8,0:0:0:0:
384,288,117327,1,8,0:0:0:0:
384,288,117402,1,8,0:0:0:0:
384,288,117477,1,8,0:0:0:0:
384,288,117552,1,8,0:0:0:0:
384,288,117627,1,8,0:0:0:0:
384,288,117702,1,8,0:0:0:0:
384,288,117777,1,8,0:0:0:0:
224,320,117852,1,0,0:0:0:0:
224,320,117927,1,0,0:0:0:0:
224,320,118002,1,0,0:0:0:0:
224,320,118077,1,0,0:0:0:0:
416,320,118152,1,8,0:0:0:0:
416,320,118227,1,8,0:0:0:0:
416,320,118302,1,8,0:0:0:0:
416,320,118377,1,8,0:0:0:0:
224,320,118452,1,0,0:0:0:0:
224,320,118527,1,0,0:0:0:0:
416,288,118602,1,8,0:0:0:0:
416,288,118677,1,8,0:0:0:0:
192,320,118752,1,0,0:0:0:0:
192,320,118827,1,0,0:0:0:0:
192,320,118902,1,0,0:0:0:0:
128,96,119052,1,4,0:0:0:0:
384,320,119202,1,8,0:0:0:0:
160,288,119352,1,0,0:0:0:0:
160,288,119427,1,0,0:0:0:0:
448,320,119502,1,8,0:0:0:0:
192,320,119652,1,0,0:0:0:0:
384,320,119802,1,8,0:0:0:0:
192,320,119952,1,0,0:0:0:0:
192,320,120027,1,0,0:0:0:0:
352,288,120102,1,8,0:0:0:0:
192,320,120252,1,0,0:0:0:0:
384,320,120402,1,8,0:0:0:0:
160,320,120552,1,0,0:0:0:0:
160,320,120627,1,0,0:0:0:0:
352,288,120702,1,8,0:0:0:0:
224,288,120852,1,0,0:0:0:0:
384,320,121002,1,8,0:0:0:0:
384,320,121077,1,8,0:0:0:0:
224,320,121152,1,0,0:0:0:0:
384,352,121302,1,8,0:0:0:0:
192,320,121452,1,0,0:0:0:0:
384,320,121602,1,8,0:0:0:0:
160,288,121752,1,0,0:0:0:0:
160,288,121827,1,0,0:0:0:0:
448,320,121902,1,8,0:0:0:0:
192,320,122052,1,0,0:0:0:0:
384,320,122202,1,8,0:0:0:0:
192,320,122352,1,0,0:0:0:0:
192,320,122427,1,0,0:0:0:0:
352,288,122502,1,8,0:0:0:0:
160,320,122652,1,0,0:0:0:0:
384,320,122802,1,8,0:0:0:0:
384,320,122952,1,8,0:0:0:0:
384,320,123027,1,8,0:0:0:0:
384,320,123102,1,8,0:0:0:0:
384,288,123177,1,8,0:0:0:0:
192,320,123252,1,0,0:0:0:0:
192,320,123327,1,0,0:0:0:0:
192,320,123402,1,0,0:0:0:0:
192,320,123477,1,0,0:0:0:0:
352,320,123552,1,8,0:0:0:0:
352,288,123627,1,8,0:0:0:0:
224,320,123702,1,0,0:0:0:0:
160,96,123852,1,4,0:0:0:0:
384,96,125052,1,12,0:0:0:0:
384,288,126252,1,8,0:0:0:0:
352,288,126327,1,8,0:0:0:0:
352,288,126402,1,8,0:0:0:0:
160,288,126552,1,0,0:0:0:0:
160,288,126702,1,0,0:0:0:0:
160,288,126777,1,0,0:0:0:0:
160,288,126852,1,0,0:0:0:0:
160,288,127002,1,0,0:0:0:0:
352,288,127152,1,8,0:0:0:0:
160,256,127302,1,0,0:0:0:0:
320,288,127452,1,8,0:0:0:0:
320,288,127527,1,8,0:0:0:0:
320,288,127602,1,8,0:0:0:0:
192,288,127752,1,0,0:0:0:0:
160,288,127902,1,0,0:0:0:0:
160,288,127977,1,0,0:0:0:0:
160,288,128052,1,0,0:0:0:0:
320,288,128202,1,8,0:0:0:0:
288,288,128352,1,8,0:0:0:0:
192,288,128502,1,0,0:0:0:0:
352,288,128652,1,8,0:0:0:0:
352,288,128727,1,8,0:0:0:0:
352,288,128802,1,8,0:0:0:0:
224,288,128952,1,0,0:0:0:0:
352,256,129102,1,8,0:0:0:0:
352,256,129177,1,8,0:0:0:0:
352,256,129252,1,8,0:0:0:0:
192,288,129402,1,0,0:0:0:0:
352,288,129552,1,8,0:0:0:0:
224,288,129702,1,0,0:0:0:0:
352,288,129852,1,8,0:0:0:0:
352,288,129927,1,8,0:0:0:0:
352,288,130002,1,8,0:0:0:0:
224,288,130152,1,0,0:0:0:0:
352,256,130302,1,8,0:0:0:0:
352,256,130377,1,8,0:0:0:0:
352,256,130452,1,8,0:0:0:0:
192,288,130602,1,0,0:0:0:0:
352,288,130752,1,8,0:0:0:0:
224,288,130902,1,0,0:0:0:0:
352,288,131052,1,8,0:0:0:0:
352,288,131127,1,8,0:0:0:0:
192,288,131202,1,0,0:0:0:0:
352,288,131352,1,8,0:0:0:0:
224,288,131502,1,0,0:0:0:0:
224,288,131577,1,0,0:0:0:0:
192,288,131652,1,0,0:0:0:0:
192,288,131802,1,0,0:0:0:0:
320,288,131952,1,8,0:0:0:0:
192,288,132102,1,0,0:0:0:0:
320,288,132252,1,8,0:0:0:0:
320,288,132327,1,8,0:0:0:0:
192,288,132402,1,0,0:0:0:0:
352,288,132552,1,8,0:0:0:0:
160,288,132702,1,0,0:0:0:0:
160,288,132777,1,0,0:0:0:0:
224,288,132852,1,0,0:0:0:0:
192,288,133002,1,0,0:0:0:0:
352,288,133152,1,8,0:0:0:0:
160,288,133302,1,0,0:0:0:0:
384,256,133452,1,8,0:0:0:0:
384,256,133489,1,8,0:0:0:0:
160,288,133677,1,0,0:0:0:0:
160,288,133714,1,0,0:0:0:0:
384,288,133902,1,8,0:0:0:0:
384,288,133939,1,8,0:0:0:0:
160,288,134202,1,0,0:0:0:0:
160,304,134277,1,0,0:0:0:0:
384,288,134352,1,8,0:0:0:0:
160,288,134502,1,0,0:0:0:0:
384,256,134652,1,8,0:0:0:0:
384,256,134689,1,8,0:0:0:0:
160,288,134877,1,0,0:0:0:0:
160,288,134914,1,0,0:0:0:0:
384,288,135102,1,8,0:0:0:0:
384,288,135139,1,8,0:0:0:0:
160,288,135402,1,0,0:0:0:0:
152,292,135477,1,0,0:0:0:0:
384,288,135552,1,8,0:0:0:0:
160,288,135702,1,0,0:0:0:0:
352,288,135852,1,8,0:0:0:0:
164,312,136002,1,0,0:0:0:0:
348,308,136077,1,8,0:0:0:0:
164,312,136152,1,0,0:0:0:0:
352,288,136302,1,8,0:0:0:0:
352,288,136377,1,8,0:0:0:0:
352,288,136452,1,8,0:0:0:0:
192,320,136602,1,0,0:0:0:0:
320,288,136752,1,8,0:0:0:0:
192,320,136902,1,0,0:0:0:0:
320,288,137052,1,8,0:0:0:0:
128,288,137127,1,0,0:0:0:0:
352,288,137202,1,8,0:0:0:0:
192,288,137277,1,0,0:0:0:0:
384,288,137352,1,8,0:0:0:0:
384,320,137427,1,8,0:0:0:0:
192,320,137502,1,0,0:0:0:0:
160,320,137577,1,0,0:0:0:0:
128,288,137802,1,0,0:0:0:0:
160,288,137952,1,0,0:0:0:0:
160,288,138027,1,0,0:0:0:0:
416,320,138102,1,8,0:0:0:0:
416,320,138252,1,8,0:0:0:0:
416,320,138327,1,8,0:0:0:0:
416,320,138402,1,8,0:0:0:0:
192,288,138477,1,0,0:0:0:0:
192,288,138552,1,0,0:0:0:0:
192,288,138627,1,0,0:0:0:0:
352,320,138702,1,8,0:0:0:0:
384,320,138777,1,8,0:0:0:0:
384,320,138852,1,8,0:0:0:0:
128,288,139002,1,0,0:0:0:0:
352,320,139152,1,8,0:0:0:0:
192,288,139302,1,0,0:0:0:0:
384,320,139452,1,8,0:0:0:0:
384,320,139527,1,8,0:0:0:0:
384,320,139602,1,8,0:0:0:0:
384,320,139677,1,8,0:0:0:0:
160,288,139752,1,0,0:0:0:0:
160,288,139827,1,0,0:0:0:0:
352,320,139902,1,8,0:0:0:0:
160,288,140202,1,0,0:0:0:0:
320,320,140352,1,8,0:0:0:0:
160,288,140502,1,0,0:0:0:0:
384,256,140652,1,8,0:0:0:0:
384,256,140689,1,8,0:0:0:0:
160,288,140877,1,0,0:0:0:0:
160,288,140914,1,0,0:0:0:0:
384,288,141102,1,8,0:0:0:0:
384,288,141139,1,8,0:0:0:0:
160,288,141402,1,0,0:0:0:0:
112,280,141477,1,0,0:0:0:0:
352,288,141552,1,8,0:0:0:0:
352,288,141702,1,8,0:0:0:0:
384,288,141852,1,8,0:0:0:0:
384,288,141927,1,8,0:0:0:0:
384,288,142002,1,8,0:0:0:0:
384,288,142077,1,8,0:0:0:0:
96,288,142152,1,0,0:0:0:0:
96,288,142227,1,0,0:0:0:0:
352,288,142302,1,8,0:0:0:0:
384,288,142377,1,8,0:0:0:0:
384,288,142452,1,8,0:0:0:0:
384,288,142527,1,8,0:0:0:0:
96,288,142602,1,0,0:0:0:0:
96,288,142677,1,0,0:0:0:0:
320,288,142752,1,8,0:0:0:0:
320,288,142827,1,8,0:0:0:0:
128,288,142902,1,0,0:0:0:0:
352,288,143052,1,8,0:0:0:0:
160,288,143202,1,0,0:0:0:0:
384,288,143352,1,8,0:0:0:0:
192,288,143427,1,0,0:0:0:0:
384,320,143502,1,8,0:0:0:0:
384,320,143577,1,8,0:0:0:0:
160,288,143652,1,0,0:0:0:0:
160,288,143727,1,0,0:0:0:0:
352,288,143802,1,8,0:0:0:0:
352,288,143877,1,8,0:0:0:0:
192,288,143952,1,0,0:0:0:0:
192,288,144027,1,0,0:0:0:0:
384,320,144102,1,8,0:0:0:0:
96,96,144252,1,4,0:0:0:0:
96,96,144552,1,4,0:0:0:0:
384,288,145452,1,8,0:0:0:0:
160,288,145602,1,0,0:0:0:0:
160,288,145677,1,0,0:0:0:0:
160,288,145752,1,0,0:0:0:0:
160,288,145827,1,0,0:0:0:0:
384,320,145902,1,8,0:0:0:0:
160,288,145977,1,0,0:0:0:0:
160,288,146052,1,0,0:0:0:0:
160,288,146127,1,0,0:0:0:0:
160,288,146202,1,0,0:0:0:0:
160,288,146277,1,0,0:0:0:0:
384,320,146352,1,8,0:0:0:0:
160,288,146427,1,0,0:0:0:0:
160,288,146502,1,0,0:0:0:0:
160,288,146577,1,0,0:0:0:0:
448,320,146652,1,8,0:0:0:0:
192,288,146802,1,0,0:0:0:0:
192,288,146877,1,0,0:0:0:0:
192,288,146952,1,0,0:0:0:0:
448,288,147102,1,8,0:0:0:0:
192,288,147252,1,0,0:0:0:0:
192,288,147327,1,0,0:0:0:0:
192,288,147402,1,0,0:0:0:0:
448,320,147552,1,8,0:0:0:0:
448,320,147627,1,8,0:0:0:0:
192,288,147702,1,0,0:0:0:0:
192,288,147777,1,0,0:0:0:0:
416,320,147852,1,8,0:0:0:0:
192,288,148002,1,0,0:0:0:0:
192,288,148077,1,0,0:0:0:0:
192,288,148152,1,0,0:0:0:0:
192,288,148227,1,0,0:0:0:0:
384,288,148302,1,8,0:0:0:0:
192,288,148377,1,0,0:0:0:0:
192,288,148452,1,0,0:0:0:0:
192,288,148527,1,0,0:0:0:0:
192,288,148602,1,0,0:0:0:0:
192,288,148677,1,0,0:0:0:0:
384,288,148752,1,8,0:0:0:0:
192,288,148827,1,0,0:0:0:0:
192,288,148902,1,0,0:0:0:0:
192,288,148977,1,0,0:0:0:0:
384,288,149052,1,8,0:0:0:0:
192,288,149202,1,0,0:0:0:0:
224,288,149352,1,0,0:0:0:0:
224,288,149427,1,0,0:0:0:0:
384,288,149502,1,8,0:0:0:0:
224,288,149652,1,0,0:0:0:0:
384,288,149802,1,8,0:0:0:0:
384,288,149952,1,8,0:0:0:0:
384,288,150027,1,8,0:0:0:0:
224,288,150102,1,0,0:0:0:0:
384,288,150252,1,8,0:0:0:0:
160,288,150402,1,0,0:0:0:0:
160,288,150477,1,0,0:0:0:0:
160,288,150552,1,0,0:0:0:0:
160,288,150627,1,0,0:0:0:0:
160,288,150702,1,8,0:0:0:0:
160,288,150777,1,0,0:0:0:0:
160,288,150852,1,0,0:0:0:0:
160,288,150927,1,0,0:0:0:0:
160,288,151002,1,0,0:0:0:0:
160,288,151077,1,0,0:0:0:0:
160,288,151152,1,8,0:0:0:0:
160,288,151227,1,0,0:0:0:0:
160,288,151302,1,0,0:0:0:0:
160,288,151377,1,0,0:0:0:0:
448,320,151452,1,8,0:0:0:0:
192,288,151602,1,0,0:0:0:0:
192,288,151677,1,0,0:0:0:0:
192,288,151752,1,0,0:0:0:0:
448,288,151902,1,8,0:0:0:0:
192,288,152052,1,0,0:0:0:0:
192,288,152127,1,0,0:0:0:0:
192,288,152202,1,0,0:0:0:0:
448,320,152352,1,8,0:0:0:0:
448,320,152427,1,8,0:0:0:0:
192,288,152502,1,0,0:0:0:0:
192,288,152577,1,0,0:0:0:0:
416,320,152652,1,8,0:0:0:0:
160,288,152802,1,0,0:0:0:0:
160,288,152877,1,0,0:0:0:0:
160,288,152952,1,0,0:0:0:0:
160,288,153027,1,0,0:0:0:0:
448,320,153102,1,8,0:0:0:0:
160,288,153177,1,0,0:0:0:0:
160,288,153252,1,0,0:0:0:0:
160,288,153327,1,0,0:0:0:0:
160,288,153402,1,0,0:0:0:0:
160,288,153477,1,0,0:0:0:0:
448,320,153552,1,8,0:0:0:0:
160,288,153627,1,0,0:0:0:0:
160,288,153702,1,0,0:0:0:0:
160,288,153777,1,0,0:0:0:0:
384,320,153852,1,8,0:0:0:0:
160,288,154002,1,0,0:0:0:0:
160,288,154152,1,0,0:0:0:0:
160,288,154227,1,0,0:0:0:0:
160,288,154302,1,0,0:0:0:0:
160,288,154377,1,0,0:0:0:0:
160,288,154452,1,0,0:0:0:0:
160,288,154527,1,0,0:0:0:0:
160,288,154602,1,0,0:0:0:0:
448,128,154752,1,12,0:0:0:0:
384,320,155052,1,8,0:0:0:0:
192,320,155202,1,0,0:0:0:0:
192,320,155277,1,0,0:0:0:0:
192,320,155352,1,0,0:0:0:0:
192,320,155427,1,0,0:0:0:0:
384,320,155502,1,8,0:0:0:0:
192,288,155652,1,0,0:0:0:0:
192,288,155727,1,0,0:0:0:0:
192,288,155802,1,0,0:0:0:0:
192,288,155877,1,0,0:0:0:0:
384,320,155952,1,8,0:0:0:0:
224,320,156102,1,0,0:0:0:0:
224,320,156177,1,0,0:0:0:0:
384,320,156252,1,8,0:0:0:0:
192,320,156402,1,0,0:0:0:0:
192,320,156477,1,0,0:0:0:0:
192,320,156552,1,0,0:0:0:0:
192,320,156627,1,0,0:0:0:0:
384,320,156702,1,8,0:0:0:0:
192,288,156852,1,0,0:0:0:0:
192,288,156927,1,0,0:0:0:0:
192,288,157002,1,0,0:0:0:0:
192,288,157077,1,0,0:0:0:0:
384,320,157152,1,8,0:0:0:0:
224,320,157302,1,0,0:0:0:0:
224,320,157377,1,0,0:0:0:0:
384,320,157452,1,8,0:0:0:0:
192,320,157602,1,0,0:0:0:0:
192,320,157677,1,0,0:0:0:0:
192,320,157752,1,0,0:0:0:0:
192,320,157827,1,0,0:0:0:0:
384,320,157902,1,8,0:0:0:0:
128,288,158052,1,0,0:0:0:0:
128,288,158127,1,0,0:0:0:0:
128,288,158202,1,0,0:0:0:0:
128,288,158277,1,0,0:0:0:0:
384,320,158352,1,8,0:0:0:0:
160,320,158502,1,0,0:0:0:0:
160,320,158577,1,0,0:0:0:0:
384,320,158652,1,8,0:0:0:0:
352,288,158727,1,8,0:0:0:0:
352,288,158802,1,8,0:0:0:0:
352,288,158877,1,8,0:0:0:0:
160,320,158952,1,0,0:0:0:0:
160,320,159027,1,0,0:0:0:0:
384,320,159102,1,8,0:0:0:0:
384,320,159177,1,8,0:0:0:0:
160,320,159252,1,0,0:0:0:0:
160,320,159327,1,0,0:0:0:0:
160,320,159402,1,0,0:0:0:0:
160,320,159477,1,0,0:0:0:0:
352,320,159552,1,8,0:0:0:0:
352,320,159627,1,8,0:0:0:0:
192,320,159702,1,0,0:0:0:0:
192,320,159777,1,0,0:0:0:0:
320,320,159852,1,8,0:0:0:0:
192,320,160002,1,0,0:0:0:0:
192,320,160077,1,0,0:0:0:0:
192,320,160152,1,0,0:0:0:0:
352,320,160302,1,8,0:0:0:0:
192,320,160452,1,0,0:0:0:0:
192,320,160527,1,0,0:0:0:0:
352,320,160602,1,8,0:0:0:0:
384,320,160752,1,8,0:0:0:0:
384,320,160827,1,8,0:0:0:0:
192,320,160902,1,0,0:0:0:0:
192,320,160977,1,0,0:0:0:0:
384,320,161052,1,8,0:0:0:0:
192,320,161202,1,0,0:0:0:0:
192,320,161277,1,0,0:0:0:0:
192,320,161352,1,0,0:0:0:0:
384,320,161502,1,8,0:0:0:0:
192,320,161652,1,0,0:0:0:0:
192,320,161727,1,0,0:0:0:0:
384,320,161802,1,8,0:0:0:0:
384,320,161952,1,8,0:0:0:0:
192,320,162102,1,0,0:0:0:0:
352,320,162252,1,8,0:0:0:0:
352,288,162327,1,8,0:0:0:0:
352,288,162402,1,8,0:0:0:0:
384,320,162552,1,8,0:0:0:0:
192,320,162702,1,0,0:0:0:0:
352,320,162777,1,8,0:0:0:0:
352,320,162852,1,8,0:0:0:0:
352,320,163002,1,8,0:0:0:0:
160,320,163152,1,0,0:0:0:0:
320,320,163302,1,8,0:0:0:0:
352,320,163452,1,8,0:0:0:0:
352,320,163527,1,8,0:0:0:0:
224,320,163602,1,0,0:0:0:0:
192,320,163677,1,0,0:0:0:0:
352,320,163752,1,8,0:0:0:0:
352,320,163827,1,8,0:0:0:0:
224,320,163902,1,0,0:0:0:0:
224,320,163977,1,0,0:0:0:0:
320,320,164052,1,8,0:0:0:0:
320,320,164127,1,8,0:0:0:0:
320,320,164202,1,8,0:0:0:0:
320,320,164277,1,8,0:0:0:0:
224,320,164352,1,0,0:0:0:0:
224,320,164427,1,0,0:0:0:0:
224,320,164502,1,0,0:0:0:0:
224,320,164577,1,0,0:0:0:0:
192,320,164652,1,0,0:0:0:0:
352,320,164802,1,8,0:0:0:0:
224,320,164952,1,0,0:0:0:0:
224,320,165027,1,0,0:0:0:0:
320,320,165102,1,8,0:0:0:0:
192,320,165252,1,0,0:0:0:0:
320,320,165402,1,8,0:0:0:0:
192,320,165552,1,0,0:0:0:0:
192,320,165627,1,0,0:0:0:0:
320,320,165702,1,8,0:0:0:0:
192,320,165852,1,0,0:0:0:0:
320,320,166002,1,8,0:0:0:0:
192,320,166152,1,0,0:0:0:0:
192,320,166227,1,0,0:0:0:0:
320,320,166302,1,8,0:0:0:0:
192,320,166452,1,0,0:0:0:0:
288,320,166602,1,8,0:0:0:0:
288,320,166677,1,8,0:0:0:0:
192,320,166752,1,0,0:0:0:0:
288,320,166902,1,8,0:0:0:0:
192,320,167052,1,0,0:0:0:0:
352,320,167202,1,8,0:0:0:0:
224,320,167352,1,0,0:0:0:0:
224,320,167427,1,0,0:0:0:0:
320,320,167502,1,8,0:0:0:0:
192,320,167652,1,0,0:0:0:0:
320,320,167802,1,8,0:0:0:0:
192,320,167952,1,0,0:0:0:0:
192,320,168027,1,0,0:0:0:0:
320,320,168102,1,8,0:0:0:0:
192,320,168252,1,0,0:0:0:0:
320,320,168402,1,8,0:0:0:0:
192,320,168552,1,0,0:0:0:0:
192,320,168627,1,0,0:0:0:0:
320,320,168702,1,8,0:0:0:0:
192,320,168852,1,0,0:0:0:0:
192,352,168927,1,0,0:0:0:0:
288,320,169002,1,8,0:0:0:0:
288,320,169077,1,8,0:0:0:0:
192,320,169152,1,0,0:0:0:0:
192,320,169227,1,0,0:0:0:0:
288,320,169302,1,8,0:0:0:0:
320,320,169377,1,8,0:0:0:0:
192,320,169452,1,0,0:0:0:0:
352,320,169602,1,8,0:0:0:0:
224,320,169752,1,0,0:0:0:0:
224,320,169827,1,0,0:0:0:0:
320,320,169902,1,8,0:0:0:0:
192,320,170052,1,0,0:0:0:0:
320,320,170202,1,8,0:0:0:0:
192,320,170352,1,0,0:0:0:0:
192,320,170427,1,0,0:0:0:0:
320,320,170502,1,8,0:0:0:0:
192,320,170652,1,0,0:0:0:0:
320,320,170802,1,8,0:0:0:0:
192,320,170952,1,0,0:0:0:0:
192,320,171027,1,0,0:0:0:0:
320,320,171102,1,8,0:0:0:0:
192,320,171252,1,0,0:0:0:0:
288,320,171402,1,8,0:0:0:0:
288,320,171477,1,8,0:0:0:0:
192,320,171552,1,0,0:0:0:0:
288,320,171702,1,8,0:0:0:0:
192,320,171852,1,0,0:0:0:0:
352,320,172002,1,8,0:0:0:0:
192,320,172077,1,0,0:0:0:0:
224,320,172152,1,0,0:0:0:0:
224,320,172227,1,0,0:0:0:0:
320,320,172302,1,8,0:0:0:0:
192,320,172452,1,0,0:0:0:0:
320,320,172602,1,8,0:0:0:0:
224,320,172677,1,0,0:0:0:0:
192,320,172752,1,0,0:0:0:0:
192,320,172827,1,0,0:0:0:0:
320,320,172902,1,8,0:0:0:0:
192,320,173052,1,0,0:0:0:0:
320,320,173202,1,8,0:0:0:0:
192,320,173352,1,0,0:0:0:0:
192,320,173427,1,0,0:0:0:0:
352,288,173502,1,8,0:0:0:0:
192,320,173652,1,0,0:0:0:0:
192,320,173727,1,0,0:0:0:0:
320,288,173802,1,8,0:0:0:0:
192,320,173877,1,0,0:0:0:0:
352,288,173952,1,8,0:0:0:0:
352,288,174027,1,8,0:0:0:0:
192,320,174102,1,0,0:0:0:0:
160,320,174177,1,0,0:0:0:0:
320,288,174252,1,8,0:0:0:0:
192,320,174402,1,0,0:0:0:0:
192,320,174477,1,0,0:0:0:0:
320,288,174552,1,8,0:0:0:0:
160,320,174627,1,0,0:0:0:0:
160,320,174702,1,0,0:0:0:0:
160,320,174777,1,0,0:0:0:0:
320,320,174852,1,8,0:0:0:0:
192,320,174927,1,0,0:0:0:0:
192,320,175002,1,0,0:0:0:0:
192,320,175077,1,0,0:0:0:0:
320,288,175152,1,8,0:0:0:0:
160,320,175227,1,0,0:0:0:0:
160,320,175302,1,0,0:0:0:0:
160,320,175377,1,0,0:0:0:0:
384,288,175452,1,8,0:0:0:0:
192,320,175602,1,0,0:0:0:0:
192,320,175677,1,0,0:0:0:0:
320,288,175752,1,8,0:0:0:0:
160,320,175827,1,0,0:0:0:0:
160,320,175902,1,0,0:0:0:0:
160,320,175977,1,0,0:0:0:0:
320,320,176052,1,8,0:0:0:0:
192,320,176127,1,0,0:0:0:0:
192,320,176202,1,0,0:0:0:0:
192,320,176277,1,0,0:0:0:0:
320,288,176352,1,8,0:0:0:0:
160,320,176427,1,0,0:0:0:0:
160,320,176502,1,0,0:0:0:0:
160,320,176577,1,0,0:0:0:0:
384,288,176652,1,8,0:0:0:0:
160,320,176802,1,0,0:0:0:0:
160,320,176877,1,0,0:0:0:0:
160,320,176952,1,0,0:0:0:0:
160,320,177027,1,0,0:0:0:0:
320,320,177102,1,8,0:0:0:0:
160,320,177252,1,0,0:0:0:0:
160,320,177327,1,0,0:0:0:0:
160,320,177402,1,0,0:0:0:0:
192,320,177477,1,0,0:0:0:0:
320,320,177552,1,8,0:0:0:0:
192,320,177702,1,0,0:0:0:0:
192,320,177777,1,0,0:0:0:0:
352,288,177852,1,8,0:0:0:0:
160,320,178002,1,0,0:0:0:0:
320,288,178152,1,8,0:0:0:0:
192,320,178302,1,0,0:0:0:0:
192,320,178377,1,0,0:0:0:0:
320,288,178452,1,8,0:0:0:0:
192,320,178602,1,0,0:0:0:0:
320,320,178752,1,8,0:0:0:0:
192,320,178902,1,0,0:0:0:0:
192,320,178977,1,0,0:0:0:0:
352,320,179052,1,8,0:0:0:0:
320,320,179127,1,8,0:0:0:0:
224,320,179202,1,0,0:0:0:0:
224,320,179277,1,0,0:0:0:0:
224,320,179352,1,0,0:0:0:0:
224,320,179427,1,0,0:0:0:0:
352,320,179502,1,8,0:0:0:0:
320,320,179577,1,8,0:0:0:0:
224,320,179652,1,0,0:0:0:0:
224,320,179727,1,0,0:0:0:0:
224,320,179802,1,0,0:0:0:0:
224,320,179877,1,0,0:0:0:0:
352,320,179952,1,8,0:0:0:0:
320,320,180027,1,8,0:0:0:0:
224,320,180102,1,0,0:0:0:0:
224,320,180177,1,0,0:0:0:0:
352,320,180252,1,8,0:0:0:0:
320,320,180327,1,8,0:0:0:0:
224,320,180402,1,0,0:0:0:0:
224,320,180477,1,0,0:0:0:0:
224,320,180552,1,0,0:0:0:0:
224,320,180627,1,0,0:0:0:0:
352,320,180702,1,8,0:0:0:0:
320,320,180777,1,8,0:0:0:0:
224,320,180852,1,0,0:0:0:0:
224,320,180927,1,0,0:0:0:0:
224,320,181002,1,0,0:0:0:0:
224,320,181077,1,0,0:0:0:0:
352,320,181152,1,8,0:0:0:0:
352,320,181227,1,8,0:0:0:0:
224,320,181302,1,0,0:0:0:0:
224,320,181377,1,0,0:0:0:0:
352,320,181452,1,8,0:0:0:0:
352,320,181527,1,8,0:0:0:0:
352,320,181602,1,8,0:0:0:0:
352,320,181677,1,8,0:0:0:0:
224,320,181752,1,0,0:0:0:0:
224,320,181827,1,0,0:0:0:0:
352,320,181902,1,8,0:0:0:0:
352,320,181977,1,8,0:0:0:0:
352,320,182052,1,8,0:0:0:0:
352,320,182127,1,8,0:0:0:0:
224,320,182202,1,0,0:0:0:0:
224,320,182277,1,0,0:0:0:0:
320,320,182352,1,8,0:0:0:0:
320,320,182427,1,8,0:0:0:0:
224,320,182502,1,0,0:0:0:0:
224,320,182577,1,0,0:0:0:0:
352,320,182652,1,8,0:0:0:0:
352,288,183852,1,8,0:0:0:0:
224,288,183927,1,0,0:0:0:0:
224,288,184002,1,0,0:0:0:0:
224,288,184077,1,0,0:0:0:0:
352,288,184152,1,8,0:0:0:0:
224,288,184227,1,0,0:0:0:0:
224,288,184302,1,0,0:0:0:0:
224,288,184377,1,0,0:0:0:0:
352,288,184452,1,8,0:0:0:0:
192,288,184527,1,0,0:0:0:0:
192,288,184602,1,0,0:0:0:0:
192,288,184677,1,0,0:0:0:0:
352,288,184752,1,8,0:0:0:0:
224,288,184827,1,0,0:0:0:0:
224,288,184902,1,0,0:0:0:0:
224,288,184977,1,0,0:0:0:0:
384,288,185052,1,8,0:0:0:0:
384,288,185127,1,8,0:0:0:0:
192,288,185202,1,0,0:0:0:0:
192,288,185277,1,0,0:0:0:0:
384,288,185352,1,8,0:0:0:0:
384,288,185427,1,8,0:0:0:0:
160,256,185502,1,0,0:0:0:0:
160,256,185577,1,0,0:0:0:0:
384,288,185652,1,8,0:0:0:0:
384,288,185727,1,8,0:0:0:0:
160,288,185802,1,0,0:0:0:0:
160,288,185877,1,0,0:0:0:0:
384,288,185952,1,8,0:0:0:0:
384,320,186027,1,8,0:0:0:0:
224,288,186102,1,0,0:0:0:0:
224,288,186177,1,0,0:0:0:0:
352,320,186252,1,8,0:0:0:0:
352,320,186327,1,8,0:0:0:0:
352,320,186402,1,8,0:0:0:0:
224,288,186477,1,0,0:0:0:0:
352,288,186552,1,8,0:0:0:0:
352,288,186627,1,8,0:0:0:0:
352,288,186702,1,8,0:0:0:0:
224,288,186777,1,0,0:0:0:0:
320,288,186852,1,8,0:0:0:0:
320,288,186927,1,8,0:0:0:0:
320,288,187002,1,8,0:0:0:0:
192,288,187077,1,0,0:0:0:0:
352,320,187152,1,8,0:0:0:0:
352,288,187227,1,8,0:0:0:0:
384,288,187302,1,8,0:0:0:0:
192,288,187377,1,0,0:0:0:0:
352,320,187452,1,8,0:0:0:0:
352,320,187527,1,8,0:0:0:0:
192,288,187602,1,0,0:0:0:0:
192,288,187677,1,0,0:0:0:0:
320,288,187752,1,8,0:0:0:0:
320,288,187827,1,8,0:0:0:0:
192,288,187902,1,0,0:0:0:0:
192,288,187977,1,0,0:0:0:0:
384,288,188052,1,8,0:0:0:0:
384,288,188127,1,8,0:0:0:0:
192,288,188202,1,0,0:0:0:0:
192,288,188277,1,0,0:0:0:0:
320,288,188352,1,8,0:0:0:0:
320,288,188427,1,8,0:0:0:0:
192,288,188502,1,0,0:0:0:0:
192,288,188577,1,0,0:0:0:0:
288,288,188652,1,8,0:0:0:0:
192,288,188727,1,0,0:0:0:0:
192,288,188802,1,0,0:0:0:0:
192,288,188877,1,0,0:0:0:0:
224,320,188952,1,0,0:0:0:0:
224,320,189027,1,0,0:0:0:0:
352,288,189102,1,8,0:0:0:0:
224,320,189177,1,0,0:0:0:0:
192,320,189252,1,0,0:0:0:0:
192,320,189327,1,0,0:0:0:0:
192,320,189402,1,0,0:0:0:0:
192,320,189477,1,0,0:0:0:0:
320,320,189552,1,8,0:0:0:0:
192,320,189627,1,0,0:0:0:0:
192,320,189702,1,0,0:0:0:0:
192,320,189777,1,0,0:0:0:0:
320,288,189852,1,8,0:0:0:0:
192,320,189927,1,0,0:0:0:0:
192,320,190002,1,0,0:0:0:0:
192,320,190077,1,0,0:0:0:0:
160,288,190152,1,0,0:0:0:0:
160,288,190227,1,0,0:0:0:0:
352,320,190302,1,8,0:0:0:0:
224,288,190377,1,0,0:0:0:0:
192,320,190452,1,0,0:0:0:0:
192,288,190527,1,0,0:0:0:0:
192,288,190602,1,0,0:0:0:0:
192,288,190677,1,0,0:0:0:0:
320,320,190752,1,8,0:0:0:0:
224,320,190827,1,0,0:0:0:0:
224,320,190902,1,0,0:0:0:0:
224,320,190977,1,0,0:0:0:0:
352,320,191052,1,8,0:0:0:0:
184,304,191202,1,0,0:0:0:0:
168,304,191277,1,0,0:0:0:0:
384,332,191352,1,8,0:0:0:0:
136,308,191427,1,0,0:0:0:0:
192,320,191502,1,0,0:0:0:0:
100,304,191577,1,0,0:0:0:0:
376,328,191652,1,8,0:0:0:0:
396,328,191727,1,8,0:0:0:0:
96,320,191802,1,0,0:0:0:0:
96,320,191877,1,0,0:0:0:0:
416,320,191952,1,8,0:0:0:0:
100,292,192027,1,0,0:0:0:0:
128,288,192102,1,0,0:0:0:0:
112,312,192177,1,0,0:0:0:0:
384,320,192252,1,8,0:0:0:0:
384,320,192327,1,8,0:0:0:0:
384,320,192402,1,8,0:0:0:0:
384,320,192477,1,8,0:0:0:0:
64,352,192552,1,0,0:0:0:0:
64,352,192627,1,0,0:0:0:0:
480,320,192702,1,8,0:0:0:0:
480,320,192777,1,8,0:0:0:0:
128,320,192852,1,0,0:0:0:0:
128,320,192927,1,0,0:0:0:0:
96,320,193002,1,0,0:0:0:0:
64,352,193077,1,0,0:0:0:0:
480,320,193152,1,8,0:0:0:0:
480,320,193227,1,8,0:0:0:0:
96,320,193302,1,0,0:0:0:0:
128,96,193452,1,4,0:0:0:0:
416,320,193602,1,8,0:0:0:0:
128,288,193752,1,0,0:0:0:0:
128,320,193827,1,0,0:0:0:0:
416,320,193902,1,8,0:0:0:0:
96,320,194052,1,0,0:0:0:0:
416,320,194202,1,8,0:0:0:0:
128,320,194352,1,0,0:0:0:0:
128,320,194427,1,0,0:0:0:0:
416,320,194502,1,8,0:0:0:0:
128,320,194652,1,0,0:0:0:0:
416,320,194802,1,8,0:0:0:0:
64,320,194952,1,0,0:0:0:0:
64,320,195027,1,0,0:0:0:0:
384,320,195102,1,8,0:0:0:0:
384,320,195177,1,8,0:0:0:0:
128,320,195252,1,0,0:0:0:0:
416,288,195402,1,8,0:0:0:0:
128,320,195552,1,0,0:0:0:0:
128,320,195627,1,0,0:0:0:0:
384,320,195702,1,8,0:0:0:0:
96,320,195852,1,0,0:0:0:0:
416,320,196002,1,8,0:0:0:0:
128,320,196152,1,0,0:0:0:0:
128,320,196227,1,0,0:0:0:0:
416,320,196302,1,8,0:0:0:0:
96,320,196452,1,0,0:0:0:0:
416,320,196602,1,8,0:0:0:0:
128,320,196752,1,0,0:0:0:0:
128,320,196827,1,0,0:0:0:0:
416,320,196902,1,8,0:0:0:0:
128,320,197052,1,0,0:0:0:0:
416,320,197202,1,8,0:0:0:0:
160,320,197352,1,0,0:0:0:0:
160,320,197427,1,0,0:0:0:0:
416,320,197502,1,8,0:0:0:0:
192,320,197652,1,0,0:0:0:0:
448,320,197802,1,8,0:0:0:0:
448,320,197877,1,8,0:0:0:0:
192,320,197952,1,0,0:0:0:0:
192,320,198027,1,0,0:0:0:0:
192,320,198102,1,0,0:0:0:0:
128,128,198252,1,4,0:0:0:0:
416,96,199452,1,12,0:0:0:0:
24,232,200652,2,0,L|516:156,1,498.75
384,288,201852,1,8,0:0:0:0:
128,288,202152,1,0,0:0:0:0:
128,288,202302,1,0,0:0:0:0:
128,288,202452,1,0,0:0:0:0:
128,288,202602,1,0,0:0:0:0:
128,288,202752,1,0,0:0:0:0:
128,288,202902,1,0,0:0:0:0:
384,288,203052,1,8,0:0:0:0:
384,288,203352,1,8,0:0:0:0:
128,288,203652,1,0,0:0:0:0:
384,288,203802,1,8,0:0:0:0:
160,288,203952,1,0,0:0:0:0:
384,288,204102,1,8,0:0:0:0:
160,288,204252,1,0,0:0:0:0:
128,288,204552,1,0,0:0:0:0:
128,288,204702,1,0,0:0:0:0:
128,288,204852,1,0,0:0:0:0:
128,288,205002,1,0,0:0:0:0:
128,288,205152,1,0,0:0:0:0:
128,288,205302,1,0,0:0:0:0:
416,320,205452,1,8,0:0:0:0:
416,320,205752,1,8,0:0:0:0:
192,288,206052,1,0,0:0:0:0:
192,288,206202,1,0,0:0:0:0:
416,320,206352,1,8,0:0:0:0:
384,288,206652,1,8,0:0:0:0:
128,288,206952,1,0,0:0:0:0:
128,288,207102,1,0,0:0:0:0:
128,288,207252,1,0,0:0:0:0:
128,288,207402,1,0,0:0:0:0:
128,288,207552,1,0,0:0:0:0:
128,288,207702,1,0,0:0:0:0:
384,288,207852,1,8,0:0:0:0:
384,288,208152,1,8,0:0:0:0:
128,288,208452,1,0,0:0:0:0:
384,288,208602,1,8,0:0:0:0:
160,288,208752,1,0,0:0:0:0:
384,288,208902,1,8,0:0:0:0:
160,288,209052,1,0,0:0:0:0:
128,288,209352,1,0,0:0:0:0:
128,288,209502,1,0,0:0:0:0:
128,288,209652,1,0,0:0:0:0:
128,288,209802,1,0,0:0:0:0:
128,288,209952,1,0,0:0:0:0:
128,288,210102,1,0,0:0:0:0:
320,288,210252,1,8,0:0:0:0:
128,288,210327,1,0,0:0:0:0:
128,288,210402,1,0,0:0:0:0:
128,288,210477,1,0,0:0:0:0:
320,288,210552,1,8,0:0:0:0:
128,288,210627,1,0,0:0:0:0:
128,288,210702,1,0,0:0:0:0:
128,288,210777,1,0,0:0:0:0:
320,288,210852,1,8,0:0:0:0:
128,288,210927,1,0,0:0:0:0:
320,288,211002,1,8,0:0:0:0:
128,288,211077,1,0,0:0:0:0:
320,288,211152,1,8,0:0:0:0:
320,288,211227,1,8,0:0:0:0:
128,288,211302,1,0,0:0:0:0:
128,288,211377,1,0,0:0:0:0:
128,320,211452,1,0,0:0:0:0:
128,288,211602,1,0,0:0:0:0:
352,288,211752,1,8,0:0:0:0:
160,320,211902,1,0,0:0:0:0:
320,288,212052,1,8,0:0:0:0:
160,320,212202,1,0,0:0:0:0:
160,320,212277,1,0,0:0:0:0:
160,320,212352,1,0,0:0:0:0:
320,288,212502,1,8,0:0:0:0:
128,320,212652,1,0,0:0:0:0:
128,288,212802,1,0,0:0:0:0:
352,288,212952,1,8,0:0:0:0:
160,320,213102,1,0,0:0:0:0:
320,288,213252,1,8,0:0:0:0:
160,320,213402,1,0,0:0:0:0:
160,320,213477,1,0,0:0:0:0:
160,320,213552,1,0,0:0:0:0:
320,288,213702,1,8,0:0:0:0:
160,320,213852,1,0,0:0:0:0:
160,320,214002,1,0,0:0:0:0:
320,288,214152,1,8,0:0:0:0:
128,320,214302,1,0,0:0:0:0:
320,288,214452,1,8,0:0:0:0:
320,288,214527,1,8,0:0:0:0:
320,288,214602,1,8,0:0:0:0:
320,288,214752,1,8,0:0:0:0:
192,320,214902,1,0,0:0:0:0:
320,288,215052,1,8,0:0:0:0:
320,288,215127,1,8,0:0:0:0:
192,320,215202,1,0,0:0:0:0:
192,320,215352,1,0,0:0:0:0:
352,128,215502,1,12,0:0:0:0:
96,256,215802,1,0,0:0:0:0:
96,256,215877,1,0,0:0:0:0:
96,256,215952,1,0,0:0:0:0:
96,256,216027,1,0,0:0:0:0:
128,320,216102,1,0,0:0:0:0:
160,320,216252,1,0,0:0:0:0:
160,320,216402,1,0,0:0:0:0:
320,288,216552,1,8,0:0:0:0:
160,320,216702,1,0,0:0:0:0:
320,288,216852,1,8,0:0:0:0:
320,288,216927,1,8,0:0:0:0:
192,320,217002,1,0,0:0:0:0:
320,288,217152,1,8,0:0:0:0:
192,320,217302,1,0,0:0:0:0:
320,288,217452,1,8,0:0:0:0:
320,288,217527,1,8,0:0:0:0:
320,288,217602,1,8,0:0:0:0:
320,320,217752,1,8,0:0:0:0:
192,320,217902,1,0,0:0:0:0:
352,320,218202,1,8,0:0:0:0:
224,320,218502,1,0,0:0:0:0:
352,320,218652,1,8,0:0:0:0:
352,320,218727,1,8,0:0:0:0:
352,320,218802,1,8,0:0:0:0:
224,320,218952,1,0,0:0:0:0:
384,320,219102,1,8,0:0:0:0:
384,320,219177,1,8,0:0:0:0:
384,320,219252,1,8,0:0:0:0:
224,320,219402,1,0,0:0:0:0:
384,320,219552,1,8,0:0:0:0:
224,320,219702,1,0,0:0:0:0:
352,320,219852,1,8,0:0:0:0:
352,320,219927,1,8,0:0:0:0:
352,320,220002,1,8,0:0:0:0:
320,320,220077,1,8,0:0:0:0:
96,288,220152,1,0,0:0:0:0:
352,320,220302,1,8,0:0:0:0:
352,320,220377,1,8,0:0:0:0:
352,320,220452,1,8,0:0:0:0:
352,288,220527,1,8,0:0:0:0:
96,288,220602,1,0,0:0:0:0:
352,320,220752,1,8,0:0:0:0:
128,288,220902,1,0,0:0:0:0:
352,320,221052,1,8,0:0:0:0:
352,320,221127,1,8,0:0:0:0:
160,288,221202,1,0,0:0:0:0:
96,288,221352,1,0,0:0:0:0:
352,320,221502,1,8,0:0:0:0:
352,320,221577,1,8,0:0:0:0:
128,288,221652,1,0,0:0:0:0:
128,288,221802,1,0,0:0:0:0:
320,320,221952,1,8,0:0:0:0:
128,288,222102,1,0,0:0:0:0:
128,288,222252,1,0,0:0:0:0:
128,288,222327,1,0,0:0:0:0:
128,288,222402,1,0,0:0:0:0:
128,288,222477,1,0,0:0:0:0:
320,320,222552,1,8,0:0:0:0:
128,288,222702,1,0,0:0:0:0:
128,288,222852,1,0,0:0:0:0:
128,288,222927,1,0,0:0:0:0:
128,288,223002,1,0,0:0:0:0:
128,288,223077,1,0,0:0:0:0:
320,320,223152,1,8,0:0:0:0:
128,288,223302,1,0,0:0:0:0:
320,320,223452,1,8,0:0:0:0:
320,320,223527,1,8,0:0:0:0:
160,288,223602,1,0,0:0:0:0:
160,288,223752,1,0,0:0:0:0:
352,320,223902,1,8,0:0:0:0:
352,320,223977,1,8,0:0:0:0:
160,320,224052,1,0,0:0:0:0:
160,320,224202,1,0,0:0:0:0:
352,320,224352,1,8,0:0:0:0:
160,256,224502,1,0,0:0:0:0:
352,288,224652,1,8,0:0:0:0:
352,288,224727,1,8,0:0:0:0:
160,288,224802,1,0,0:0:0:0:
160,288,224877,1,0,0:0:0:0:
320,320,224952,1,8,0:0:0:0:
160,320,225102,1,0,0:0:0:0:
352,320,225252,1,8,0:0:0:0:
352,320,225327,1,8,0:0:0:0:
192,320,225402,1,0,0:0:0:0:
192,320,225477,1,0,0:0:0:0:
320,320,225552,1,8,0:0:0:0:
160,320,225702,1,0,0:0:0:0:
160,320,225852,1,0,0:0:0:0:
160,320,225927,1,0,0:0:0:0:
160,320,226002,1,0,0:0:0:0:
320,320,226152,1,8,0:0:0:0:
192,320,226227,1,0,0:0:0:0:
192,320,226302,1,0,0:0:0:0:
320,320,226452,1,8,0:0:0:0:
320,320,226527,1,8,0:0:0:0:
192,320,226602,1,0,0:0:0:0:
320,320,226752,1,8,0:0:0:0:
192,320,226902,1,0,0:0:0:0:
320,320,227052,1,8,0:0:0:0:
320,320,227127,1,8,0:0:0:0:
320,320,227202,1,8,0:0:0:0:
192,320,227352,1,0,0:0:0:0:
320,320,227427,1,8,0:0:0:0:
320,320,227502,1,8,0:0:0:0:
192,320,227652,1,0,0:0:0:0:
192,320,227727,1,0,0:0:0:0:
320,320,227802,1,8,0:0:0:0:
192,320,227952,1,0,0:0:0:0:
128,320,228027,1,0,0:0:0:0:
192,320,228102,1,0,0:0:0:0:
352,320,228252,1,8,0:0:0:0:
352,320,228402,1,8,0:0:0:0:
128,320,228552,1,0,0:0:0:0:
288,288,228702,1,8,0:0:0:0:
160,320,229002,1,0,0:0:0:0:
320,320,229302,1,8,0:0:0:0:
340,320,229452,1,8,0:0:0:0:
152,304,229527,1,0,0:0:0:0:
192,320,229602,1,0,0:0:0:0:
192,320,229677,1,0,0:0:0:0:
384,288,229752,1,8,0:0:0:0:
192,320,229902,1,0,0:0:0:0:
184,296,230052,1,0,0:0:0:0:
184,296,230127,1,0,0:0:0:0:
184,296,230202,1,0,0:0:0:0:
184,296,230277,1,0,0:0:0:0:
384,288,230352,1,8,0:0:0:0:
384,288,230652,1,8,0:0:0:0:
384,288,230727,1,8,0:0:0:0:
160,288,230802,1,0,0:0:0:0:
160,288,230877,1,0,0:0:0:0:
416,288,230952,1,8,0:0:0:0:
384,288,231252,1,8,0:0:0:0:
192,288,231327,1,0,0:0:0:0:
192,288,231402,1,0,0:0:0:0:
192,288,231477,1,0,0:0:0:0:
384,288,231552,1,8,0:0:0:0:
416,288,231852,1,8,0:0:0:0:
416,288,231927,1,8,0:0:0:0:
192,288,232002,1,0,0:0:0:0:
192,288,232077,1,0,0:0:0:0:
416,288,232152,1,8,0:0:0:0:
352,288,232227,1,8,0:0:0:0:
192,288,232302,1,0,0:0:0:0:
416,288,232377,1,8,0:0:0:0:
192,288,232452,1,0,0:0:0:0:
192,288,232527,1,0,0:0:0:0:
384,288,232602,1,8,0:0:0:0:
192,288,232677,1,0,0:0:0:0:
384,288,232752,1,8,0:0:0:0:
384,288,233052,1,8,0:0:0:0:
384,288,233127,1,8,0:0:0:0:
192,288,233202,1,0,0:0:0:0:
384,288,233277,1,8,0:0:0:0:
384,288,233352,1,8,0:0:0:0:
384,288,233652,1,8,0:0:0:0:
192,288,233727,1,0,0:0:0:0:
192,288,233802,1,0,0:0:0:0:
416,288,233877,1,8,0:0:0:0:
416,288,233952,1,8,0:0:0:0:
384,288,234252,1,8,0:0:0:0:
384,288,234327,1,8,0:0:0:0:
160,288,234402,1,0,0:0:0:0:
384,288,234477,1,8,0:0:0:0:
160,288,234552,1,0,0:0:0:0:
160,288,234627,1,0,0:0:0:0:
384,288,234702,1,8,0:0:0:0:
192,288,234777,1,0,0:0:0:0:
384,288,234852,1,8,0:0:0:0:
384,288,234927,1,8,0:0:0:0:
192,288,235002,1,0,0:0:0:0:
352,288,235077,1,8,0:0:0:0:
352,288,235152,1,8,0:0:0:0:
384,288,235452,1,8,0:0:0:0:
384,288,235527,1,8,0:0:0:0:
384,288,235602,1,8,0:0:0:0:
192,288,235677,1,0,0:0:0:0:
384,288,235752,1,8,0:0:0:0:
352,288,236052,1,8,0:0:0:0:
192,288,236127,1,0,0:0:0:0:
352,288,236202,1,8,0:0:0:0:
352,288,236277,1,8,0:0:0:0:
352,288,236352,1,8,0:0:0:0:
352,288,236652,1,8,0:0:0:0:
352,288,236727,1,8,0:0:0:0:
160,288,236802,1,0,0:0:0:0:
352,288,236877,1,8,0:0:0:0:
192,288,236952,1,0,0:0:0:0:
320,256,237027,1,8,0:0:0:0:
352,288,237102,1,8,0:0:0:0:
224,288,237177,1,0,0:0:0:0:
320,288,237252,1,8,0:0:0:0:
192,288,237327,1,0,0:0:0:0:
352,288,237402,1,8,0:0:0:0:
192,288,237477,1,0,0:0:0:0:
320,288,237552,1,8,0:0:0:0:
352,288,237852,1,8,0:0:0:0:
160,288,237927,1,0,0:0:0:0:
160,288,238002,1,0,0:0:0:0:
384,288,238077,1,8,0:0:0:0:
384,288,238152,1,8,0:0:0:0:
160,288,238452,1,0,0:0:0:0:
352,288,238527,1,8,0:0:0:0:
192,288,238602,1,0,0:0:0:0:
192,288,238677,1,0,0:0:0:0:
384,288,238752,1,8,0:0:0:0:
352,288,239052,1,8,0:0:0:0:
352,288,239127,1,8,0:0:0:0:
160,288,239202,1,0,0:0:0:0:
160,288,239277,1,0,0:0:0:0:
384,320,239352,1,8,0:0:0:0:
384,320,239427,1,8,0:0:0:0:
192,320,239502,1,0,0:0:0:0:
192,320,239577,1,0,0:0:0:0:
160,288,239652,1,0,0:0:0:0:
160,288,239727,1,0,0:0:0:0:
384,288,239802,1,8,0:0:0:0:
384,320,239877,1,8,0:0:0:0:
384,320,239952,1,8,0:0:0:0:
160,320,240252,1,0,0:0:0:0:
160,320,240327,1,0,0:0:0:0:
352,288,240402,1,8,0:0:0:0:
352,320,240477,1,8,0:0:0:0:
352,320,240552,1,8,0:0:0:0:
128,320,240627,1,0,0:0:0:0:
224,320,240702,1,0,0:0:0:0:
224,320,240777,1,0,0:0:0:0:
352,288,240852,1,8,0:0:0:0:
192,320,240927,1,0,0:0:0:0:
384,320,241002,1,8,0:0:0:0:
160,320,241077,1,0,0:0:0:0:
352,288,241152,1,8,0:0:0:0:
352,288,241227,1,8,0:0:0:0:
192,320,241302,1,0,0:0:0:0:
192,320,241377,1,0,0:0:0:0:
352,288,241452,1,8,0:0:0:0:
352,288,241527,1,8,0:0:0:0:
160,320,241602,1,0,0:0:0:0:
352,288,241677,1,8,0:0:0:0:
352,288,241752,1,8,0:0:0:0:
352,288,241827,1,8,0:0:0:0:
192,320,241902,1,0,0:0:0:0:
384,320,241977,1,8,0:0:0:0:
192,320,242052,1,0,0:0:0:0:
192,320,242127,1,0,0:0:0:0:
352,288,242202,1,8,0:0:0:0:
160,320,242277,1,0,0:0:0:0:
352,320,242352,1,8,0:0:0:0:
352,320,242652,1,8,0:0:0:0:
352,320,242752,1,8,0:0:0:0:
352,320,242852,1,8,0:0:0:0:
192,320,242952,1,0,0:0:0:0:
192,320,243052,1,0,0:0:0:0:
192,320,243152,1,0,0:0:0:0:
160,320,243252,1,0,0:0:0:0:
160,320,243327,1,0,0:0:0:0:
320,320,243402,1,8,0:0:0:0:
192,320,243477,1,0,0:0:0:0:
320,288,243552,1,8,0:0:0:0:
320,288,243627,1,8,0:0:0:0:
224,320,243702,1,0,0:0:0:0:
224,320,243777,1,0,0:0:0:0:
352,320,243852,1,8,0:0:0:0:
352,320,243927,1,8,0:0:0:0:
352,320,244002,1,8,0:0:0:0:
192,320,244077,1,0,0:0:0:0:
320,320,244152,1,8,0:0:0:0:
224,320,244227,1,0,0:0:0:0:
224,320,244302,1,0,0:0:0:0:
224,320,244377,1,0,0:0:0:0:
320,288,244452,1,8,0:0:0:0:
192,320,244752,1,0,0:0:0:0:
320,320,245052,1,8,0:0:0:0:
192,320,245202,1,0,0:0:0:0:
320,320,245352,1,8,0:0:0:0:
192,320,245502,1,0,0:0:0:0:
192,320,245652,1,0,0:0:0:0:
288,320,245802,1,8,0:0:0:0:
288,320,245952,1,8,0:0:0:0:
192,320,246102,1,0,0:0:0:0:
320,320,246252,1,8,0:0:0:0:
320,320,246552,1,8,0:0:0:0:
320,320,246702,1,8,0:0:0:0:
160,320,246852,1,0,0:0:0:0:
96,288,247002,1,0,0:0:0:0:
96,288,247077,1,0,0:0:0:0:
320,320,247152,1,8,0:0:0:0:
96,288,247302,1,0,0:0:0:0:
320,320,247452,1,8,0:0:0:0:
320,320,247552,1,8,0:0:0:0:
320,320,247652,1,8,0:0:0:0:
96,288,247752,1,0,0:0:0:0:
96,288,247852,1,0,0:0:0:0:
96,288,247952,1,0,0:0:0:0:
320,320,248052,1,8,0:0:0:0:
192,320,248127,1,0,0:0:0:0:
192,320,248202,1,0,0:0:0:0:
192,320,248277,1,0,0:0:0:0:
320,320,248352,1,8,0:0:0:0:
320,320,248427,1,8,0:0:0:0:
128,320,248502,1,0,0:0:0:0:
128,320,248577,1,0,0:0:0:0:
288,320,248652,1,8,0:0:0:0:
320,320,248727,1,8,0:0:0:0:
320,320,248802,1,8,0:0:0:0:
320,320,248877,1,8,0:0:0:0:
128,320,248952,1,0,0:0:0:0:
320,320,249027,1,8,0:0:0:0:
128,320,249102,1,0,0:0:0:0:
128,320,249177,1,0,0:0:0:0:
320,320,249252,1,8,0:0:0:0:
128,320,249327,1,0,0:0:0:0:
288,320,249402,1,8,0:0:0:0:
128,320,249552,1,0,0:0:0:0:
288,320,249702,1,8,0:0:0:0:
384,96,249852,1,12,0:0:0:0:
384,96,250152,1,12,0:0:0:0:
384,96,250452,1,12,0:0:0:0:
160,352,250752,1,0,0:0:0:0:
128,320,250902,1,0,0:0:0:0:
288,320,251052,1,8,0:0:0:0:
160,320,251202,1,0,0:0:0:0:
352,320,251502,1,8,0:0:0:0:
160,320,251802,1,0,0:0:0:0:
320,320,251952,1,8,0:0:0:0:
320,320,252102,1,8,0:0:0:0:
160,320,252402,1,0,0:0:0:0:
320,320,252552,1,8,0:0:0:0:
192,320,252702,1,0,0:0:0:0:
320,320,252852,1,8,0:0:0:0:
160,320,253002,1,0,0:0:0:0:
320,320,253152,1,8,0:0:0:0:
192,320,253302,1,0,0:0:0:0:
320,320,253452,1,8,0:0:0:0:
320,320,253752,1,8,0:0:0:0:
352,320,253902,1,8,0:0:0:0:
224,320,254202,1,0,0:0:0:0:
192,320,254352,1,0,0:0:0:0:
320,320,254502,1,8,0:0:0:0:
192,320,254652,1,0,0:0:0:0:
352,320,254802,1,8,0:0:0:0:
352,320,254877,1,8,0:0:0:0:
352,320,254952,1,8,0:0:0:0:
384,320,255102,1,8,0:0:0:0:
160,320,255402,1,0,0:0:0:0:
320,320,255552,1,8,0:0:0:0:
192,320,255702,1,0,0:0:0:0:
320,320,255852,1,8,0:0:0:0:
192,320,256002,1,0,0:0:0:0:
320,320,256077,1,8,0:0:0:0:
192,320,256152,1,0,0:0:0:0:
320,320,256302,1,8,0:0:0:0:
192,320,256452,1,0,0:0:0:0:
192,320,256602,1,0,0:0:0:0:
320,320,256752,1,8,0:0:0:0:
352,288,257052,1,8,0:0:0:0:
352,288,257202,1,8,0:0:0:0:
352,288,257352,1,8,0:0:0:0:
224,288,257502,1,0,0:0:0:0:
192,324,257652,1,0,0:0:0:0:
192,324,257802,1,0,0:0:0:0:
352,320,257952,1,8,0:0:0:0:
192,288,258102,1,0,0:0:0:0:
384,320,258252,1,8,0:0:0:0:
384,320,258327,1,8,0:0:0:0:
224,320,258402,1,0,0:0:0:0:
160,288,258477,1,0,0:0:0:0:
384,320,258552,1,8,0:0:0:0:
352,320,258627,1,8,0:0:0:0:
224,288,258702,1,0,0:0:0:0:
168,296,258777,1,0,0:0:0:0:
384,320,258852,1,8,0:0:0:0:
168,320,258927,1,0,0:0:0:0:
224,288,259002,1,0,0:0:0:0:
108,256,259077,1,0,0:0:0:0:
384,320,259152,1,8,0:0:0:0:
364,300,259227,1,8,0:0:0:0:
192,288,259302,1,0,0:0:0:0:
160,288,259452,1,0,0:0:0:0:
160,288,259527,1,0,0:0:0:0:
160,288,259602,1,0,0:0:0:0:
160,288,259677,1,0,0:0:0:0:
384,256,259752,1,8,0:0:0:0:
384,256,259827,1,8,0:0:0:0:
160,288,259902,1,0,0:0:0:0:
160,288,259977,1,0,0:0:0:0:
384,256,260052,1,8,0:0:0:0:
192,288,260127,1,0,0:0:0:0:
352,288,260202,1,8,0:0:0:0:
352,288,260277,1,8,0:0:0:0:
160,288,260352,1,0,0:0:0:0:
160,288,260427,1,0,0:0:0:0:
384,288,260502,1,8,0:0:0:0:
384,288,260577,1,8,0:0:0:0:
160,288,260652,1,0,0:0:0:0:
160,288,260727,1,0,0:0:0:0:
160,288,260802,1,0,0:0:0:0:
160,288,260877,1,0,0:0:0:0:
384,256,260952,1,8,0:0:0:0:
384,256,261027,1,8,0:0:0:0:
160,288,261102,1,0,0:0:0:0:
160,288,261177,1,0,0:0:0:0:
384,256,261252,1,8,0:0:0:0:
192,288,261327,1,0,0:0:0:0:
352,288,261402,1,8,0:0:0:0:
352,288,261477,1,8,0:0:0:0:
160,288,261552,1,0,0:0:0:0:
160,288,261627,1,0,0:0:0:0:
384,288,261702,1,8,0:0:0:0:
384,288,261777,1,8,0:0:0:0:
128,288,261852,1,0,0:0:0:0:
128,288,261927,1,0,0:0:0:0:
128,288,262002,1,0,0:0:0:0:
128,288,262077,1,0,0:0:0:0:
352,288,262152,1,8,0:0:0:0:
352,288,262227,1,8,0:0:0:0:
160,288,262302,1,0,0:0:0:0:
160,288,262377,1,0,0:0:0:0:
352,256,262452,1,8,0:0:0:0:
352,256,262527,1,8,0:0:0:0:
352,256,262602,1,8,0:0:0:0:
384,288,262677,1,8,0:0:0:0:
160,288,262752,1,0,0:0:0:0:
160,288,262827,1,0,0:0:0:0:
384,256,262902,1,8,0:0:0:0:
384,288,262977,1,8,0:0:0:0:
128,288,263052,1,0,0:0:0:0:
128,288,263127,1,0,0:0:0:0:
128,288,263202,1,0,0:0:0:0:
128,288,263277,1,0,0:0:0:0:
352,288,263352,1,8,0:0:0:0:
352,288,263427,1,8,0:0:0:0:
160,288,263502,1,0,0:0:0:0:
160,288,263577,1,0,0:0:0:0:
352,256,263652,1,8,0:0:0:0:
352,256,263727,1,8,0:0:0:0:
352,256,263802,1,8,0:0:0:0:
384,288,263877,1,8,0:0:0:0:
160,288,263952,1,0,0:0:0:0:
160,288,264027,1,0,0:0:0:0:
384,256,264102,1,8,0:0:0:0:
384,288,264177,1,8,0:0:0:0:
160,288,264252,1,0,0:0:0:0:
160,288,264327,1,0,0:0:0:0:
160,288,264402,1,0,0:0:0:0:
160,288,264477,1,0,0:0:0:0:
384,256,264552,1,8,0:0:0:0:
384,256,264627,1,8,0:0:0:0:
160,288,264702,1,0,0:0:0:0:
160,288,264777,1,0,0:0:0:0:
384,256,264852,1,8,0:0:0:0:
192,288,264927,1,0,0:0:0:0:
352,288,265002,1,8,0:0:0:0:
352,288,265077,1,8,0:0:0:0:
160,288,265152,1,0,0:0:0:0:
160,288,265227,1,0,0:0:0:0:
384,288,265302,1,8,0:0:0:0:
384,288,265377,1,8,0:0:0:0:
160,288,265452,1,0,0:0:0:0:
160,288,265527,1,0,0:0:0:0:
160,288,265602,1,0,0:0:0:0:
160,288,265677,1,0,0:0:0:0:
384,256,265752,1,8,0:0:0:0:
384,256,265827,1,8,0:0:0:0:
160,288,265902,1,0,0:0:0:0:
160,288,265977,1,0,0:0:0:0:
384,256,266052,1,8,0:0:0:0:
192,288,266127,1,0,0:0:0:0:
352,288,266202,1,8,0:0:0:0:
352,288,266277,1,8,0:0:0:0:
160,288,266352,1,0,0:0:0:0:
160,288,266427,1,0,0:0:0:0:
384,288,266502,1,8,0:0:0:0:
384,288,266577,1,8,0:0:0:0:
128,288,266652,1,0,0:0:0:0:
128,288,266727,1,0,0:0:0:0:
128,288,266802,1,0,0:0:0:0:
128,288,266877,1,0,0:0:0:0:
352,288,266952,1,8,0:0:0:0:
352,288,267027,1,8,0:0:0:0:
160,288,267102,1,0,0:0:0:0:
160,288,267177,1,0,0:0:0:0:
352,256,267252,1,8,0:0:0:0:
352,256,267327,1,8,0:0:0:0:
352,256,267402,1,8,0:0:0:0:
384,288,267477,1,8,0:0:0:0:
160,288,267552,1,0,0:0:0:0:
160,288,267627,1,0,0:0:0:0:
384,256,267702,1,8,0:0:0:0:
384,288,267777,1,8,0:0:0:0:
128,288,267852,1,0,0:0:0:0:
128,288,267927,1,0,0:0:0:0:
128,288,268002,1,0,0:0:0:0:
128,288,268077,1,0,0:0:0:0:
352,288,268152,1,8,0:0:0:0:
352,288,268227,1,8,0:0:0:0:
160,288,268302,1,0,0:0:0:0:
160,288,268377,1,0,0:0:0:0:
352,256,268452,1,8,0:0:0:0:
352,256,268527,1,8,0:0:0:0:
352,256,268602,1,8,0:0:0:0:
384,288,268677,1,8,0:0:0:0:
160,288,268752,1,0,0:0:0:0:
160,288,268827,1,0,0:0:0:0:
384,256,268902,1,8,0:0:0:0:
384,288,268977,1,8,0:0:0:0:
160,288,269052,1,0,0:0:0:0:
160,288,269127,1,0,0:0:0:0:
160,288,269202,1,0,0:0:0:0:
160,288,269277,1,0,0:0:0:0:
384,256,269352,1,8,0:0:0:0:
384,256,269427,1,8,0:0:0:0:
160,288,269502,1,0,0:0:0:0:
160,288,269577,1,0,0:0:0:0:
384,256,269652,1,8,0:0:0:0:
192,288,269727,1,0,0:0:0:0:
352,288,269802,1,8,0:0:0:0:
352,288,269877,1,8,0:0:0:0:
160,288,269952,1,0,0:0:0:0:
160,288,270027,1,0,0:0:0:0:
384,288,270102,1,8,0:0:0:0:
384,288,270177,1,8,0:0:0:0:
160,288,270252,1,0,0:0:0:0:
160,288,270327,1,0,0:0:0:0:
160,288,270402,1,0,0:0:0:0:
160,288,270477,1,0,0:0:0:0:
384,256,270552,1,8,0:0:0:0:
384,256,270627,1,8,0:0:0:0:
160,288,270702,1,0,0:0:0:0:
160,288,270777,1,0,0:0:0:0:
384,256,270852,1,8,0:0:0:0:
192,288,270927,1,0,0:0:0:0:
352,288,271002,1,8,0:0:0:0:
352,288,271077,1,8,0:0:0:0:
160,288,271152,1,0,0:0:0:0:
160,288,271227,1,0,0:0:0:0:
384,288,271302,1,8,0:0:0:0:
384,288,271377,1,8,0:0:0:0:
128,288,271452,1,0,0:0:0:0:
128,288,271527,1,0,0:0:0:0:
128,288,271602,1,0,0:0:0:0:
128,288,271677,1,0,0:0:0:0:
352,288,271752,1,8,0:0:0:0:
352,288,271827,1,8,0:0:0:0:
160,288,271902,1,0,0:0:0:0:
160,288,271977,1,0,0:0:0:0:
352,256,272052,1,8,0:0:0:0:
352,256,272127,1,8,0:0:0:0:
352,256,272202,1,8,0:0:0:0:
384,288,272277,1,8,0:0:0:0:
160,288,272352,1,0,0:0:0:0:
160,288,272427,1,0,0:0:0:0:
384,256,272502,1,8,0:0:0:0:
384,288,272577,1,8,0:0:0:0:
128,288,272652,1,0,0:0:0:0:
128,288,272727,1,0,0:0:0:0:
128,288,272802,1,0,0:0:0:0:
128,288,272877,1,0,0:0:0:0:
352,288,272952,1,8,0:0:0:0:
352,288,273027,1,8,0:0:0:0:
160,288,273102,1,0,0:0:0:0:
160,288,273177,1,0,0:0:0:0:
352,256,273252,1,8,0:0:0:0:
352,256,273327,1,8,0:0:0:0:
352,256,273402,1,8,0:0:0:0:
384,288,273477,1,8,0:0:0:0:
160,288,273552,1,0,0:0:0:0:
160,288,273627,1,0,0:0:0:0:
384,256,273702,1,8,0:0:0:0:
384,288,273777,1,8,0:0:0:0:
160,288,273852,1,0,0:0:0:0:
160,288,273927,1,0,0:0:0:0:
160,288,274002,1,0,0:0:0:0:
160,288,274077,1,0,0:0:0:0:
384,256,274152,1,8,0:0:0:0:
384,256,274227,1,8,0:0:0:0:
160,288,274302,1,0,0:0:0:0:
160,288,274377,1,0,0:0:0:0:
384,256,274452,1,8,0:0:0:0:
192,288,274527,1,0,0:0:0:0:
352,288,274602,1,8,0:0:0:0:
352,288,274677,1,8,0:0:0:0:
160,288,274752,1,0,0:0:0:0:
160,288,274827,1,0,0:0:0:0:
384,288,274902,1,8,0:0:0:0:
384,288,274977,1,8,0:0:0:0:
160,288,275052,1,0,0:0:0:0:
160,288,275127,1,0,0:0:0:0:
160,288,275202,1,0,0:0:0:0:
160,288,275277,1,0,0:0:0:0:
384,256,275352,1,8,0:0:0:0:
384,256,275427,1,8,0:0:0:0:
160,288,275502,1,0,0:0:0:0:
160,288,275577,1,0,0:0:0:0:
384,256,275652,1,8,0:0:0:0:
192,288,275727,1,0,0:0:0:0:
352,288,275802,1,8,0:0:0:0:
352,288,275877,1,8,0:0:0:0:
160,288,275952,1,0,0:0:0:0:
160,288,276027,1,0,0:0:0:0:
384,288,276102,1,8,0:0:0:0:
384,288,276177,1,8,0:0:0:0:
160,288,276252,1,0,0:0:0:0:
160,288,276327,1,0,0:0:0:0:
160,288,276402,1,0,0:0:0:0:
160,288,276477,1,0,0:0:0:0:
352,256,276552,1,8,0:0:0:0:
352,256,276627,1,8,0:0:0:0:
192,288,276702,1,0,0:0:0:0:
160,288,276777,1,0,0:0:0:0:
384,288,276852,1,8,0:0:0:0:
384,288,276927,1,8,0:0:0:0:
384,288,277002,1,8,0:0:0:0:
384,288,277077,1,8,0:0:0:0:
192,288,277152,1,0,0:0:0:0:
192,288,277227,1,0,0:0:0:0:
352,288,277302,1,8,0:0:0:0:
352,288,277377,1,8,0:0:0:0:
160,288,277452,1,0,0:0:0:0:
160,288,277527,1,0,0:0:0:0:
160,288,277602,1,0,0:0:0:0:
160,288,277677,1,0,0:0:0:0:
352,256,277752,1,8,0:0:0:0:
352,256,277827,1,8,0:0:0:0:
192,288,277902,1,0,0:0:0:0:
160,288,277977,1,0,0:0:0:0:
384,288,278052,1,8,0:0:0:0:
384,288,278127,1,8,0:0:0:0:
384,288,278202,1,8,0:0:0:0:
384,288,278277,1,8,0:0:0:0:
192,288,278352,1,0,0:0:0:0:
192,288,278427,1,0,0:0:0:0:
352,288,278502,1,8,0:0:0:0:
352,288,278577,1,8,0:0:0:0:
192,288,278652,1,0,0:0:0:0:
192,288,278727,1,0,0:0:0:0:
352,288,278802,1,8,0:0:0:0:
160,288,278877,1,0,0:0:0:0:
320,288,278952,1,8,0:0:0:0:
320,288,279027,1,8,0:0:0:0:
160,288,279102,1,0,0:0:0:0:
160,288,279177,1,0,0:0:0:0:
320,288,279252,1,8,0:0:0:0:
320,288,279327,1,8,0:0:0:0:
352,288,279402,1,8,0:0:0:0:
384,288,279477,1,8,0:0:0:0:
192,288,279552,1,0,0:0:0:0:
192,288,279627,1,0,0:0:0:0:
384,288,279702,1,8,0:0:0:0:
384,288,279777,1,8,0:0:0:0:
192,288,279852,1,0,0:0:0:0:
192,288,279927,1,0,0:0:0:0:
352,288,280002,1,8,0:0:0:0:
160,288,280077,1,0,0:0:0:0:
320,288,280152,1,8,0:0:0:0:
320,288,280227,1,8,0:0:0:0:
160,288,280302,1,0,0:0:0:0:
160,288,280377,1,0,0:0:0:0:
320,288,280452,1,8,0:0:0:0:
320,288,280527,1,8,0:0:0:0:
352,288,280602,1,8,0:0:0:0:
384,288,280677,1,8,0:0:0:0:
192,288,280752,1,0,0:0:0:0:
192,288,280827,1,0,0:0:0:0:
384,288,280902,1,8,0:0:0:0:
384,288,280977,1,8,0:0:0:0:
192,288,281052,1,0,0:0:0:0:
192,288,281127,1,0,0:0:0:0:
320,288,281202,1,8,0:0:0:0:
384,288,281277,1,8,0:0:0:0:
288,288,281352,1,8,0:0:0:0:
352,288,281427,1,8,0:0:0:0:
224,288,281502,1,0,0:0:0:0:
192,288,281577,1,0,0:0:0:0:
320,288,281652,1,8,0:0:0:0:
192,288,281727,1,0,0:0:0:0:
384,288,281802,1,8,0:0:0:0:
160,288,281877,1,0,0:0:0:0:
352,288,281952,1,8,0:0:0:0:
192,288,282027,1,0,0:0:0:0:
352,288,282102,1,8,0:0:0:0:
352,288,282177,1,8,0:0:0:0:
192,288,282252,1,0,0:0:0:0:
192,288,282327,1,0,0:0:0:0:
320,288,282402,1,8,0:0:0:0:
320,288,282477,1,8,0:0:0:0:
320,288,282552,1,8,0:0:0:0:
288,256,282627,1,8,0:0:0:0:
192,288,282702,1,0,0:0:0:0:
192,288,282777,1,0,0:0:0:0:
320,288,282852,1,8,0:0:0:0:
192,288,282927,1,0,0:0:0:0:
384,288,283002,1,8,0:0:0:0:
160,288,283077,1,0,0:0:0:0:
352,288,283152,1,8,0:0:0:0:
192,288,283227,1,0,0:0:0:0:
352,288,283302,1,8,0:0:0:0:
320,288,283377,1,8,0:0:0:0:
192,288,283452,1,0,0:0:0:0:
192,288,283527,1,0,0:0:0:0:
352,288,283602,1,8,0:0:0:0:
160,288,283677,1,0,0:0:0:0:
320,288,283752,1,8,0:0:0:0:
320,288,283827,1,8,0:0:0:0:
160,288,283902,1,0,0:0:0:0:
160,288,283977,1,0,0:0:0:0:
320,288,284052,1,8,0:0:0:0:
320,288,284127,1,8,0:0:0:0:
320,288,284202,1,8,0:0:0:0:
384,288,284277,1,8,0:0:0:0:
192,288,284352,1,0,0:0:0:0:
192,288,284427,1,0,0:0:0:0:
384,288,284502,1,8,0:0:0:0:
384,288,284577,1,8,0:0:0:0:
192,288,284652,1,0,0:0:0:0:
192,288,284727,1,0,0:0:0:0:
352,288,284802,1,8,0:0:0:0:
160,288,284877,1,0,0:0:0:0:
320,288,284952,1,8,0:0:0:0:
320,288,285027,1,8,0:0:0:0:
160,288,285102,1,0,0:0:0:0:
160,288,285177,1,0,0:0:0:0:
320,288,285252,1,8,0:0:0:0:
320,288,285327,1,8,0:0:0:0:
320,288,285402,1,8,0:0:0:0:
384,288,285477,1,8,0:0:0:0:
192,288,285552,1,0,0:0:0:0:
192,288,285627,1,0,0:0:0:0:
384,288,285702,1,8,0:0:0:0:
384,288,285777,1,8,0:0:0:0:
192,288,285852,1,0,0:0:0:0:
192,288,285927,1,0,0:0:0:0:
320,288,286002,1,8,0:0:0:0:
320,288,286077,1,8,0:0:0:0:
320,288,286152,1,8,0:0:0:0:
288,256,286227,1,8,0:0:0:0:
160,288,286302,1,0,0:0:0:0:
192,288,286377,1,0,0:0:0:0:
320,288,286452,1,8,0:0:0:0:
192,288,286527,1,0,0:0:0:0:
384,288,286602,1,8,0:0:0:0:
160,288,286677,1,0,0:0:0:0:
352,288,286752,1,8,0:0:0:0:
192,288,286827,1,0,0:0:0:0:
352,288,286902,1,8,0:0:0:0:
352,288,286977,1,8,0:0:0:0:
192,288,287052,1,0,0:0:0:0:
192,288,287127,1,0,0:0:0:0:
320,288,287202,1,8,0:0:0:0:
320,288,287277,1,8,0:0:0:0:
320,288,287352,1,8,0:0:0:0:
288,256,287427,1,8,0:0:0:0:
192,288,287502,1,0,0:0:0:0:
192,288,287577,1,0,0:0:0:0:
320,288,287652,1,8,0:0:0:0:
192,288,287727,1,0,0:0:0:0:
384,288,287802,1,8,0:0:0:0:
160,288,287877,1,0,0:0:0:0:
352,288,287952,1,8,0:0:0:0:
192,288,288027,1,0,0:0:0:0:
352,288,288102,1,8,0:0:0:0:
384,288,288177,1,8,0:0:0:0:
128,288,288252,1,0,0:0:0:0:
128,288,288327,1,0,0:0:0:0:
128,288,288402,1,0,0:0:0:0:
128,288,288477,1,0,0:0:0:0:
352,288,288552,1,8,0:0:0:0:
352,288,288627,1,8,0:0:0:0:
160,288,288702,1,0,0:0:0:0:
160,288,288777,1,0,0:0:0:0:
352,256,288852,1,8,0:0:0:0:
352,256,288927,1,8,0:0:0:0:
352,256,289002,1,8,0:0:0:0:
384,288,289077,1,8,0:0:0:0:
160,288,289152,1,0,0:0:0:0:
160,288,289227,1,0,0:0:0:0:
384,256,289302,1,8,0:0:0:0:
384,288,289377,1,8,0:0:0:0:
128,288,289452,1,0,0:0:0:0:
128,288,289527,1,0,0:0:0:0:
128,288,289602,1,0,0:0:0:0:
128,288,289677,1,0,0:0:0:0:
352,288,289752,1,8,0:0:0:0:
352,288,289827,1,8,0:0:0:0:
160,288,289902,1,0,0:0:0:0:
160,288,289977,1,0,0:0:0:0:
352,256,290052,1,8,0:0:0:0:
352,256,290127,1,8,0:0:0:0:
352,256,290202,1,8,0:0:0:0:
384,288,290277,1,8,0:0:0:0:
160,288,290352,1,0,0:0:0:0:
160,288,290427,1,0,0:0:0:0:
384,256,290502,1,8,0:0:0:0:
384,288,290577,1,8,0:0:0:0:
160,288,290652,1,0,0:0:0:0:
160,288,290727,1,0,0:0:0:0:
160,288,290802,1,0,0:0:0:0:
160,288,290877,1,0,0:0:0:0:
384,256,290952,1,8,0:0:0:0:
384,256,291027,1,8,0:0:0:0:
160,288,291102,1,0,0:0:0:0:
160,288,291177,1,0,0:0:0:0:
384,256,291252,1,8,0:0:0:0:
192,288,291327,1,0,0:0:0:0:
352,288,291402,1,8,0:0:0:0:
352,288,291477,1,8,0:0:0:0:
160,288,291552,1,0,0:0:0:0:
160,288,291627,1,0,0:0:0:0:
384,288,291702,1,8,0:0:0:0:
384,288,291777,1,8,0:0:0:0:
160,288,291852,1,0,0:0:0:0:
160,288,291927,1,0,0:0:0:0:
160,288,292002,1,0,0:0:0:0:
160,288,292077,1,0,0:0:0:0:
384,256,292152,1,8,0:0:0:0:
384,256,292227,1,8,0:0:0:0:
160,288,292302,1,0,0:0:0:0:
160,288,292377,1,0,0:0:0:0:
384,256,292452,1,8,0:0:0:0:
192,288,292527,1,0,0:0:0:0:
352,288,292602,1,8,0:0:0:0:
352,288,292677,1,8,0:0:0:0:
160,288,292752,1,0,0:0:0:0:
160,288,292827,1,0,0:0:0:0:
384,288,292902,1,8,0:0:0:0:
384,288,292977,1,8,0:0:0:0:
128,288,293052,1,0,0:0:0:0:
128,288,293127,1,0,0:0:0:0:
128,288,293202,1,0,0:0:0:0:
128,288,293277,1,0,0:0:0:0:
352,288,293352,1,8,0:0:0:0:
352,288,293427,1,8,0:0:0:0:
160,288,293502,1,0,0:0:0:0:
160,288,293577,1,0,0:0:0:0:
352,256,293652,1,8,0:0:0:0:
352,256,293727,1,8,0:0:0:0:
352,256,293802,1,8,0:0:0:0:
384,288,293877,1,8,0:0:0:0:
160,288,293952,1,0,0:0:0:0:
160,288,294027,1,0,0:0:0:0:
384,256,294102,1,8,0:0:0:0:
384,288,294177,1,8,0:0:0:0:
128,288,294252,1,0,0:0:0:0:
128,288,294327,1,0,0:0:0:0:
128,288,294402,1,0,0:0:0:0:
128,288,294477,1,0,0:0:0:0:
352,288,294552,1,8,0:0:0:0:
352,288,294627,1,8,0:0:0:0:
160,288,294702,1,0,0:0:0:0:
160,288,294777,1,0,0:0:0:0:
352,256,294852,1,8,0:0:0:0:
352,256,294927,1,8,0:0:0:0:
352,256,295002,1,8,0:0:0:0:
384,288,295077,1,8,0:0:0:0:
160,288,295152,1,0,0:0:0:0:
160,288,295227,1,0,0:0:0:0:
384,256,295302,1,8,0:0:0:0:
384,288,295377,1,8,0:0:0:0:
160,288,295452,1,0,0:0:0:0:
160,288,295527,1,0,0:0:0:0:
160,288,295602,1,0,0:0:0:0:
160,288,295677,1,0,0:0:0:0:
384,256,295752,1,8,0:0:0:0:
384,256,295827,1,8,0:0:0:0:
160,288,295902,1,0,0:0:0:0:
160,288,295977,1,0,0:0:0:0:
384,256,296052,1,8,0:0:0:0:
192,288,296127,1,0,0:0:0:0:
352,288,296202,1,8,0:0:0:0:
352,288,296277,1,8,0:0:0:0:
160,288,296352,1,0,0:0:0:0:
160,288,296427,1,0,0:0:0:0:
384,288,296502,1,8,0:0:0:0:
384,288,296577,1,8,0:0:0:0:
160,288,296652,1,0,0:0:0:0:
160,288,296727,1,0,0:0:0:0:
160,288,296802,1,0,0:0:0:0:
160,288,296877,1,0,0:0:0:0:
384,256,296952,1,8,0:0:0:0:
384,256,297027,1,8,0:0:0:0:
160,288,297102,1,0,0:0:0:0:
160,288,297177,1,0,0:0:0:0:
384,256,297252,1,8,0:0:0:0:
192,288,297327,1,0,0:0:0:0:
352,288,297402,1,8,0:0:0:0:
352,288,297477,1,8,0:0:0:0:
160,288,297552,1,0,0:0:0:0:
160,288,297627,1,0,0:0:0:0:
384,288,297702,1,8,0:0:0:0:
384,288,297777,1,8,0:0:0:0:
384,288,297852,1,8,0:0:0:0:
192,288,298002,1,0,0:0:0:0:
132,280,298077,1,0,0:0:0:0:
352,288,298152,1,8,0:0:0:0:
176,312,298227,1,0,0:0:0:0:
192,288,298302,1,0,0:0:0:0:
136,280,298377,1,0,0:0:0:0:
352,288,298452,1,8,0:0:0:0:
352,288,298527,1,8,0:0:0:0:
192,288,298602,1,0,0:0:0:0:
192,288,298677,1,0,0:0:0:0:
352,288,298752,1,8,0:0:0:0:
352,288,298827,1,8,0:0:0:0:
160,288,298902,1,0,0:0:0:0:
320,288,299052,1,8,0:0:0:0:
352,288,299202,1,8,0:0:0:0:
352,288,299502,1,8,0:0:0:0:
352,288,299652,1,8,0:0:0:0:
352,288,299727,1,8,0:0:0:0:
160,288,299802,1,0,0:0:0:0:
160,288,299877,1,0,0:0:0:0:
320,288,299952,1,8,0:0:0:0:
352,288,300252,1,8,0:0:0:0:
160,288,300402,1,0,0:0:0:0:
352,288,300477,1,8,0:0:0:0:
352,288,300552,1,8,0:0:0:0:
160,288,300627,1,0,0:0:0:0:
160,288,300702,1,0,0:0:0:0:
160,288,300852,1,0,0:0:0:0:
160,288,301002,1,0,0:0:0:0:
160,288,301077,1,0,0:0:0:0:
320,256,301152,1,8,0:0:0:0:
160,288,301227,1,0,0:0:0:0:
160,288,301302,1,0,0:0:0:0:
384,256,301452,1,8,0:0:0:0:
384,256,301489,1,8,0:0:0:0:
320,288,301602,1,8,0:0:0:0:
320,288,301639,1,8,0:0:0:0:
160,288,301752,1,0,0:0:0:0:
384,256,302052,1,8,0:0:0:0:
384,256,302089,1,8,0:0:0:0:
352,256,302202,1,8,0:0:0:0:
352,256,302239,1,8,0:0:0:0:
160,288,302352,1,0,0:0:0:0:
384,256,302652,1,8,0:0:0:0:
160,288,302802,1,0,0:0:0:0:
160,288,302877,1,0,0:0:0:0:
320,256,302952,1,8,0:0:0:0:
192,288,303027,1,0,0:0:0:0:
352,256,303102,1,8,0:0:0:0:
352,256,303177,1,8,0:0:0:0:
352,256,303252,1,8,0:0:0:0:
192,288,303327,1,0,0:0:0:0:
352,288,303402,1,8,0:0:0:0:
352,256,303477,1,8,0:0:0:0:
192,288,303552,1,0,0:0:0:0:
192,288,303627,1,0,0:0:0:0:
352,288,303702,1,8,0:0:0:0:
160,320,303852,1,0,0:0:0:0:
160,288,304002,1,0,0:0:0:0:
288,288,304077,1,8,0:0:0:0:
288,288,304152,1,8,0:0:0:0:
160,288,304227,1,0,0:0:0:0:
352,256,304302,1,8,0:0:0:0:
352,256,304377,1,8,0:0:0:0:
192,288,304452,1,0,0:0:0:0:
320,288,304527,1,8,0:0:0:0:
160,288,304602,1,0,0:0:0:0:
160,288,304677,1,0,0:0:0:0:
320,288,304752,1,8,0:0:0:0:
288,288,304902,1,8,0:0:0:0:
128,288,305052,1,0,0:0:0:0:
128,288,305127,1,0,0:0:0:0:
128,288,305202,1,0,0:0:0:0:
128,288,305277,1,0,0:0:0:0:
320,288,305352,1,8,0:0:0:0:
160,288,305502,1,0,0:0:0:0:
320,288,305577,1,8,0:0:0:0:
160,288,305652,1,0,0:0:0:0:
160,288,305727,1,0,0:0:0:0:
320,288,305802,1,8,0:0:0:0:
160,288,305877,1,0,0:0:0:0:
320,288,305952,1,8,0:0:0:0:
320,288,306027,1,8,0:0:0:0:
160,288,306102,1,0,0:0:0:0:
160,288,306177,1,0,0:0:0:0:
352,288,306252,1,8,0:0:0:0:
352,288,306327,1,8,0:0:0:0:
352,288,306402,1,8,0:0:0:0:
352,288,306477,1,8,0:0:0:0:
160,288,306552,1,0,0:0:0:0:
160,288,306627,1,0,0:0:0:0:
320,288,306702,1,8,0:0:0:0:
320,288,306777,1,8,0:0:0:0:
320,288,306852,1,8,0:0:0:0:
320,288,306927,1,8,0:0:0:0:
320,288,307002,1,8,0:0:0:0:
320,288,307077,1,8,0:0:0:0:
160,288,307152,1,0,0:0:0:0:
160,288,307227,1,0,0:0:0:0:
384,288,307302,1,8,0:0:0:0:
384,320,307452,1,8,0:0:0:0:
384,320,307527,1,8,0:0:0:0:
384,320,307602,1,8,0:0:0:0:
344,312,307677,1,8,0:0:0:0:
160,288,307752,1,0,0:0:0:0:
320,288,307827,1,8,0:0:0:0:
320,288,307902,1,8,0:0:0:0:
364,300,307977,1,8,0:0:0:0:
128,288,308052,1,0,0:0:0:0:
128,288,308127,1,0,0:0:0:0:
128,288,308202,1,0,0:0:0:0:
136,288,308277,1,0,0:0:0:0:
320,320,308352,1,8,0:0:0:0:
320,320,308427,1,8,0:0:0:0:
160,288,308502,1,0,0:0:0:0:
116,288,308577,1,0,0:0:0:0:
352,320,308652,1,8,0:0:0:0:
160,320,308802,1,0,0:0:0:0:
148,288,308877,1,0,0:0:0:0:
360,312,308952,1,8,0:0:0:0:
360,312,309102,1,8,0:0:0:0:
360,312,309177,1,8,0:0:0:0:
200,304,309252,1,0,0:0:0:0:
192,304,309402,1,0,0:0:0:0:
192,304,309477,1,0,0:0:0:0:
384,304,309552,1,8,0:0:0:0:
352,288,309852,1,8,0:0:0:0:
352,288,309927,1,8,0:0:0:0:
192,288,310002,1,0,0:0:0:0:
192,288,310077,1,0,0:0:0:0:
352,288,310152,1,8,0:0:0:0:
192,288,310227,1,0,0:0:0:0:
320,288,310302,1,8,0:0:0:0:
320,288,310377,1,8,0:0:0:0:
192,288,310452,1,0,0:0:0:0:
320,288,310527,1,8,0:0:0:0:
320,288,310602,1,8,0:0:0:0:
224,288,310677,1,0,0:0:0:0:
224,288,310752,1,0,0:0:0:0:
256,192,311052,12,0,312102,0:0:0:0:
128,288,312252,5,0,0:0:0:0:
128,288,312352,1,0,0:0:0:0:
128,288,312452,1,0,0:0:0:0:
384,288,312552,1,8,0:0:0:0:
160,320,312652,1,0,0:0:0:0:
160,320,312752,1,0,0:0:0:0:
352,288,312852,1,8,0:0:0:0:
352,288,312952,1,8,0:0:0:0:
128,288,313152,1,0,0:0:0:0:
160,320,313227,1,0,0:0:0:0:
352,320,313302,1,8,0:0:0:0:
352,288,313377,1,8,0:0:0:0:
192,320,313452,1,0,0:0:0:0:
192,288,313527,1,0,0:0:0:0:
192,320,313602,1,0,0:0:0:0:
192,288,313677,1,0,0:0:0:0:
320,320,313752,1,8,0:0:0:0:
160,288,313827,1,0,0:0:0:0:
320,288,313902,1,8,0:0:0:0:
320,288,313977,1,8,0:0:0:0:
224,320,314052,1,0,0:0:0:0:
192,320,314127,1,0,0:0:0:0:
192,288,314202,1,0,0:0:0:0:
192,320,314277,1,0,0:0:0:0:
320,288,314352,1,8,0:0:0:0:
352,320,314652,1,8,0:0:0:0:
320,288,314727,1,8,0:0:0:0:
192,288,314802,1,0,0:0:0:0:
352,320,314877,1,8,0:0:0:0:
160,288,314952,1,0,0:0:0:0:
160,288,315027,1,0,0:0:0:0:
352,320,315102,1,8,0:0:0:0:
192,320,315177,1,0,0:0:0:0:
352,288,315252,1,8,0:0:0:0:
352,288,315327,1,8,0:0:0:0:
192,288,315402,1,0,0:0:0:0:
192,288,315477,1,0,0:0:0:0:
192,288,315552,1,0,0:0:0:0:
0,120,315852,2,0,L|504:100,1,498.75
352,288,317052,1,8,0:0:0:0:
352,288,317127,1,8,0:0:0:0:
160,288,317202,1,0,0:0:0:0:
160,288,317277,1,0,0:0:0:0:
320,288,317352,1,8,0:0:0:0:
320,288,317427,1,8,0:0:0:0:
128,288,317502,1,0,0:0:0:0:
352,288,317577,1,8,0:0:0:0:
160,288,317652,1,0,0:0:0:0:
160,288,317727,1,0,0:0:0:0:
352,288,317802,1,8,0:0:0:0:
352,320,317877,1,8,0:0:0:0:
352,320,317952,1,8,0:0:0:0:
352,288,318252,1,8,0:0:0:0:
352,288,318327,1,8,0:0:0:0:
192,288,318402,1,0,0:0:0:0:
160,288,318477,1,0,0:0:0:0:
352,288,318552,1,8,0:0:0:0:
192,288,318627,1,0,0:0:0:0:
192,288,318702,1,0,0:0:0:0:
192,288,318777,1,0,0:0:0:0:
352,288,318852,1,8,0:0:0:0:
352,288,318927,1,8,0:0:0:0:
192,288,319002,1,0,0:0:0:0:
320,288,319077,1,8,0:0:0:0:
352,288,319152,1,8,0:0:0:0:
192,288,319452,1,0,0:0:0:0:
192,288,319527,1,0,0:0:0:0:
320,288,319602,1,8,0:0:0:0:
352,288,319677,1,8,0:0:0:0:
160,288,319752,1,0,0:0:0:0:
192,288,319827,1,0,0:0:0:0:
352,288,319902,1,8,0:0:0:0:
320,256,319977,1,8,0:0:0:0:
348,292,320052,1,8,0:0:0:0:
192,288,320127,1,0,0:0:0:0:
320,288,320202,1,8,0:0:0:0:
160,296,320277,1,0,0:0:0:0:
320,288,320352,1,8,0:0:0:0:
320,288,320427,1,8,0:0:0:0:
160,288,320502,1,0,0:0:0:0:
144,288,320577,1,0,0:0:0:0:
192,288,320652,1,0,0:0:0:0:
192,288,320727,1,0,0:0:0:0:
352,288,320802,1,8,0:0:0:0:
192,288,320877,1,0,0:0:0:0:
320,288,320952,1,8,0:0:0:0:
320,288,321027,1,8,0:0:0:0:
320,288,321102,1,8,0:0:0:0:
192,320,321252,1,0,0:0:0:0:
192,320,321327,1,0,0:0:0:0:
320,320,321402,1,8,0:0:0:0:
192,320,321477,1,0,0:0:0:0:
320,288,321552,1,8,0:0:0:0:
320,288,321627,1,8,0:0:0:0:
320,288,321702,1,8,0:0:0:0:
192,320,321852,1,0,0:0:0:0:
288,288,321927,1,8,0:0:0:0:
288,288,322002,1,8,0:0:0:0:
160,288,322152,1,0,0:0:0:0:
320,320,322302,1,8,0:0:0:0:
320,320,322377,1,8,0:0:0:0:
320,320,322452,1,8,0:0:0:0:
192,288,322602,1,0,0:0:0:0:
320,288,322752,1,8,0:0:0:0:
192,320,322902,1,0,0:0:0:0:
160,288,323052,1,0,0:0:0:0:
352,288,323127,1,8,0:0:0:0:
192,288,323202,1,0,0:0:0:0:
352,288,323352,1,8,0:0:0:0:
320,288,323502,1,8,0:0:0:0:
320,288,323577,1,8,0:0:0:0:
320,288,323652,1,8,0:0:0:0:
192,288,323802,1,0,0:0:0:0:
320,288,323952,1,8,0:0:0:0:
192,288,324102,1,0,0:0:0:0:
192,288,324252,1,0,0:0:0:0:
192,288,324327,1,0,0:0:0:0:
192,288,324402,1,0,0:0:0:0:
384,320,324552,1,8,0:0:0:0:
352,288,324702,1,8,0:0:0:0:
352,288,324777,1,8,0:0:0:0:
352,288,324852,1,8,0:0:0:0:
192,288,325002,1,0,0:0:0:0:
352,288,325152,1,8,0:0:0:0:
224,288,325227,1,0,0:0:0:0:
352,288,325302,1,8,0:0:0:0:
224,288,325452,1,0,0:0:0:0:
224,288,325602,1,0,0:0:0:0:
352,288,325677,1,8,0:0:0:0:
320,288,325752,1,8,0:0:0:0:
192,288,325902,1,0,0:0:0:0:
192,288,326052,1,0,0:0:0:0:
320,288,326127,1,8,0:0:0:0:
192,288,326202,1,0,0:0:0:0:
192,288,326277,1,0,0:0:0:0:
320,288,326352,1,8,0:0:0:0:
352,288,326427,1,8,0:0:0:0:
224,288,326502,1,0,0:0:0:0:
224,288,326577,1,0,0:0:0:0:
320,288,326652,1,8,0:0:0:0:
320,288,326802,1,8,0:0:0:0:
224,288,326952,1,0,0:0:0:0:
320,288,327102,1,8,0:0:0:0:
352,288,327177,1,8,0:0:0:0:
320,288,327252,1,8,0:0:0:0:
192,288,327402,1,0,0:0:0:0:
320,288,327552,1,8,0:0:0:0:
320,288,327627,1,8,0:0:0:0:
160,288,327702,1,0,0:0:0:0:
352,288,327852,1,8,0:0:0:0:
192,288,328002,1,0,0:0:0:0:
160,256,328152,1,0,0:0:0:0:
288,288,328227,1,8,0:0:0:0:
192,288,328302,1,0,0:0:0:0:
352,256,328452,1,8,0:0:0:0:
160,288,328602,1,0,0:0:0:0:
224,288,328752,1,0,0:0:0:0:
224,288,328827,1,0,0:0:0:0:
320,288,328902,1,8,0:0:0:0:
352,288,329052,1,8,0:0:0:0:
352,288,329127,1,8,0:0:0:0:
192,288,329202,1,0,0:0:0:0:
192,288,329277,1,0,0:0:0:0:
192,288,329352,1,0,0:0:0:0:
192,288,329427,1,0,0:0:0:0:
352,288,329502,1,8,0:0:0:0:
352,288,329577,1,8,0:0:0:0:
192,288,329652,1,0,0:0:0:0:
192,288,329727,1,0,0:0:0:0:
192,288,329802,1,0,0:0:0:0:
192,288,329877,1,0,0:0:0:0:
352,288,329952,1,8,0:0:0:0:
352,288,330027,1,8,0:0:0:0:
192,288,330102,1,0,0:0:0:0:
192,288,330177,1,0,0:0:0:0:
192,288,330252,1,0,0:0:0:0:
192,288,330327,1,0,0:0:0:0:
352,288,330402,1,8,0:0:0:0:
352,288,330477,1,8,0:0:0:0:
192,288,330552,1,0,0:0:0:0:
192,288,330627,1,0,0:0:0:0:
192,288,330702,1,0,0:0:0:0:
192,288,330777,1,0,0:0:0:0:
352,288,330852,1,8,0:0:0:0:
352,288,330927,1,8,0:0:0:0:
352,288,331002,1,8,0:0:0:0:
224,288,331077,1,0,0:0:0:0:
352,288,331152,1,8,0:0:0:0:
352,288,331227,1,8,0:0:0:0:
224,288,331302,1,0,0:0:0:0:
352,288,331452,1,8,0:0:0:0:
224,288,331527,1,0,0:0:0:0:
224,288,331602,1,0,0:0:0:0:
224,288,331677,1,0,0:0:0:0:
384,288,331752,1,8,0:0:0:0:
384,288,331827,1,8,0:0:0:0:
224,288,331902,1,0,0:0:0:0:
224,288,331977,1,0,0:0:0:0:
384,288,332052,1,8,0:0:0:0:
192,288,332127,1,0,0:0:0:0:
352,288,332202,1,8,0:0:0:0:
352,288,332277,1,8,0:0:0:0:
352,288,332352,1,8,0:0:0:0:
224,288,332427,1,0,0:0:0:0:
224,288,332502,1,0,0:0:0:0:
384,288,332652,1,8,0:0:0:0:
192,288,332727,1,0,0:0:0:0:
192,288,332802,1,0,0:0:0:0:
384,288,332877,1,8,0:0:0:0:
384,288,332952,1,8,0:0:0:0:
224,288,333027,1,0,0:0:0:0:
224,288,333102,1,0,0:0:0:0:
192,320,333252,1,0,0:0:0:0:
192,320,333327,1,0,0:0:0:0:
192,320,333402,1,0,0:0:0:0:
352,288,333477,1,8,0:0:0:0:
352,288,333552,1,8,0:0:0:0:
224,288,333627,1,0,0:0:0:0:
384,288,333702,1,8,0:0:0:0:
384,288,333852,1,8,0:0:0:0:
224,288,333952,1,0,0:0:0:0:
192,288,334052,1,0,0:0:0:0:
352,256,334152,1,8,0:0:0:0:
160,288,334252,1,0,0:0:0:0:
192,288,334352,1,0,0:0:0:0:
352,288,334452,1,8,0:0:0:0:
160,288,334527,1,0,0:0:0:0:
160,288,334602,1,0,0:0:0:0:
192,320,334677,1,0,0:0:0:0:
384,288,334752,1,8,0:0:0:0:
384,288,334827,1,8,0:0:0:0:
192,288,334902,1,0,0:0:0:0:
192,288,334977,1,0,0:0:0:0:
416,288,335052,1,8,0:0:0:0:
224,256,335127,1,0,0:0:0:0:
384,288,335202,1,8,0:0:0:0:
384,288,335277,1,8,0:0:0:0:
384,288,335352,1,8,0:0:0:0:
224,288,335427,1,0,0:0:0:0:
224,288,335502,1,0,0:0:0:0:
192,288,335577,1,0,0:0:0:0:
352,288,335652,1,8,0:0:0:0:
192,288,335727,1,0,0:0:0:0:
352,288,335802,1,8,0:0:0:0:
224,256,335877,1,0,0:0:0:0:
384,256,335952,1,8,0:0:0:0:
384,256,336027,1,8,0:0:0:0:
352,288,336102,1,8,0:0:0:0:
224,256,336177,1,0,0:0:0:0:
352,288,336252,1,8,0:0:0:0:
192,288,336327,1,0,0:0:0:0:
192,288,336402,1,0,0:0:0:0:
224,288,336477,1,0,0:0:0:0:
352,288,336552,1,8,0:0:0:0:
224,288,336627,1,0,0:0:0:0:
384,288,336702,1,8,0:0:0:0:
192,288,336777,1,8,0:0:0:0:
192,288,336852,1,0,0:0:0:0:
192,288,336927,1,0,0:0:0:0:
352,288,337002,1,8,0:0:0:0:
192,256,337077,1,0,0:0:0:0:
352,288,337152,1,8,0:0:0:0:
192,256,337227,1,0,0:0:0:0:
192,256,337302,1,0,0:0:0:0:
192,256,337377,1,0,0:0:0:0:
384,256,337452,1,8,0:0:0:0:
384,256,337527,1,8,0:0:0:0:
192,256,337602,1,0,0:0:0:0:
192,256,337677,1,0,0:0:0:0:
352,256,337752,1,8,0:0:0:0:
352,256,337827,1,8,0:0:0:0:
352,256,337902,1,8,0:0:0:0:
352,256,337977,1,8,0:0:0:0:
224,288,338052,1,0,0:0:0:0:
224,288,338127,1,0,0:0:0:0:
384,256,338202,1,8,0:0:0:0:
196,292,338277,1,0,0:0:0:0:
384,256,338352,1,8,0:0:0:0:
384,256,338427,1,8,0:0:0:0:
192,256,338502,1,0,0:0:0:0:
192,256,338577,1,0,0:0:0:0:
384,256,338652,1,8,0:0:0:0:
160,256,338727,1,0,0:0:0:0:
160,256,338802,1,0,0:0:0:0:
172,296,338877,1,0,0:0:0:0:
352,256,338952,1,8,0:0:0:0:
192,256,339027,1,0,0:0:0:0:
352,256,339102,1,8,0:0:0:0:
224,256,339177,1,0,0:0:0:0:
160,288,339252,1,0,0:0:0:0:
192,288,339327,1,0,0:0:0:0:
352,256,339402,1,8,0:0:0:0:
192,256,339477,1,0,0:0:0:0:
352,256,339552,1,8,0:0:0:0:
352,256,339627,1,8,0:0:0:0:
192,288,339702,1,0,0:0:0:0:
192,288,339777,1,0,0:0:0:0:
384,256,339852,1,8,0:0:0:0:
384,256,339927,1,8,0:0:0:0:
160,256,340002,1,0,0:0:0:0:
160,256,340077,1,0,0:0:0:0:
384,256,340152,1,8,0:0:0:0:
192,288,340227,1,8,0:0:0:0:
352,288,340302,1,8,0:0:0:0:
352,256,340377,1,8,0:0:0:0:
192,256,340452,1,0,0:0:0:0:
192,256,340527,1,0,0:0:0:0:
352,256,340602,1,8,0:0:0:0:
224,288,340677,1,0,0:0:0:0:
320,288,340752,1,8,0:0:0:0:
320,288,340827,1,8,0:0:0:0:
224,288,340902,1,0,0:0:0:0:
128,256,340977,1,0,0:0:0:0:
352,288,341052,1,8,0:0:0:0:
192,288,341127,1,0,0:0:0:0:
160,288,341202,1,0,0:0:0:0:
160,288,341277,1,0,0:0:0:0:
320,288,341352,1,8,0:0:0:0:
320,288,341427,1,8,0:0:0:0:
320,288,341502,1,8,0:0:0:0:
320,288,341577,1,8,0:0:0:0:
192,288,341652,1,0,0:0:0:0:
192,288,341727,1,0,0:0:0:0:
320,288,341802,1,8,0:0:0:0:
320,288,341877,1,8,0:0:0:0:
320,288,341952,1,8,0:0:0:0:
320,288,342027,1,8,0:0:0:0:
160,288,342102,1,0,0:0:0:0:
160,288,342177,1,0,0:0:0:0:
352,288,342252,1,8,0:0:0:0:
192,288,342327,1,0,0:0:0:0:
384,288,342402,1,8,0:0:0:0:
384,288,342477,1,8,0:0:0:0:
192,288,342552,1,0,0:0:0:0:
192,288,342627,1,0,0:0:0:0:
320,288,342702,1,8,0:0:0:0:
160,288,342777,1,0,0:0:0:0:
352,288,342852,1,8,0:0:0:0:
352,288,342927,1,8,0:0:0:0:
352,288,343002,1,8,0:0:0:0:
192,288,343077,1,0,0:0:0:0:
352,288,343152,1,8,0:0:0:0:
352,288,343227,1,8,0:0:0:0:
192,288,343302,1,0,0:0:0:0:
192,288,343377,1,0,0:0:0:0:
352,288,343452,1,8,0:0:0:0:
192,320,343527,1,0,0:0:0:0:
192,288,343602,1,0,0:0:0:0:
128,288,343677,1,0,0:0:0:0:
352,288,343752,1,8,0:0:0:0:
352,288,343827,1,8,0:0:0:0:
192,288,343902,1,0,0:0:0:0:
352,256,343977,1,8,0:0:0:0:
352,256,344052,1,8,0:0:0:0:
352,288,344127,1,8,0:0:0:0:
192,288,344202,1,0,0:0:0:0:
320,288,344277,1,8,0:0:0:0:
320,288,344352,1,8,0:0:0:0:
320,288,344427,1,8,0:0:0:0:
192,288,344502,1,0,0:0:0:0:
160,320,344577,1,0,0:0:0:0:
352,288,344652,1,8,0:0:0:0:
352,288,344727,1,8,0:0:0:0:
192,288,344802,1,0,0:0:0:0:
128,288,344877,1,0,0:0:0:0:
352,288,344952,1,8,0:0:0:0:
192,288,345027,1,0,0:0:0:0:
192,288,345102,1,0,0:0:0:0:
128,288,345177,1,0,0:0:0:0:
352,288,345252,1,8,0:0:0:0:
352,288,345327,1,8,0:0:0:0:
128,288,345402,1,0,0:0:0:0:
128,288,345477,1,0,0:0:0:0:
352,288,345552,1,8,0:0:0:0:
352,288,345627,1,8,0:0:0:0:
352,288,345702,1,8,0:0:0:0:
352,288,345777,1,8,0:0:0:0:
160,288,345852,1,0,0:0:0:0:
192,288,345927,1,0,0:0:0:0:
352,288,346002,1,8,0:0:0:0:
352,288,346077,1,8,0:0:0:0:
192,288,346152,1,0,0:0:0:0:
160,288,346227,1,0,0:0:0:0:
352,288,346302,1,8,0:0:0:0:
160,288,346377,1,0,0:0:0:0:
352,288,346452,1,8,0:0:0:0:
352,288,346527,1,8,0:0:0:0:
160,288,346602,1,0,0:0:0:0:
288,288,346677,1,8,0:0:0:0:
128,288,346752,1,0,0:0:0:0:
192,288,346827,1,0,0:0:0:0:
320,288,346902,1,8,0:0:0:0:
192,288,346977,1,0,0:0:0:0:
288,288,347052,1,8,0:0:0:0:
184,296,347127,1,0,0:0:0:0:
184,296,347202,1,0,0:0:0:0:
184,296,347277,1,0,0:0:0:0:
320,288,347352,1,8,0:0:0:0:
144,352,347427,1,0,0:0:0:0:
144,340,347502,1,0,0:0:0:0:
144,340,347577,1,0,0:0:0:0:
128,96,347652,2,0,L|348:96,1,218.75
128,288,348252,1,0,0:0:0:0:
128,288,348327,1,0,0:0:0:0:
320,288,348402,1,8,0:0:0:0:
320,288,348477,1,8,0:0:0:0:
320,288,348552,1,8,0:0:0:0:
192,288,348627,1,0,0:0:0:0:
192,288,348702,1,0,0:0:0:0:
160,288,348777,1,0,0:0:0:0:
352,320,348852,1,8,0:0:0:0:
192,288,348927,1,0,0:0:0:0:
384,320,349002,1,8,0:0:0:0:
384,320,349077,1,8,0:0:0:0:
128,288,349152,1,0,0:0:0:0:
352,288,349227,1,8,0:0:0:0:
352,288,349302,1,8,0:0:0:0:
160,288,349377,1,0,0:0:0:0:
288,288,349452,1,8,0:0:0:0:
160,288,349527,1,0,0:0:0:0:
160,288,349602,1,0,0:0:0:0:
352,288,349677,1,8,0:0:0:0:
160,288,349752,1,0,0:0:0:0:
160,288,349827,1,0,0:0:0:0:
352,288,349902,1,8,0:0:0:0:
352,288,349977,1,8,0:0:0:0:
320,288,350052,1,8,0:0:0:0:
192,288,350127,1,0,0:0:0:0:
192,288,350202,1,0,0:0:0:0:
192,288,350277,1,0,0:0:0:0:
320,288,350352,1,8,0:0:0:0:
320,288,350427,1,8,0:0:0:0:
352,288,350502,1,8,0:0:0:0:
352,288,350577,1,8,0:0:0:0:
192,288,350652,1,0,0:0:0:0:
160,288,350802,1,0,0:0:0:0:
160,288,350877,1,0,0:0:0:0:
352,288,350952,1,8,0:0:0:0:
192,288,351027,1,0,0:0:0:0:
320,288,351102,1,8,0:0:0:0:
320,288,351177,1,8,0:0:0:0:
320,288,351252,1,8,0:0:0:0:
224,320,351327,1,0,0:0:0:0:
320,320,351402,1,8,0:0:0:0:
320,320,351477,1,8,0:0:0:0:
224,320,351552,1,0,0:0:0:0:
320,288,351702,1,8,0:0:0:0:
192,320,351852,1,0,0:0:0:0:
320,288,351927,1,8,0:0:0:0:
320,288,352002,1,8,0:0:0:0:
192,320,352077,1,0,0:0:0:0:
192,320,352152,1,8,0:0:0:0:
192,320,352227,1,0,0:0:0:0:
288,320,352302,1,8,0:0:0:0:
320,320,352377,1,8,0:0:0:0:
320,320,352452,1,8,0:0:0:0:
160,320,352527,1,0,0:0:0:0:
320,288,352602,1,8,0:0:0:0:
320,288,352677,1,8,0:0:0:0:
192,320,352752,1,0,0:0:0:0:
320,288,352902,1,8,0:0:0:0:
160,320,353052,1,0,0:0:0:0:
192,320,353127,1,0,0:0:0:0:
288,320,353202,1,8,0:0:0:0:
192,320,353277,1,0,0:0:0:0:
288,320,353352,1,8,0:0:0:0:
288,320,353427,1,8,0:0:0:0:
192,320,353502,1,0,0:0:0:0:
160,320,353577,1,0,0:0:0:0:
320,320,353652,1,8,0:0:0:0:
192,288,353727,1,0,0:0:0:0:
320,320,353802,1,8,0:0:0:0:
160,320,353877,1,0,0:0:0:0:
288,320,353952,1,8,0:0:0:0:
288,320,354027,1,8,0:0:0:0:
192,320,354102,1,0,0:0:0:0:
160,320,354177,1,0,0:0:0:0:
352,320,354252,1,8,0:0:0:0:
192,320,354327,1,0,0:0:0:0:
320,320,354402,1,8,0:0:0:0:
320,320,354477,1,8,0:0:0:0:
160,320,354552,1,0,0:0:0:0:
320,320,354627,1,8,0:0:0:0:
192,320,354702,1,0,0:0:0:0:
192,320,354777,1,0,0:0:0:0:
176,100,354852,2,0,L|400:104,1,218.75
352,320,355452,1,8,0:0:0:0:
352,320,355527,1,8,0:0:0:0:
192,320,355602,1,0,0:0:0:0:
192,320,355677,1,0,0:0:0:0:
352,320,355752,1,8,0:0:0:0:
352,320,355827,1,8,0:0:0:0:
192,320,355902,1,0,0:0:0:0:
192,320,355977,1,0,0:0:0:0:
384,320,356052,1,8,0:0:0:0:
384,320,356127,1,8,0:0:0:0:
384,320,356202,1,8,0:0:0:0:
384,320,356277,1,8,0:0:0:0:
128,320,356352,1,0,0:0:0:0:
160,320,356427,1,0,0:0:0:0:
352,320,356502,1,8,0:0:0:0:
352,320,356577,1,8,0:0:0:0:
160,320,356652,1,0,0:0:0:0:
160,320,356727,1,0,0:0:0:0:
384,320,356802,1,8,0:0:0:0:
384,320,356877,1,8,0:0:0:0:
128,320,356952,1,0,0:0:0:0:
128,320,357027,1,0,0:0:0:0:
384,320,357102,1,8,0:0:0:0:
384,320,357177,1,8,0:0:0:0:
384,320,357252,1,8,0:0:0:0:
384,320,357327,1,8,0:0:0:0:
384,320,357402,1,8,0:0:0:0:
352,320,357477,1,8,0:0:0:0:
160,320,357552,1,0,0:0:0:0:
352,320,357702,1,8,0:0:0:0:
384,320,357852,1,8,0:0:0:0:
384,320,357927,1,8,0:0:0:0:
160,320,358002,1,0,0:0:0:0:
128,320,358077,1,0,0:0:0:0:
384,320,358152,1,8,0:0:0:0:
384,320,358227,1,8,0:0:0:0:
384,320,358302,1,8,0:0:0:0:
160,320,358377,1,0,0:0:0:0:
384,320,358452,1,8,0:0:0:0:
128,320,358527,1,0,0:0:0:0:
128,320,358602,1,0,0:0:0:0:
384,320,358677,1,8,0:0:0:0:
192,320,358752,1,0,0:0:0:0:
160,320,358827,1,0,0:0:0:0:
352,320,358902,1,8,0:0:0:0:
352,320,358977,1,8,0:0:0:0:
384,320,359052,1,8,0:0:0:0:
144,336,359127,1,0,0:0:0:0:
144,336,359202,1,0,0:0:0:0:
144,336,359277,1,0,0:0:0:0:
352,320,359352,1,8,0:0:0:0:
360,324,359427,1,8,0:0:0:0:
180,328,359502,1,0,0:0:0:0:
168,328,359577,1,0,0:0:0:0:
128,96,359652,2,0,L|352:112,1,218.75
160,320,360252,1,0,0:0:0:0:
160,320,360352,1,0,0:0:0:0:
352,320,360452,1,8,0:0:0:0:
160,320,360552,1,0,0:0:0:0:
320,320,360652,1,8,0:0:0:0:
320,320,360752,1,8,0:0:0:0:
320,320,360852,1,8,0:0:0:0:
160,320,360927,1,0,0:0:0:0:
160,320,361002,1,0,0:0:0:0:
128,320,361077,1,0,0:0:0:0:
320,320,361152,1,8,0:0:0:0:
160,320,361227,1,0,0:0:0:0:
352,320,361302,1,8,0:0:0:0:
320,320,361377,1,8,0:0:0:0:
160,320,361452,1,0,0:0:0:0:
160,320,361527,1,0,0:0:0:0:
320,320,361602,1,8,0:0:0:0:
320,320,361677,1,8,0:0:0:0:
192,320,361752,1,0,0:0:0:0:
160,320,361827,1,0,0:0:0:0:
288,320,361902,1,8,0:0:0:0:
160,320,361977,1,0,0:0:0:0:
320,320,362052,1,8,0:0:0:0:
320,320,362127,1,8,0:0:0:0:
320,320,362202,1,8,0:0:0:0:
192,320,362277,1,0,0:0:0:0:
192,320,362352,1,0,0:0:0:0:
320,288,362502,1,8,0:0:0:0:
320,320,362652,1,8,0:0:0:0:
320,320,362689,1,8,0:0:0:0:
320,320,362802,1,8,0:0:0:0:
320,320,362839,1,8,0:0:0:0:
320,320,362952,1,8,0:0:0:0:
320,320,362989,1,8,0:0:0:0:
160,320,363102,1,0,0:0:0:0:
160,320,363139,1,0,0:0:0:0:
320,320,363252,1,8,0:0:0:0:
320,320,363289,1,8,0:0:0:0:
320,320,363402,1,8,0:0:0:0:
320,320,363439,1,8,0:0:0:0:
320,320,363552,1,8,0:0:0:0:
320,320,363589,1,8,0:0:0:0:
160,320,363702,1,0,0:0:0:0:
160,320,363739,1,0,0:0:0:0:
160,320,363852,1,0,0:0:0:0:
160,320,363889,1,0,0:0:0:0:
320,320,364002,1,8,0:0:0:0:
320,320,364039,1,8,0:0:0:0:
320,320,364152,1,8,0:0:0:0:
320,320,364189,1,8,0:0:0:0:
160,320,364302,1,0,0:0:0:0:
160,320,364339,1,0,0:0:0:0:
320,320,364452,1,8,0:0:0:0:
320,320,364489,1,8,0:0:0:0:
160,320,364602,1,0,0:0:0:0:
160,320,364639,1,0,0:0:0:0:
320,320,364752,1,8,0:0:0:0:
320,320,364789,1,8,0:0:0:0:
160,320,365052,1,0,0:0:0:0:
160,320,365127,1,0,0:0:0:0:
160,320,365202,1,0,0:0:0:0:
320,288,365277,1,8,0:0:0:0:
320,288,365352,1,8,0:0:0:0:
320,320,365427,1,8,0:0:0:0:
160,320,365502,1,0,0:0:0:0:
320,320,365577,1,8,0:0:0:0:
320,320,365652,1,8,0:0:0:0:
320,320,365727,1,8,0:0:0:0:
192,320,365802,1,0,0:0:0:0:
320,288,365877,1,8,0:0:0:0:
192,320,365952,1,0,0:0:0:0:
192,320,366027,1,0,0:0:0:0:
320,288,366102,1,8,0:0:0:0:
320,288,366177,1,8,0:0:0:0:
160,320,366252,1,0,0:0:0:0:
160,320,366327,1,0,0:0:0:0:
160,320,366402,1,0,0:0:0:0:
320,288,366477,1,8,0:0:0:0:
320,288,366552,1,8,0:0:0:0:
320,320,366627,1,8,0:0:0:0:
160,320,366702,1,0,0:0:0:0:
320,320,366777,1,8,0:0:0:0:
320,320,366852,1,8,0:0:0:0:
192,320,366927,1,0,0:0:0:0:
320,288,367002,1,8,0:0:0:0:
320,320,367077,1,8,0:0:0:0:
160,320,367152,1,0,0:0:0:0:
192,320,367227,1,0,0:0:0:0:
320,288,367302,1,8,0:0:0:0:
192,320,367377,1,0,0:0:0:0:
320,320,367452,1,8,0:0:0:0:
320,320,367527,1,8,0:0:0:0:
288,320,367602,1,8,0:0:0:0:
192,320,367677,1,0,0:0:0:0:
320,320,367752,1,8,0:0:0:0:
320,320,367827,1,8,0:0:0:0:
192,320,367902,1,0,0:0:0:0:
192,320,367977,1,0,0:0:0:0:
352,288,368052,1,8,0:0:0:0:
192,320,368127,1,0,0:0:0:0:
320,320,368202,1,8,0:0:0:0:
192,320,368277,1,0,0:0:0:0:
320,320,368352,1,8,0:0:0:0:
352,288,368427,1,8,0:0:0:0:
192,320,368502,1,0,0:0:0:0:
320,320,368577,1,8,0:0:0:0:
192,320,368652,1,0,0:0:0:0:
192,320,368727,1,0,0:0:0:0:
352,288,368802,1,8,0:0:0:0:
352,288,368877,1,8,0:0:0:0:
352,288,368952,1,8,0:0:0:0:
192,320,369027,1,0,0:0:0:0:
320,320,369102,1,8,0:0:0:0:
352,288,369177,1,8,0:0:0:0:
192,320,369252,1,0,0:0:0:0:
192,320,369327,1,0,0:0:0:0:
192,320,369402,1,0,0:0:0:0:
160,320,369477,1,0,0:0:0:0:
320,320,369552,1,8,0:0:0:0:
192,320,369627,1,0,0:0:0:0:
160,320,369702,1,0,0:0:0:0:
160,320,369777,1,0,0:0:0:0:
320,288,369852,1,8,0:0:0:0:
384,288,377052,5,8,0:0:0:0:
160,288,377127,1,0,0:0:0:0:
160,288,377202,1,0,0:0:0:0:
160,288,377277,1,0,0:0:0:0:
160,288,377352,1,0,0:0:0:0:
160,288,377427,1,0,0:0:0:0:
416,320,377502,1,8,0:0:0:0:
192,288,377577,1,0,0:0:0:0:
192,288,377652,1,0,0:0:0:0:
192,288,377727,1,0,0:0:0:0:
192,288,377802,1,0,0:0:0:0:
192,288,377877,1,0,0:0:0:0:
384,288,377952,1,8,0:0:0:0:
224,288,378027,1,0,0:0:0:0:
224,288,378102,1,0,0:0:0:0:
224,288,378177,1,0,0:0:0:0:
416,288,378252,1,8,0:0:0:0:
416,288,378327,1,8,0:0:0:0:
416,288,378402,1,8,0:0:0:0:
416,288,378477,1,8,0:0:0:0:
224,288,378552,1,0,0:0:0:0:
224,288,378627,1,0,0:0:0:0:
416,288,378702,1,8,0:0:0:0:
416,288,378777,1,8,0:0:0:0:
416,288,378852,1,8,0:0:0:0:
416,288,378927,1,8,0:0:0:0:
192,288,379002,1,0,0:0:0:0:
192,288,379077,1,0,0:0:0:0:
416,288,379152,1,8,0:0:0:0:
416,288,379227,1,8,0:0:0:0:
256,288,379302,1,0,0:0:0:0:
256,288,379377,1,0,0:0:0:0:
352,288,379452,1,8,0:0:0:0:
224,288,379527,1,0,0:0:0:0:
224,288,379602,1,0,0:0:0:0:
224,288,379677,1,0,0:0:0:0:
352,288,379752,1,8,0:0:0:0:
224,288,379827,1,0,0:0:0:0:
224,288,379902,1,0,0:0:0:0:
224,288,379977,1,0,0:0:0:0:
352,288,380052,1,8,0:0:0:0:
192,288,380127,1,0,0:0:0:0:
192,288,380202,1,0,0:0:0:0:
192,288,380277,1,0,0:0:0:0:
352,288,380352,1,8,0:0:0:0:
224,288,380427,1,0,0:0:0:0:
224,288,380502,1,0,0:0:0:0:
224,288,380577,1,0,0:0:0:0:
384,288,380652,1,8,0:0:0:0:
192,288,380727,1,0,0:0:0:0:
384,288,380802,1,8,0:0:0:0:
384,288,380877,1,8,0:0:0:0:
192,288,380952,1,0,0:0:0:0:
160,256,381027,1,0,0:0:0:0:
384,288,381102,1,8,0:0:0:0:
160,256,381177,1,0,0:0:0:0:
384,288,381252,1,8,0:0:0:0:
384,288,381327,1,8,0:0:0:0:
160,288,381402,1,0,0:0:0:0:
160,288,381477,1,0,0:0:0:0:
384,288,381552,1,8,0:0:0:0:
384,320,381627,1,8,0:0:0:0:
224,288,381702,1,0,0:0:0:0:
224,288,381777,1,0,0:0:0:0:
352,320,381852,1,8,0:0:0:0:
352,320,381927,1,8,0:0:0:0:
352,320,382002,1,8,0:0:0:0:
224,288,382077,1,0,0:0:0:0:
352,288,382152,1,8,0:0:0:0:
352,288,382227,1,8,0:0:0:0:
352,288,382302,1,8,0:0:0:0:
224,288,382377,1,0,0:0:0:0:
320,288,382452,1,8,0:0:0:0:
320,288,382527,1,8,0:0:0:0:
320,288,382602,1,8,0:0:0:0:
192,288,382677,1,0,0:0:0:0:
352,320,382752,1,8,0:0:0:0:
352,288,382827,1,8,0:0:0:0:
384,288,382902,1,8,0:0:0:0:
192,288,382977,1,0,0:0:0:0:
352,320,383052,1,8,0:0:0:0:
192,288,383127,1,0,0:0:0:0:
352,320,383202,1,8,0:0:0:0:
320,288,383277,1,8,0:0:0:0:
192,288,383352,1,0,0:0:0:0:
192,288,383427,1,0,0:0:0:0:
320,288,383502,1,8,0:0:0:0:
192,288,383577,1,0,0:0:0:0:
384,288,383652,1,8,0:0:0:0:
384,288,383727,1,8,0:0:0:0:
192,288,383802,1,0,0:0:0:0:
192,288,383877,1,0,0:0:0:0:
320,288,383952,1,8,0:0:0:0:
320,288,384027,1,8,0:0:0:0:
192,288,384102,1,0,0:0:0:0:
192,288,384177,1,0,0:0:0:0:
288,288,384252,1,8,0:0:0:0:
192,288,384327,1,0,0:0:0:0:
192,288,384402,1,0,0:0:0:0:
192,288,384477,1,0,0:0:0:0:
336,312,384552,1,8,0:0:0:0:
224,320,384627,1,0,0:0:0:0:
352,288,384702,1,8,0:0:0:0:
224,320,384777,1,0,0:0:0:0:
192,320,384852,1,0,0:0:0:0:
192,320,384927,1,0,0:0:0:0:
192,320,385002,1,0,0:0:0:0:
192,320,385077,1,0,0:0:0:0:
320,320,385152,1,8,0:0:0:0:
192,320,385227,1,0,0:0:0:0:
192,320,385302,1,0,0:0:0:0:
192,320,385377,1,0,0:0:0:0:
320,288,385452,1,8,0:0:0:0:
192,320,385527,1,0,0:0:0:0:
192,320,385602,1,0,0:0:0:0:
192,320,385677,1,0,0:0:0:0:
348,324,385752,1,8,0:0:0:0:
160,288,385827,1,0,0:0:0:0:
352,320,385902,1,8,0:0:0:0:
224,288,385977,1,0,0:0:0:0:
192,320,386052,1,0,0:0:0:0:
192,288,386127,1,0,0:0:0:0:
192,288,386202,1,0,0:0:0:0:
192,288,386277,1,0,0:0:0:0:
320,320,386352,1,8,0:0:0:0:
224,320,386427,1,0,0:0:0:0:
224,320,386502,1,0,0:0:0:0:
224,320,386577,1,0,0:0:0:0:
352,320,386652,1,8,0:0:0:0:
320,288,386727,1,8,0:0:0:0:
320,288,386802,1,8,0:0:0:0:
320,288,386877,1,8,0:0:0:0:
224,288,386952,1,0,0:0:0:0:
224,288,387027,1,0,0:0:0:0:
320,288,387102,1,8,0:0:0:0:
320,288,387177,1,8,0:0:0:0:
320,288,387252,1,8,0:0:0:0:
320,288,387327,1,8,0:0:0:0:
192,288,387402,1,0,0:0:0:0:
192,288,387477,1,0,0:0:0:0:
320,288,387552,1,8,0:0:0:0:
320,288,387627,1,8,0:0:0:0:
224,320,387702,1,0,0:0:0:0:
224,320,387777,1,0,0:0:0:0:
288,288,387852,1,8,0:0:0:0:
288,288,387927,1,8,0:0:0:0:
288,288,388002,1,8,0:0:0:0:
288,288,388077,1,8,0:0:0:0:
224,288,388152,1,0,0:0:0:0:
192,320,388227,1,0,0:0:0:0:
352,288,388302,1,8,0:0:0:0:
352,288,388377,1,8,0:0:0:0:
192,320,388452,1,0,0:0:0:0:
192,320,388527,1,0,0:0:0:0:
192,288,388602,1,0,0:0:0:0:
192,288,388677,1,0,0:0:0:0:
352,288,388752,1,8,0:0:0:0:
352,288,388827,1,8,0:0:0:0:
192,288,388902,1,0,0:0:0:0:
160,96,389052,1,4,0:0:0:0:
320,288,389202,1,8,0:0:0:0:
128,320,389352,1,0,0:0:0:0:
128,320,389427,1,0,0:0:0:0:
352,288,389502,1,8,0:0:0:0:
352,288,389577,1,8,0:0:0:0:
128,320,389652,1,0,0:0:0:0:
352,288,389802,1,8,0:0:0:0:
128,320,389952,1,0,0:0:0:0:
128,320,390027,1,0,0:0:0:0:
352,320,390102,1,8,0:0:0:0:
352,320,390177,1,8,0:0:0:0:
128,320,390252,1,0,0:0:0:0:
320,320,390402,1,8,0:0:0:0:
128,320,390552,1,0,0:0:0:0:
128,320,390627,1,0,0:0:0:0:
384,320,390702,1,8,0:0:0:0:
384,320,390777,1,8,0:0:0:0:
160,352,390852,1,0,0:0:0:0:
160,352,390927,1,0,0:0:0:0:
320,320,391002,1,8,0:0:0:0:
320,320,391077,1,8,0:0:0:0:
96,320,391152,1,0,0:0:0:0:
352,320,391302,1,8,0:0:0:0:
128,352,391452,1,0,0:0:0:0:
352,320,391602,1,8,0:0:0:0:
352,320,391677,1,8,0:0:0:0:
128,320,391752,1,0,0:0:0:0:
128,320,391827,1,0,0:0:0:0:
320,320,391902,1,8,0:0:0:0:
160,320,392052,1,0,0:0:0:0:
352,320,392202,1,8,0:0:0:0:
352,320,392277,1,8,0:0:0:0:
160,320,392352,1,0,0:0:0:0:
160,320,392427,1,0,0:0:0:0:
320,320,392502,1,8,0:0:0:0:
160,320,392652,1,0,0:0:0:0:
352,320,392802,1,8,0:0:0:0:
352,320,392877,1,8,0:0:0:0:
192,320,392952,1,0,0:0:0:0:
192,320,393027,1,0,0:0:0:0:
352,320,393102,1,8,0:0:0:0:
352,320,393177,1,8,0:0:0:0:
160,320,393252,1,0,0:0:0:0:
160,320,393327,1,0,0:0:0:0:
352,320,393402,1,8,0:0:0:0:
352,320,393477,1,8,0:0:0:0:
192,320,393552,1,0,0:0:0:0:
352,320,393702,1,8,0:0:0:0:
192,320,393852,1,0,0:0:0:0:
192,320,393927,1,0,0:0:0:0:
320,320,394002,1,8,0:0:0:0:
160,320,394077,1,0,0:0:0:0:
320,320,394152,1,8,0:0:0:0:
320,320,394227,1,8,0:0:0:0:
160,320,394302,1,0,0:0:0:0:
160,320,394377,1,0,0:0:0:0:
320,320,394452,1,8,0:0:0:0:
320,320,394527,1,8,0:0:0:0:
320,320,394602,1,8,0:0:0:0:
160,320,394677,1,0,0:0:0:0:
160,320,394752,1,0,0:0:0:0:
160,320,394827,1,0,0:0:0:0:
320,320,394902,1,8,0:0:0:0:
160,352,395052,1,0,0:0:0:0:
160,320,395127,1,0,0:0:0:0:
320,320,395202,1,8,0:0:0:0:
320,320,395277,1,8,0:0:0:0:
320,320,395352,1,8,0:0:0:0:
160,320,395427,1,0,0:0:0:0:
160,320,395502,1,0,0:0:0:0:
192,320,395577,1,0,0:0:0:0:
288,320,395652,1,8,0:0:0:0:
160,320,395727,1,0,0:0:0:0:
320,320,395802,1,8,0:0:0:0:
320,320,395877,1,8,0:0:0:0:
160,320,395952,1,0,0:0:0:0:
160,320,396027,1,0,0:0:0:0:
320,320,396102,1,8,0:0:0:0:
160,352,396252,1,0,0:0:0:0:
320,320,396402,1,8,0:0:0:0:
320,320,396477,1,8,0:0:0:0:
128,320,396552,1,0,0:0:0:0:
160,352,396627,1,0,0:0:0:0:
320,320,396702,1,8,0:0:0:0:
184,344,396777,1,0,0:0:0:0:
312,324,396852,1,8,0:0:0:0:
320,320,396927,1,8,0:0:0:0:
160,352,397002,1,0,0:0:0:0:
320,320,397077,1,8,0:0:0:0:
148,348,397152,1,0,0:0:0:0:
128,320,397227,1,0,0:0:0:0:
320,320,397302,1,8,0:0:0:0:
160,352,397452,1,0,0:0:0:0:
320,320,397602,1,8,0:0:0:0:
192,320,397677,1,0,0:0:0:0:
192,352,397752,1,0,0:0:0:0:
192,352,397827,1,0,0:0:0:0:
320,320,397902,1,8,0:0:0:0:
192,320,397977,1,0,0:0:0:0:
320,320,398052,1,8,0:0:0:0:
320,320,398127,1,8,0:0:0:0:
192,352,398202,1,0,0:0:0:0:
192,320,398277,1,0,0:0:0:0:
320,320,398352,1,8,0:0:0:0:
320,320,398427,1,8,0:0:0:0:
320,320,398502,1,8,0:0:0:0:
128,96,398652,1,4,0:0:0:0:
384,128,399852,5,12,0:0:0:0:
128,96,401052,6,4,L|568:332,1,498.75
384,96,402252,1,12,0:0:0:0:
384,96,402477,1,12,0:0:0:0:
160,128,402702,1,4,0:0:0:0:
384,96,402927,1,12,0:0:0:0:
