osu file format v12

[General]
AudioFilename: Fury of the storm210.mp3
AudioLeadIn: 1511
PreviewTime: 103344
Countdown: 0
SampleSet: Normal
StackLeniency: 0.7
Mode: 0
LetterboxInBreaks: 1
WidescreenStoryboard: 1

[Editor]
Bookmarks: 2358,11721,35091,53873,73374,111516,148180,185963,204530,232846,261640,282748,300971,339529,343721,381829,401041,-683
DistanceSpacing: 0.8
BeatDivisor: 4
GridSize: 8

[Metadata]
Title:Fury Of The Storm
TitleUnicode:Fury Of The Storm
Artist:DragonForce
ArtistUnicode:DragonForce
Creator:T o u c h e
Version:Legend 210BPM
Source:
Tags:It's made to Lesjuh's mapping style
BeatmapID:339143
BeatmapSetID:135070

[Difficulty]
HPDrainRate:3
CircleSize:5
OverallDifficulty:8
ApproachRate:8
SliderMultiplier:1.6
SliderTickRate:2

[Events]
//Background and Video events
0,0,"bg.jpg",0,0
//Break Periods
2,58685,66878
2,192471,200592
2,352400,358307
//Storyboard Layer 0 (Background)
//Storyboard Layer 1 (Fail)
//Storyboard Layer 2 (Pass)
//Storyboard Layer 3 (Foreground)
//Storyboard Sound Samples
//Background Colour Transformations
3,100,0,0,0

[TimingPoints]
200,285.714285714286,4,1,0,75,1,0

[Colours]
Combo1 : 0,128,255
Combo2 : 0,255,255
Combo3 : 0,0,255

[HitObjects]
136,80,200,1,0,0:0:0:0:
304,120,485,1,0,0:0:0:0:
304,120,628,1,0,0:0:0:0:
344,184,771,1,0,0:0:0:0:
232,136,914,1,0,0:0:0:0:
336,56,1057,1,0,0:0:0:0:
424,192,1342,5,0,0:0:0:0:
288,288,1628,1,0,0:0:0:0:
288,288,1771,1,0,0:0:0:0:
216,288,1914,1,0,0:0:0:0:
328,224,2057,1,0,0:0:0:0:
328,352,2200,1,0,0:0:0:0:
120,256,2485,5,0,0:0:0:0:
160,104,2771,1,0,0:0:0:0:
160,104,2914,1,0,0:0:0:0:
224,64,3057,1,0,0:0:0:0:
160,176,3200,1,0,0:0:0:0:
96,64,3342,1,0,0:0:0:0:
24,104,3485,1,0,0:0:0:0:
16,184,3628,5,10,0:0:0:0:
40,216,3700,1,0,0:0:0:0:
72,240,3771,1,0,0:0:0:0:
112,248,3842,1,0,0:0:0:0:
152,240,3914,1,8,0:0:0:0:
184,216,3985,1,0,0:0:0:0:
208,184,4057,1,0,0:0:0:0:
224,152,4128,1,0,0:0:0:0:
224,112,4200,6,0,B|200:80,3,40,2|0|2|0,0:0|0:0|0:0|0:0,0:0:0:0:
200,48,4485,2,0,B|240:24,3,40,2|0|2|0,0:0|0:0|0:0|0:0,0:0:0:0:
264,24,4771,5,2,0:0:0:0:
384,96,5057,1,0,0:0:0:0:
440,160,5200,1,0,0:0:0:0:
392,232,5342,1,0,0:0:0:0:
312,208,5485,1,0,0:0:0:0:
312,128,5628,1,0,0:0:0:0:
192,88,5914,5,0,0:0:0:0:
128,192,6200,1,0,0:0:0:0:
72,248,6342,1,0,0:0:0:0:
112,320,6485,1,0,0:0:0:0:
192,304,6628,1,0,0:0:0:0:
200,224,6771,1,0,0:0:0:0:
224,136,7057,6,2,B|280:112|336:136,1,80
360,48,7342,2,10,B|384:96|360:160,1,80
448,184,7628,2,2,B|400:208|344:184,1,80
312,272,7914,2,10,B|288:216|312:160,1,80
352,56,8200,5,2,0:0:0:0:
128,184,8485,1,2,0:0:0:0:
448,336,8771,1,2,0:0:0:0:
368,320,8914,1,0,0:0:0:0:
368,320,8985,1,0,0:0:0:0:
368,320,9057,1,8,0:0:0:0:
256,304,9342,5,10,0:0:0:0:
216,320,9414,1,0,0:0:0:0:
176,320,9485,1,0,0:0:0:0:
136,304,9557,1,0,0:0:0:0:
112,272,9628,1,8,0:0:0:0:
104,232,9700,1,0,0:0:0:0:
112,192,9771,1,0,0:0:0:0:
136,160,9842,1,0,0:0:0:0:
168,136,9914,6,0,B|160:96,3,40
168,64,10200,2,0,B|208:48,3,40
240,48,10485,5,10,0:0:0:0:
280,56,10557,1,0,0:0:0:0:
312,88,10628,1,0,0:0:0:0:
312,128,10700,1,0,0:0:0:0:
288,160,10771,1,8,0:0:0:0:
256,184,10842,1,0,0:0:0:0:
232,216,10914,1,0,0:0:0:0:
232,256,10985,1,0,0:0:0:0:
256,288,11057,6,0,B|296:312,3,40
320,312,11342,2,0,B|352:288,3,40
376,264,11628,5,10,0:0:0:0:
392,224,11700,1,0,0:0:0:0:
368,192,11771,1,0,0:0:0:0:
336,168,11842,1,0,0:0:0:0:
304,144,11914,1,8,0:0:0:0:
280,112,11985,1,0,0:0:0:0:
272,72,12057,1,0,0:0:0:0:
296,40,12128,1,0,0:0:0:0:
328,24,12200,6,0,B|368:32,3,40
400,32,12485,2,0,B|440:16,3,40
472,24,12771,5,10,0:0:0:0:
496,56,12842,1,0,0:0:0:0:
504,96,12914,1,0,0:0:0:0:
480,128,12985,1,0,0:0:0:0:
448,144,13057,1,8,0:0:0:0:
408,144,13128,1,0,0:0:0:0:
368,160,13200,1,0,0:0:0:0:
344,192,13271,1,0,0:0:0:0:
336,232,13342,5,10,0:0:0:0:
312,264,13414,1,0,0:0:0:0:
272,280,13485,1,0,0:0:0:0:
232,272,13557,1,0,0:0:0:0:
200,240,13628,1,10,0:0:0:0:
48,160,13914,5,10,0:0:0:0:
56,120,13985,1,0,0:0:0:0:
80,88,14057,1,0,0:0:0:0:
112,72,14128,1,0,0:0:0:0:
152,72,14200,1,8,0:0:0:0:
184,96,14271,1,0,0:0:0:0:
224,104,14342,1,0,0:0:0:0:
264,88,14414,1,0,0:0:0:0:
296,72,14485,6,2,B|248:0,1,80
400,48,14771,2,8,B|456:120,1,80
464,208,15057,5,10,0:0:0:0:
448,248,15128,1,0,0:0:0:0:
408,264,15200,1,0,0:0:0:0:
368,256,15271,1,0,0:0:0:0:
336,240,15342,1,8,0:0:0:0:
296,232,15414,1,0,0:0:0:0:
256,240,15485,1,0,0:0:0:0:
224,264,15557,1,0,0:0:0:0:
208,296,15628,6,2,B|264:368,1,80
120,312,15914,2,8,B|64:240,1,80
64,160,16200,5,10,0:0:0:0:
80,120,16271,1,0,0:0:0:0:
112,88,16342,1,0,0:0:0:0:
152,72,16414,1,0,0:0:0:0:
192,88,16485,1,8,0:0:0:0:
224,120,16557,1,0,0:0:0:0:
240,160,16628,1,0,0:0:0:0:
256,192,16700,1,0,0:0:0:0:
272,224,16771,5,10,0:0:0:0:
288,264,16842,1,0,0:0:0:0:
320,296,16914,1,0,0:0:0:0:
360,312,16985,1,0,0:0:0:0:
400,296,17057,1,8,0:0:0:0:
432,264,17128,1,0,0:0:0:0:
448,224,17200,1,0,0:0:0:0:
456,192,17271,1,0,0:0:0:0:
456,152,17342,5,10,0:0:0:0:
352,32,17628,1,2,0:0:0:0:
80,136,17914,1,2,0:0:0:0:
456,336,18200,1,2,0:0:0:0:
288,328,18485,5,10,0:0:0:0:
248,344,18557,1,0,0:0:0:0:
208,352,18628,1,0,0:0:0:0:
168,344,18700,1,0,0:0:0:0:
128,320,18771,1,8,0:0:0:0:
96,288,18842,1,0,0:0:0:0:
80,248,18914,1,0,0:0:0:0:
80,208,18985,1,0,0:0:0:0:
96,176,19057,6,0,B|128:152,3,40
152,128,19342,2,0,B|128:80,3,40
120,56,19628,5,10,0:0:0:0:
136,24,19700,1,0,0:0:0:0:
176,8,19771,1,0,0:0:0:0:
216,8,19842,1,0,0:0:0:0:
248,32,19914,1,8,0:0:0:0:
264,72,19985,1,0,0:0:0:0:
256,112,20057,1,0,0:0:0:0:
264,152,20128,1,0,0:0:0:0:
288,184,20200,6,0,B|336:192,3,40
360,208,20485,2,0,B|368:256,3,40
376,280,20771,5,10,0:0:0:0:
360,320,20842,1,0,0:0:0:0:
328,344,20914,1,0,0:0:0:0:
288,352,20985,1,0,0:0:0:0:
248,352,21057,1,8,0:0:0:0:
208,336,21128,1,0,0:0:0:0:
176,304,21200,1,0,0:0:0:0:
176,264,21271,1,0,0:0:0:0:
168,232,21342,6,0,B|120:200,3,40
128,176,21628,2,0,B|152:144,3,40
144,80,21914,6,2,B|192:56,3,40
208,0,22200,2,2,B|256:32,3,40
312,0,22485,6,2,B|312:48,3,40
384,72,22771,2,2,B|336:112,3,40
296,168,23057,5,10,0:0:0:0:
288,208,23128,1,0,0:0:0:0:
304,248,23200,1,0,0:0:0:0:
336,272,23271,1,0,0:0:0:0:
376,280,23342,1,8,0:0:0:0:
416,264,23414,1,0,0:0:0:0:
440,232,23485,1,0,0:0:0:0:
448,192,23557,1,0,0:0:0:0:
440,152,23628,6,0,B|408:128,3,40
392,96,23914,2,0,B|392:48,3,40
368,24,24200,5,10,0:0:0:0:
328,8,24271,1,0,0:0:0:0:
288,8,24342,1,0,0:0:0:0:
248,24,24414,1,0,0:0:0:0:
224,56,24485,1,8,0:0:0:0:
208,96,24557,1,0,0:0:0:0:
184,128,24628,1,0,0:0:0:0:
152,152,24700,1,0,0:0:0:0:
112,160,24771,5,10,0:0:0:0:
72,152,24842,1,0,0:0:0:0:
32,160,24914,1,0,0:0:0:0:
8,192,24985,1,0,0:0:0:0:
8,232,25057,2,0,B|24:272,3,40,0|0|0|0,0:0|0:0|0:0|0:0,0:0:0:0:
40,296,25342,5,10,0:0:0:0:
64,328,25414,1,0,0:0:0:0:
96,352,25485,1,0,0:0:0:0:
136,360,25557,1,0,0:0:0:0:
176,344,25628,1,8,0:0:0:0:
200,312,25700,1,0,0:0:0:0:
208,272,25771,1,0,0:0:0:0:
232,240,25842,1,0,0:0:0:0:
264,224,25914,2,0,B|304:232,3,40
336,240,26200,5,10,0:0:0:0:
376,240,26271,1,0,0:0:0:0:
408,216,26342,1,0,0:0:0:0:
416,176,26414,1,0,0:0:0:0:
400,136,26485,1,8,0:0:0:0:
256,192,26557,12,0,27057,0:0:0:0:
256,192,27128,12,0,27628,0:0:0:0:
256,192,27700,12,2,28771,0:0:0:0:
240,112,28914,5,0,0:0:0:0:
328,88,29057,1,2,0:0:0:0:
400,144,29200,1,0,0:0:0:0:
432,232,29342,2,2,B|432:281|368:320,1,80
304,328,29628,1,8,0:0:0:0:
224,288,29771,1,0,0:0:0:0:
136,280,29914,6,2,B|96:232|96:176,1,80
96,128,30200,1,2,0:0:0:0:
176,96,30342,1,0,0:0:0:0:
248,40,30485,2,2,B|312:40|352:80,1,80
400,112,30771,1,8,0:0:0:0:
360,192,30914,1,0,0:0:0:0:
304,272,31057,5,10,0:0:0:0:
272,296,31128,1,0,0:0:0:0:
232,312,31200,1,0,0:0:0:0:
192,296,31271,1,0,0:0:0:0:
168,264,31342,2,0,B|136:240,3,40,2|0|2|0,0:0|0:0|0:0|0:0,0:0:0:0:
120,208,31628,5,10,0:0:0:0:
104,168,31700,1,0,0:0:0:0:
120,128,31771,1,0,0:0:0:0:
152,104,31842,1,0,0:0:0:0:
192,112,31914,2,0,B|216:160,3,40,2|0|2|0,0:0|0:0|0:0|0:0,0:0:0:0:
240,176,32200,5,10,0:0:0:0:
272,200,32271,1,0,0:0:0:0:
304,208,32342,1,0,0:0:0:0:
344,200,32414,1,0,0:0:0:0:
368,176,32485,1,8,0:0:0:0:
368,136,32557,1,0,0:0:0:0:
352,104,32628,1,0,0:0:0:0:
320,80,32700,1,0,0:0:0:0:
280,72,32771,6,0,B|256:40,3,40
224,32,33057,2,0,B|184:48,3,40
160,64,33342,6,2,B|120:112|120:160,1,80
128,224,33628,1,2,0:0:0:0:
216,240,33771,1,0,0:0:0:0:
304,272,33914,2,2,B|368:256|368:192,1,80
352,136,34200,1,8,0:0:0:0:
408,64,34342,1,0,0:0:0:0:
328,24,34485,6,2,B|256:24|224:56,1,80
176,80,34771,1,2,0:0:0:0:
224,152,34914,1,0,0:0:0:0:
152,200,35057,2,2,B|104:240|104:304,1,80
136,352,35342,1,8,0:0:0:0:
224,328,35485,1,0,0:0:0:0:
312,328,35628,5,10,0:0:0:0:
344,352,35700,1,0,0:0:0:0:
384,352,35771,1,0,0:0:0:0:
416,328,35842,1,0,0:0:0:0:
424,288,35914,2,0,B|400:232,3,40,2|0|2|0,0:0|0:0|0:0|0:0,0:0:0:0:
392,216,36200,5,10,0:0:0:0:
392,176,36271,1,0,0:0:0:0:
408,144,36342,1,0,0:0:0:0:
440,120,36414,1,0,0:0:0:0:
472,104,36485,2,0,B|464:64,3,40,2|0|2|0,0:0|0:0|0:0|0:0,0:0:0:0:
440,40,36771,5,10,0:0:0:0:
408,24,36842,1,0,0:0:0:0:
368,24,36914,1,0,0:0:0:0:
336,40,36985,1,0,0:0:0:0:
312,72,37057,1,8,0:0:0:0:
312,112,37128,1,0,0:0:0:0:
328,144,37200,1,0,0:0:0:0:
320,184,37271,1,0,0:0:0:0:
296,216,37342,6,0,B|248:200,3,40
224,208,37628,2,0,B|200:240,3,40
168,256,37914,5,10,0:0:0:0:
128,264,37985,1,0,0:0:0:0:
88,256,38057,1,0,0:0:0:0:
56,232,38128,1,0,0:0:0:0:
32,200,38200,1,10,0:0:0:0:
32,160,38271,1,0,0:0:0:0:
56,128,38342,1,0,0:0:0:0:
88,112,38414,1,0,0:0:0:0:
128,104,38485,5,10,0:0:0:0:
168,120,38557,1,0,0:0:0:0:
200,144,38628,1,0,0:0:0:0:
224,184,38700,1,0,0:0:0:0:
240,216,38771,2,0,B|280:240,3,40
304,256,39057,5,10,0:0:0:0:
344,264,39128,1,0,0:0:0:0:
384,264,39200,1,0,0:0:0:0:
416,240,39271,1,0,0:0:0:0:
440,208,39342,1,10,0:0:0:0:
432,168,39414,1,0,0:0:0:0:
408,136,39485,1,0,0:0:0:0:
400,96,39557,1,0,0:0:0:0:
416,64,39628,5,10,0:0:0:0:
424,24,39700,1,0,0:0:0:0:
392,0,39771,1,0,0:0:0:0:
352,0,39842,1,0,0:0:0:0:
320,24,39914,2,0,B|288:48,3,40
264,72,40200,5,10,0:0:0:0:
248,112,40271,1,0,0:0:0:0:
224,144,40342,1,0,0:0:0:0:
184,160,40414,1,0,0:0:0:0:
144,144,40485,1,10,0:0:0:0:
112,120,40557,1,0,0:0:0:0:
72,120,40628,1,0,0:0:0:0:
40,144,40700,1,0,0:0:0:0:
24,176,40771,5,10,0:0:0:0:
16,216,40842,1,0,0:0:0:0:
32,248,40914,1,0,0:0:0:0:
64,280,40985,1,0,0:0:0:0:
88,304,41057,2,0,B|80:344,3,40
96,376,41342,5,10,0:0:0:0:
136,384,41414,1,0,0:0:0:0:
176,376,41485,1,0,0:0:0:0:
208,352,41557,1,0,0:0:0:0:
224,320,41628,1,10,0:0:0:0:
216,280,41700,1,0,0:0:0:0:
200,248,41771,1,0,0:0:0:0:
208,208,41842,1,0,0:0:0:0:
240,184,41914,5,10,0:0:0:0:
280,176,41985,1,0,0:0:0:0:
320,192,42057,1,0,0:0:0:0:
344,224,42128,1,0,0:0:0:0:
352,264,42200,2,0,B|392:280,3,40
424,280,42485,5,10,0:0:0:0:
456,256,42557,1,0,0:0:0:0:
480,224,42628,1,0,0:0:0:0:
488,184,42700,1,0,0:0:0:0:
480,144,42771,1,10,0:0:0:0:
456,112,42842,1,0,0:0:0:0:
416,104,42914,1,0,0:0:0:0:
376,112,42985,1,0,0:0:0:0:
344,128,43057,5,10,0:0:0:0:
312,152,43128,1,0,0:0:0:0:
272,144,43200,1,0,0:0:0:0:
240,120,43271,1,0,0:0:0:0:
232,80,43342,2,0,B|184:64,3,40
160,64,43628,5,10,0:0:0:0:
120,72,43700,1,0,0:0:0:0:
88,88,43771,1,0,0:0:0:0:
56,112,43842,1,0,0:0:0:0:
32,144,43914,1,10,0:0:0:0:
32,184,43985,1,0,0:0:0:0:
48,216,44057,1,0,0:0:0:0:
80,240,44128,1,0,0:0:0:0:
112,256,44200,5,10,0:0:0:0:
144,280,44271,1,0,0:0:0:0:
160,312,44342,1,0,0:0:0:0:
144,352,44414,1,0,0:0:0:0:
168,384,44485,2,0,B|208:376,3,40
240,368,44771,5,0,0:0:0:0:
240,368,44842,1,0,0:0:0:0:
240,368,44914,1,8,0:0:0:0:
296,320,45057,1,0,0:0:0:0:
296,320,45128,1,0,0:0:0:0:
296,320,45200,1,8,0:0:0:0:
368,328,45342,1,0,0:0:0:0:
368,328,45414,1,0,0:0:0:0:
368,328,45485,1,8,0:0:0:0:
424,280,45628,1,0,0:0:0:0:
424,280,45700,1,0,0:0:0:0:
424,280,45771,1,8,0:0:0:0:
440,208,45914,5,10,0:0:0:0:
432,176,45985,1,0,0:0:0:0:
416,144,46057,1,0,0:0:0:0:
392,120,46128,1,0,0:0:0:0:
360,104,46200,1,10,0:0:0:0:
328,96,46271,1,0,0:0:0:0:
288,104,46342,1,0,0:0:0:0:
264,120,46414,1,0,0:0:0:0:
240,152,46485,5,10,0:0:0:0:
232,184,46557,1,0,0:0:0:0:
224,216,46628,1,0,0:0:0:0:
200,240,46700,1,0,0:0:0:0:
168,256,46771,1,10,0:0:0:0:
136,256,46842,1,0,0:0:0:0:
104,240,46914,1,0,0:0:0:0:
88,208,46985,1,0,0:0:0:0:
80,176,47057,5,10,0:0:0:0:
256,192,47128,12,0,48200,0:0:0:0:
216,40,48485,5,0,0:0:0:0:
264,256,48771,5,2,0:0:0:0:
168,304,49057,1,2,0:0:0:0:
80,256,49342,6,2,B|80:192|120:152,1,80
160,112,49628,1,8,0:0:0:0:
248,136,49771,1,0,0:0:0:0:
328,88,49914,2,2,B|392:88|424:144,1,80
456,184,50200,1,8,0:0:0:0:
392,240,50342,1,0,0:0:0:0:
366,318,50485,6,2,B|282:374|197:310,1,160
157,259,50914,2,2,B|97:177|154:100,1,160
200,48,51342,1,0,0:0:0:0:
200,48,51414,1,0,0:0:0:0:
200,48,51485,1,8,0:0:0:0:
304,48,51628,6,2,B|368:72|368:128,1,80
352,184,51914,1,8,0:0:0:0:
416,240,52057,1,0,0:0:0:0:
368,312,52200,2,2,B|296:328|256:328,1,80
208,288,52485,1,8,0:0:0:0:
144,344,52628,1,0,0:0:0:0:
71,298,52771,6,2,B|22:214|71:138,1,160
159,72,53200,2,2,B|172:167|279:176,1,160
376,144,53628,1,0,0:0:0:0:
376,144,53700,1,0,0:0:0:0:
376,144,53771,1,8,0:0:0:0:
488,176,53914,5,2,0:0:0:0:
440,248,54057,1,0,0:0:0:0:
360,288,54200,2,2,B|304:256|256:256,1,80
200,272,54485,2,2,B|168:208|168:168,1,80
160,112,54771,1,8,0:0:0:0:
152,32,54914,1,0,0:0:0:0:
232,48,55057,6,2,B|333:22|384:136,1,160
408,208,55485,2,2,B|298:180|272:304,1,160
208,344,55914,1,0,0:0:0:0:
208,344,55985,1,0,0:0:0:0:
208,344,56057,1,8,0:0:0:0:
120,312,56200,6,2,B|96:256|120:200,1,80
48,176,56485,2,8,B|104:152|160:176,1,80
184,104,56771,2,2,B|208:152|184:216,1,80
256,240,57057,2,8,B|208:256|144:240,1,80
104,216,57342,5,10,0:0:0:0:
88,176,57414,1,0,0:0:0:0:
96,136,57485,1,0,0:0:0:0:
120,112,57557,1,0,0:0:0:0:
160,104,57628,1,8,0:0:0:0:
192,120,57700,1,0,0:0:0:0:
208,152,57771,1,0,0:0:0:0:
224,184,57842,1,0,0:0:0:0:
256,208,57914,2,0,B|296:192,3,40
320,176,58200,5,10,0:0:0:0:
360,184,58271,1,0,0:0:0:0:
384,216,58342,1,0,0:0:0:0:
384,256,58414,1,0,0:0:0:0:
368,288,58485,1,10,0:0:0:0:
112,96,67628,5,0,0:0:0:0:
200,96,67771,2,2,B|264:96|304:128,1,80
344,168,68057,1,0,0:0:0:0:
296,240,68200,2,2,B|256:288|256:328,1,80
328,352,68485,2,2,B|368:296|368:256,1,80
440,224,68771,6,2,B|460:126|368:80,1,160
284,48,69200,2,2,B|271:150|148:160,1,160
80,168,69628,1,0,0:0:0:0:
40,184,69700,1,0,0:0:0:0:
16,216,69771,1,0,0:0:0:0:
24,256,69842,1,0,0:0:0:0:
48,288,69914,5,2,0:0:0:0:
144,288,70057,2,2,B|208:288|248:256,1,80
288,216,70342,1,0,0:0:0:0:
336,144,70485,2,2,B|336:80|360:48,1,80
432,80,70771,2,2,B|432:152|400:184,1,80
410,245,71057,6,2,B|369:345|257:309,1,160
186,330,71485,2,2,B|231:238|138:162,1,160
96,128,71914,1,0,0:0:0:0:
80,96,71985,1,0,0:0:0:0:
80,56,72057,1,0,0:0:0:0:
112,32,72128,1,0,0:0:0:0:
144,24,72200,5,2,0:0:0:0:
232,40,72342,1,2,0:0:0:0:
320,72,72485,2,2,B|360:104|360:168|360:160,1,80
432,192,72771,2,2,B|384:224|328:200,1,80
272,248,73057,2,0,B|272:184|320:144,1,80
363,139,73342,6,2,B|467:139|467:260,1,160
386,313,73771,2,2,B|274:313|274:193,1,160
328,80,74200,1,0,0:0:0:0:
304,112,74271,1,0,0:0:0:0:
272,128,74342,1,0,0:0:0:0:
232,112,74414,1,0,0:0:0:0:
200,96,74485,6,2,B|152:72|112:112,1,80
56,56,74771,2,2,B|32:104|80:152,1,80
64,224,75057,2,2,B|120:208|128:144,1,80
160,88,75342,1,8,0:0:0:0:
224,32,75485,1,0,0:0:0:0:
312,32,75628,5,10,0:0:0:0:
344,48,75700,1,0,0:0:0:0:
368,80,75771,1,0,0:0:0:0:
368,120,75842,1,0,0:0:0:0:
352,152,75914,2,0,B|320:176,3,40
296,200,76200,5,10,0:0:0:0:
280,232,76271,1,0,0:0:0:0:
280,272,76342,1,0,0:0:0:0:
304,304,76414,1,0,0:0:0:0:
336,320,76485,1,10,0:0:0:0:
376,320,76557,1,0,0:0:0:0:
408,304,76628,1,0,0:0:0:0:
432,272,76700,1,0,0:0:0:0:
448,240,76771,6,2,B|512:168|447:84,1,160
336,80,77200,2,2,B|263:148|168:80,1,160
96,96,77628,1,8,0:0:0:0:
72,184,77771,1,0,0:0:0:0:
72,272,77914,6,2,B|143:339|256:272,1,160
328,240,78342,2,2,B|260:166|328:80,1,160
408,48,78771,1,8,0:0:0:0:
456,120,78914,1,0,0:0:0:0:
464,216,79057,6,2,B|412:307|296:264,1,160
208,312,79485,2,2,B|188:196|309:168,1,160
320,96,79914,1,8,0:0:0:0:
344,16,80057,1,0,0:0:0:0:
256,8,80200,5,10,0:0:0:0:
224,16,80271,1,0,0:0:0:0:
192,40,80342,1,0,0:0:0:0:
176,72,80414,1,0,0:0:0:0:
176,112,80485,1,10,0:0:0:0:
192,144,80557,1,0,0:0:0:0:
224,168,80628,1,0,0:0:0:0:
256,176,80700,1,0,0:0:0:0:
296,176,80771,6,2,B|312:216,3,40
328,248,81057,2,2,B|304:288,3,40
320,312,81342,5,0,0:0:0:0:
448,168,81628,2,2,B|448:88|408:64,1,80
360,48,81914,1,8,0:0:0:0:
232,48,82057,1,0,0:0:0:0:
136,112,82200,1,8,0:0:0:0:
128,232,82342,1,0,0:0:0:0:
200,272,82485,5,10,0:0:0:0:
264,224,82628,1,0,0:0:0:0:
336,272,82771,2,2,B|408:272|432:216,1,80
456,176,83057,1,2,0:0:0:0:
384,128,83200,1,2,0:0:0:0:
456,80,83342,2,0,B|424:24|368:8,1,80
297,35,83628,6,2,B|189:9|167:127,1,160
72,136,84057,2,2,B|98:233|224:224,1,160
288,240,84485,1,2,0:0:0:0:
368,320,84771,5,10,0:0:0:0:
400,304,84842,1,0,0:0:0:0:
432,280,84914,1,0,0:0:0:0:
448,248,84985,1,0,0:0:0:0:
440,208,85057,1,10,0:0:0:0:
416,176,85128,1,0,0:0:0:0:
384,152,85200,1,0,0:0:0:0:
360,120,85271,1,0,0:0:0:0:
360,80,85342,6,0,B|392:48,3,40
384,16,85628,2,0,B|344:0,3,40
312,0,85914,5,0,0:0:0:0:
120,48,86200,2,2,B|80:104|80:152,1,80
48,192,86485,1,8,0:0:0:0:
96,296,86628,1,0,0:0:0:0:
208,344,86771,1,8,0:0:0:0:
320,304,86914,1,0,0:0:0:0:
400,320,87057,5,2,0:0:0:0:
376,240,87200,1,0,0:0:0:0:
304,200,87342,2,2,B|328:128|328:88,1,80
288,48,87628,1,2,0:0:0:0:
208,80,87771,1,2,0:0:0:0:
128,40,87914,2,0,B|72:72|72:120,1,80
56,176,88200,6,2,B|96:272|224:232,1,160
288,160,88628,2,2,B|388:161|408:280,1,160
352,328,89057,1,0,0:0:0:0:
256,352,89342,6,2,B|183:276|256:192,1,160
352,144,89771,2,2,B|317:48|192:88,1,160
128,96,90200,1,0,0:0:0:0:
128,264,90485,6,2,B|202:185|304:272,1,160
304,352,90914,2,2,B|407:337|392:200,1,160
448,160,91342,2,0,B|432:96|368:96,1,80
344,16,91628,6,2,B|293:115|176:80,1,160
55,78,92200,2,2,B|-18:137|39:246,1,160
96,312,92771,6,2,B|208:312|208:184,1,160
232,80,93200,2,2,B|335:27|383:144,1,160
440,160,93628,1,8,0:0:0:0:
400,224,93771,1,0,0:0:0:0:
400,296,93914,5,0,0:0:0:0:
400,296,93985,1,0,0:0:0:0:
400,296,94057,1,8,0:0:0:0:
328,328,94200,1,0,0:0:0:0:
264,280,94342,1,0,0:0:0:0:
264,280,94414,1,0,0:0:0:0:
264,280,94485,1,8,0:0:0:0:
304,216,94628,1,0,0:0:0:0:
264,152,94771,1,0,0:0:0:0:
264,152,94842,1,0,0:0:0:0:
264,152,94914,1,0,0:0:0:0:
264,152,94985,1,0,0:0:0:0:
264,152,95057,1,2,0:0:0:0:
312,88,95342,5,2,0:0:0:0:
64,160,95628,1,2,0:0:0:0:
352,352,95914,1,0,0:0:0:0:
464,240,96200,6,2,B|492:134|376:88,1,160
318,51,96628,2,2,B|308:2|110:140|91:71,1,240
48,208,97342,6,2,B|48:264,3,40
120,256,97628,2,2,B|144:288,3,40
208,248,97914,6,2,B|248:256,3,40
272,184,98200,2,2,B|312:176,3,40
344,176,98485,5,10,0:0:0:0:
376,200,98557,1,0,0:0:0:0:
392,232,98628,1,0,0:0:0:0:
384,272,98700,1,0,0:0:0:0:
360,304,98771,1,10,0:0:0:0:
328,328,98842,1,0,0:0:0:0:
288,336,98914,1,0,0:0:0:0:
256,312,98985,1,0,0:0:0:0:
216,304,99057,6,0,B|176:320,3,40
144,312,99342,2,0,B|112:272,3,40
88,256,99628,6,2,B|21:171|96:80,1,160
175,52,100057,2,2,B|184:-9|405:176|415:110,1,240
440,216,100771,5,0,0:0:0:0:
440,216,100842,1,0,0:0:0:0:
440,216,100914,1,8,0:0:0:0:
392,280,101057,1,0,0:0:0:0:
312,264,101200,1,0,0:0:0:0:
312,264,101271,1,0,0:0:0:0:
312,264,101342,1,8,0:0:0:0:
264,336,101485,1,0,0:0:0:0:
184,344,101628,1,0,0:0:0:0:
152,360,101700,1,0,0:0:0:0:
112,360,101771,1,0,0:0:0:0:
80,344,101842,1,0,0:0:0:0:
56,320,101914,1,2,0:0:0:0:
256,192,101985,12,0,103057,0:0:0:0:
416,344,103342,5,0,0:0:0:0:
104,192,103628,1,0,0:0:0:0:
480,32,103914,1,0,0:0:0:0:
336,32,104200,6,2,B|229:-6|176:96,1,160
88,136,104628,2,2,B|88:240|192:256,1,160
288,272,105057,1,2,0:0:0:0:
352,192,105200,1,0,0:0:0:0:
432,112,105342,6,2,B|359:30|279:118,1,160
178,82,105771,2,2,B|223:171|122:234,1,160
48,272,106200,1,2,0:0:0:0:
120,344,106342,1,0,0:0:0:0:
224,336,106485,6,2,B|333:328|317:204,1,160
410,163,106914,2,2,B|364:68|242:131,1,160
184,136,107342,1,2,0:0:0:0:
104,72,107485,1,0,0:0:0:0:
8,128,107628,6,2,B|-10:227|96:280,1,160
176,328,108057,2,2,B|277:321|280:184,1,160
272,104,108485,1,2,0:0:0:0:
328,24,108628,1,0,0:0:0:0:
424,48,108771,5,0,0:0:0:0:
424,48,108842,1,0,0:0:0:0:
424,48,108914,1,8,0:0:0:0:
464,120,109057,1,0,0:0:0:0:
400,168,109200,1,0,0:0:0:0:
400,168,109271,1,0,0:0:0:0:
400,168,109342,1,8,0:0:0:0:
336,224,109485,1,0,0:0:0:0:
328,304,109628,1,0,0:0:0:0:
328,304,109700,1,0,0:0:0:0:
328,304,109771,1,8,0:0:0:0:
248,336,109914,5,0,0:0:0:0:
248,336,109985,1,0,0:0:0:0:
248,336,110057,1,8,0:0:0:0:
240,256,110200,1,0,0:0:0:0:
160,256,110342,1,0,0:0:0:0:
160,256,110414,1,0,0:0:0:0:
160,256,110485,1,8,0:0:0:0:
96,208,110628,1,0,0:0:0:0:
144,144,110771,1,0,0:0:0:0:
144,144,110842,1,0,0:0:0:0:
144,144,110914,1,8,0:0:0:0:
312,56,111057,6,2,B|288:24,2,40
352,152,111342,1,0,0:0:0:0:
440,208,111485,2,2,B|480:200,2,40
392,296,111771,1,0,0:0:0:0:
296,328,111914,1,2,0:0:0:0:
296,328,111985,1,2,0:0:0:0:
296,328,112057,2,2,B|328:360,2,40
272,304,112271,5,10,0:0:0:0:
248,272,112342,1,0,0:0:0:0:
232,240,112414,1,0,0:0:0:0:
240,200,112485,1,0,0:0:0:0:
264,168,112557,1,10,0:0:0:0:
296,144,112628,1,0,0:0:0:0:
336,144,112700,1,0,0:0:0:0:
368,168,112771,1,0,0:0:0:0:
400,192,112842,5,10,0:0:0:0:
440,192,112914,1,0,0:0:0:0:
472,168,112985,1,0,0:0:0:0:
480,128,113057,1,0,0:0:0:0:
464,96,113128,1,10,0:0:0:0:
344,16,113342,6,2,B|247:-11|200:81,1,160
96,64,113771,2,2,B|56:160|176:208,1,160
256,224,114200,1,8,0:0:0:0:
240,320,114342,1,0,0:0:0:0:
336,320,114485,6,2,B|408:312|416:288,1,80
344,248,114771,2,8,B|328:184|296:168,1,80
304,96,115057,2,2,B|232:120|224:160,1,80
200,208,115342,2,8,B|136:144|152:112,1,80
104,72,115628,6,2,B|176:-3|280:72,1,160
384,32,116057,2,2,B|316:118|416:200,1,160
464,248,116485,1,8,0:0:0:0:
400,320,116628,1,0,0:0:0:0:
304,320,116771,6,2,B|232:320|200:280,1,80
152,336,117057,2,8,B|152:264|192:240,1,80
112,176,117342,2,2,B|184:176|208:208,1,80
280,200,117628,1,0,0:0:0:0:
312,176,117700,1,0,0:0:0:0:
336,144,117771,1,0,0:0:0:0:
320,104,117842,1,8,0:0:0:0:
288,72,117914,1,2,0:0:0:0:
200,40,118200,6,2,B|128:40|96:72,1,80,6|2,0:0|0:0,0:0:0:0:
32,96,118771,2,2,B|-5:192|96:264,1,160
192,64,120200,6,2,B|88:64|88:187,1,160
136,288,120628,2,2,B|240:288|240:160,1,160
304,112,121057,1,8,0:0:0:0:
392,160,121200,1,0,0:0:0:0:
448,248,121342,6,2,B|351:260|312:160,1,160
304,72,121771,2,2,B|204:28|136:128,1,160
88,176,122200,1,8,0:0:0:0:
152,256,122342,1,0,0:0:0:0:
248,280,122485,5,0,0:0:0:0:
248,280,122557,1,0,0:0:0:0:
248,280,122628,1,8,0:0:0:0:
312,240,122771,1,0,0:0:0:0:
296,168,122914,1,0,0:0:0:0:
296,168,122985,1,0,0:0:0:0:
296,168,123057,1,8,0:0:0:0:
312,96,123200,1,0,0:0:0:0:
368,48,123342,1,8,0:0:0:0:
384,120,123485,1,8,0:0:0:0:
456,120,123628,5,0,0:0:0:0:
456,120,123700,1,0,0:0:0:0:
456,120,123771,1,8,0:0:0:0:
440,192,123914,1,0,0:0:0:0:
480,256,124057,1,0,0:0:0:0:
480,256,124128,1,0,0:0:0:0:
480,256,124200,1,8,0:0:0:0:
440,320,124342,1,0,0:0:0:0:
368,296,124485,1,8,0:0:0:0:
320,352,124628,1,8,0:0:0:0:
176,304,124771,6,2,B|144:240|144:208,1,80
176,144,125057,1,8,0:0:0:0:
240,80,125200,2,0,B|208:48,3,40
192,24,125485,5,8,0:0:0:0:
328,32,125628,1,8,0:0:0:0:
400,136,125771,1,0,0:0:0:0:
376,272,125914,6,2,B|312:304|264:304,1,80
216,264,126200,1,8,0:0:0:0:
144,200,126342,2,0,B|104:168,3,40
96,144,126628,5,8,0:0:0:0:
176,16,126771,1,8,0:0:0:0:
312,80,126914,1,0,0:0:0:0:
416,56,127057,5,10,0:0:0:0:
448,72,127128,1,0,0:0:0:0:
472,104,127200,1,0,0:0:0:0:
472,144,127271,1,0,0:0:0:0:
448,176,127342,1,10,0:0:0:0:
416,192,127414,1,0,0:0:0:0:
384,216,127485,1,0,0:0:0:0:
368,248,127557,1,0,0:0:0:0:
376,288,127628,1,10,0:0:0:0:
408,360,127771,5,0,0:0:0:0:
264,352,127914,1,8,0:0:0:0:
240,208,128057,1,8,0:0:0:0:
216,112,128200,5,10,0:0:0:0:
192,80,128271,1,0,0:0:0:0:
160,64,128342,1,0,0:0:0:0:
120,56,128414,1,0,0:0:0:0:
80,72,128485,1,10,0:0:0:0:
56,104,128557,1,0,0:0:0:0:
48,144,128628,1,0,0:0:0:0:
64,184,128700,1,0,0:0:0:0:
104,200,128771,1,10,0:0:0:0:
176,216,128914,5,0,0:0:0:0:
304,248,129057,1,8,0:0:0:0:
400,152,129200,1,8,0:0:0:0:
336,80,129342,6,2,B|268:-1|160:64,1,160
88,128,129771,2,2,B|175:192|96:296,1,160
168,360,130200,1,2,0:0:0:0:
256,320,130342,1,2,0:0:0:0:
344,320,130485,5,10,0:0:0:0:
376,304,130557,1,0,0:0:0:0:
400,280,130628,1,0,0:0:0:0:
408,240,130700,1,0,0:0:0:0:
392,208,130771,1,10,0:0:0:0:
368,184,130842,1,0,0:0:0:0:
344,160,130914,1,0,0:0:0:0:
320,128,130985,1,0,0:0:0:0:
312,96,131057,6,0,B|336:48,3,40
344,32,131342,2,0,B|296:-8,3,40
280,0,131628,5,10,0:0:0:0:
240,0,131700,1,0,0:0:0:0:
208,16,131771,1,0,0:0:0:0:
176,40,131842,1,0,0:0:0:0:
160,72,131914,1,10,0:0:0:0:
160,112,131985,1,0,0:0:0:0:
176,144,132057,1,0,0:0:0:0:
200,176,132128,1,0,0:0:0:0:
224,200,132200,6,2,B|160:264,1,80
312,264,132485,2,8,B|392:192,1,80
456,200,132771,5,10,0:0:0:0:
464,240,132842,1,0,0:0:0:0:
456,272,132914,1,0,0:0:0:0:
432,304,132985,1,0,0:0:0:0:
392,312,133057,1,10,0:0:0:0:
360,296,133128,1,0,0:0:0:0:
328,280,133200,1,0,0:0:0:0:
288,272,133271,1,0,0:0:0:0:
256,296,133342,6,2,B|272:376,1,80
152,272,133628,2,8,B|128:184,1,80
104,96,133914,5,2,0:0:0:0:
120,64,133985,1,0,0:0:0:0:
144,40,134057,1,0,0:0:0:0:
176,24,134128,1,0,0:0:0:0:
216,24,134200,1,10,0:0:0:0:
248,40,134271,1,0,0:0:0:0:
280,56,134342,1,0,0:0:0:0:
320,56,134414,1,0,0:0:0:0:
352,48,134485,6,2,B|416:0,1,80
408,144,134771,2,8,B|336:200,1,80
264,264,135057,5,10,0:0:0:0:
240,296,135128,1,0,0:0:0:0:
208,312,135200,1,0,0:0:0:0:
168,312,135271,1,0,0:0:0:0:
136,296,135342,1,10,0:0:0:0:
120,264,135414,1,0,0:0:0:0:
120,224,135485,1,0,0:0:0:0:
112,192,135557,1,0,0:0:0:0:
88,160,135628,6,0,B|40:152,3,40
24,128,135914,2,0,B|24:80,3,40
32,56,136200,5,10,0:0:0:0:
56,24,136271,1,0,0:0:0:0:
96,16,136342,1,0,0:0:0:0:
128,32,136414,1,0,0:0:0:0:
152,64,136485,1,10,0:0:0:0:
168,96,136557,1,0,0:0:0:0:
200,120,136628,1,0,0:0:0:0:
240,128,136700,1,0,0:0:0:0:
280,112,136771,5,10,0:0:0:0:
304,80,136842,1,0,0:0:0:0:
320,48,136914,1,0,0:0:0:0:
352,24,136985,1,0,0:0:0:0:
392,24,137057,1,10,0:0:0:0:
424,48,137128,1,0,0:0:0:0:
448,80,137200,1,0,0:0:0:0:
456,120,137271,1,0,0:0:0:0:
448,152,137342,5,10,0:0:0:0:
256,192,137414,12,2,138485,0:0:0:0:
208,144,138628,5,0,0:0:0:0:
288,112,138771,1,8,0:0:0:0:
344,176,138914,1,8,0:0:0:0:
408,240,139057,2,2,B|384:304|352:320,1,80
296,360,139342,2,8,B|232:328|232:288,1,80
144,280,139628,6,2,B|74:206|144:120,1,160
232,46,140057,2,2,B|332:19|376:134,1,160
400,200,140485,1,0,0:0:0:0:
400,200,140557,1,0,0:0:0:0:
400,200,140628,1,8,0:0:0:0:
352,280,140771,6,2,B|288:280|256:248,1,80
184,208,141057,2,2,B|224:152|264:144,1,80
328,120,141342,1,0,0:0:0:0:
288,40,141485,1,0,0:0:0:0:
376,32,141628,1,8,0:0:0:0:
448,80,141771,1,0,0:0:0:0:
455,174,141914,6,2,B|463:280|351:310,1,160
176,304,142342,2,2,B|82:265|106:153,1,160
128,80,142771,1,0,0:0:0:0:
152,48,142842,1,0,0:0:0:0:
192,32,142914,1,0,0:0:0:0:
232,40,142985,1,0,0:0:0:0:
264,64,143057,6,2,B|312:64|352:88,1,80
416,136,143342,1,8,0:0:0:0:
344,200,143485,1,0,0:0:0:0:
424,256,143628,2,2,B|400:320|352:336,1,80
288,336,143914,1,8,0:0:0:0:
232,256,144057,1,0,0:0:0:0:
144,184,144200,6,2,B|127:80|232:48,1,160
384,64,144628,2,2,B|316:148|416:224,1,160
456,272,145057,1,0,0:0:0:0:
456,272,145128,1,0,0:0:0:0:
456,272,145200,1,8,0:0:0:0:
344,328,145342,5,0,0:0:0:0:
256,304,145485,2,2,B|184:304|152:272,1,80
104,232,145771,1,0,0:0:0:0:
176,176,145914,1,2,0:0:0:0:
104,112,146057,2,2,B|144:56|184:56,1,80
256,32,146342,1,0,0:0:0:0:
352,56,146485,5,10,0:0:0:0:
392,64,146557,1,0,0:0:0:0:
432,88,146628,1,0,0:0:0:0:
448,128,146700,1,0,0:0:0:0:
432,168,146771,1,10,0:0:0:0:
400,192,146842,1,0,0:0:0:0:
360,208,146914,1,0,0:0:0:0:
320,224,146985,1,0,0:0:0:0:
288,248,147057,5,10,0:0:0:0:
272,288,147128,1,0,0:0:0:0:
240,320,147200,1,0,0:0:0:0:
200,320,147271,1,0,0:0:0:0:
160,304,147342,2,2,B|128:224,1,80
104,144,147628,6,0,B|16:120,2,80,2|2|2,0:0|0:0|0:0,0:0:0:0:
192,88,148057,2,0,B|136:8,2,80,2|0|2,0:0|0:0|0:0,0:0:0:0:
224,192,148485,1,8,0:0:0:0:
312,136,148628,1,0,0:0:0:0:
400,80,148771,6,2,B|474:144|416:248,1,160
352,312,149200,2,2,B|256:360|192:272,1,160
112,216,149628,1,0,0:0:0:0:
80,192,149700,1,0,0:0:0:0:
56,160,149771,1,0,0:0:0:0:
64,120,149842,1,0,0:0:0:0:
88,88,149914,6,0,B|152:32,2,80,2|0|2,0:0|0:0|0:0,0:0:0:0:
152,168,150342,2,0,B|240:200,2,80,2|0|2,0:0|0:0|0:0,0:0:0:0:
72,232,150771,1,8,0:0:0:0:
152,304,150914,1,0,0:0:0:0:
272,328,151057,6,2,B|378:304|360:176,1,160
288,136,151485,2,2,B|314:33|432:56,1,160
464,160,151914,2,0,B|464:224|432:256,1,80
400,320,152200,5,8,0:0:0:0:
144,336,152485,2,2,B|72:336|40:304,1,80
120,240,152771,2,2,B|120:160|80:136,1,80
48,96,153057,2,2,B|88:64|152:64,1,80
216,56,153342,5,8,0:0:0:0:
424,136,153628,2,2,B|424:208|384:232,1,80
328,176,153914,2,2,B|288:232|240:240,1,80
224,304,154200,2,2,B|160:272|160:216,1,80
112,176,154485,5,0,0:0:0:0:
160,96,154628,1,2,0:0:0:0:
240,144,154771,1,0,0:0:0:0:
392,248,154914,5,0,0:0:0:0:
464,200,155057,1,2,0:0:0:0:
424,128,155200,1,0,0:0:0:0:
264,32,155342,5,0,0:0:0:0:
184,24,155485,1,2,0:0:0:0:
56,96,155628,6,0,B|64:144,3,40
48,168,155914,2,0,B|56:216,3,40
40,240,156200,6,0,B|56:288,3,40
40,312,156485,2,0,B|56:352,3,40
48,384,156771,5,2,0:0:0:0:
337,368,157057,2,2,B|449:368|449:240,1,160
296,80,157628,2,2,B|256:40|200:48,1,80
112,40,158200,5,0,0:0:0:0:
448,192,158485,1,0,0:0:0:0:
48,328,158771,1,0,0:0:0:0:
104,280,159057,5,0,0:0:0:0:
104,280,159128,1,0,0:0:0:0:
104,280,159200,1,8,0:0:0:0:
168,320,159342,1,0,0:0:0:0:
224,272,159485,1,0,0:0:0:0:
224,272,159557,1,0,0:0:0:0:
224,272,159628,1,8,0:0:0:0:
184,208,159771,1,0,0:0:0:0:
168,136,159914,1,0,0:0:0:0:
168,136,159985,1,0,0:0:0:0:
168,136,160057,1,8,0:0:0:0:
216,80,160200,5,0,0:0:0:0:
216,80,160271,1,0,0:0:0:0:
216,80,160342,1,8,0:0:0:0:
280,112,160485,1,0,0:0:0:0:
272,184,160628,1,0,0:0:0:0:
272,184,160700,1,0,0:0:0:0:
272,184,160771,1,8,0:0:0:0:
344,200,160914,1,0,0:0:0:0:
408,160,161057,1,0,0:0:0:0:
408,160,161128,1,0,0:0:0:0:
408,160,161200,1,8,0:0:0:0:
464,112,161342,6,2,B|432:16|312:32,1,160
232,32,161771,2,2,B|122:35|112:160,1,160
104,216,162200,2,0,B|184:216|184:256,1,80
208,320,162485,6,2,B|320:320|320:192,1,160
224,96,163057,2,0,B|112:96|112:224,1,160
176,280,163628,5,0,0:0:0:0:
176,280,163700,1,0,0:0:0:0:
176,280,163771,1,8,0:0:0:0:
240,240,163914,1,0,0:0:0:0:
296,288,164057,1,0,0:0:0:0:
296,288,164128,1,0,0:0:0:0:
296,288,164200,1,8,0:0:0:0:
368,296,164342,1,0,0:0:0:0:
432,256,164485,1,0,0:0:0:0:
432,256,164557,1,0,0:0:0:0:
432,256,164628,1,8,0:0:0:0:
432,184,164771,5,0,0:0:0:0:
432,184,164842,1,0,0:0:0:0:
432,184,164914,1,8,0:0:0:0:
384,128,165057,1,0,0:0:0:0:
432,72,165200,1,0,0:0:0:0:
432,72,165271,1,0,0:0:0:0:
432,72,165342,1,8,0:0:0:0:
368,40,165485,1,0,0:0:0:0:
296,48,165628,2,0,B|256:64,3,40
224,80,165914,5,2,0:0:0:0:
152,136,166057,1,2,0:0:0:0:
240,176,166200,2,0,B|256:232|224:264,1,80
168,320,166485,1,2,0:0:0:0:
264,336,166628,1,0,0:0:0:0:
368,328,166771,2,0,B|416:280|416:240,1,80
456,112,167057,6,2,B|410:17|288:40,1,160
191,44,167485,2,2,B|138:19|130:259|72:227,1,240
176,336,168200,5,10,0:0:0:0:
216,344,168271,1,0,0:0:0:0:
256,336,168342,1,0,0:0:0:0:
288,312,168414,1,0,0:0:0:0:
288,272,168485,1,10,0:0:0:0:
264,240,168557,1,0,0:0:0:0:
232,216,168628,1,0,0:0:0:0:
200,192,168700,1,0,0:0:0:0:
184,160,168771,6,0,B|216:128,3,40
224,104,169057,2,0,B|208:56,3,40
224,32,169342,5,10,0:0:0:0:
256,8,169414,1,0,0:0:0:0:
296,0,169485,1,0,0:0:0:0:
336,16,169557,1,0,0:0:0:0:
360,48,169628,1,10,0:0:0:0:
424,160,169914,5,0,0:0:0:0:
248,312,170200,1,0,0:0:0:0:
80,112,170485,2,2,B|90:14|192:0,1,160
280,88,170914,2,2,B|207:155|280:232,1,160
384,272,171342,2,0,B|384:200|416:176,1,80
440,103,171628,6,2,B|380:21|281:71,1,160
192,72,172057,2,2,B|261:144|192:224,1,160
96,280,172485,2,0,B|144:336|192:328,1,80
256,336,172771,5,10,0:0:0:0:
296,328,172842,1,0,0:0:0:0:
336,312,172914,1,0,0:0:0:0:
368,280,172985,1,0,0:0:0:0:
376,240,173057,1,10,0:0:0:0:
352,200,173128,1,0,0:0:0:0:
320,176,173200,1,0,0:0:0:0:
280,168,173271,1,0,0:0:0:0:
240,168,173342,5,10,0:0:0:0:
200,176,173414,1,0,0:0:0:0:
160,176,173485,1,0,0:0:0:0:
120,152,173557,1,0,0:0:0:0:
96,120,173628,2,0,B|128:80,3,40
144,64,173914,5,10,0:0:0:0:
288,24,174200,1,0,0:0:0:0:
376,320,174485,1,0,0:0:0:0:
72,184,174771,1,0,0:0:0:0:
184,312,175057,6,2,B|160:240|208:224,1,80
224,144,175342,1,0,0:0:0:0:
304,96,175485,1,0,0:0:0:0:
400,112,175628,2,2,B|400:176|352:208,1,80
304,248,175914,1,2,0:0:0:0:
376,312,176057,1,0,0:0:0:0:
224,344,176200,6,2,B|152:344|120:304,1,80
64,264,176485,1,0,0:0:0:0:
96,176,176628,1,0,0:0:0:0:
24,120,176771,2,2,B|48:56|104:56,1,80
160,32,177057,1,2,0:0:0:0:
224,96,177200,1,0,0:0:0:0:
368,40,177342,6,2,B|432:72|432:128,1,80
456,184,177628,1,0,0:0:0:0:
368,208,177771,1,0,0:0:0:0:
280,256,177914,2,2,B|344:288|344:328,1,80
264,360,178200,1,2,0:0:0:0:
176,320,178342,1,0,0:0:0:0:
48,240,178485,6,2,B|56:160|104:144,1,80
160,120,178771,1,0,0:0:0:0:
120,40,178914,1,0,0:0:0:0:
216,16,179057,2,2,B|288:16|312:64,1,80
336,112,179342,1,2,0:0:0:0:
424,96,179485,1,0,0:0:0:0:
456,256,179628,5,10,0:0:0:0:
432,280,179700,1,0,0:0:0:0:
400,296,179771,1,0,0:0:0:0:
368,304,179842,1,0,0:0:0:0:
336,296,179914,1,10,0:0:0:0:
304,280,179985,1,0,0:0:0:0:
280,256,180057,1,0,0:0:0:0:
264,224,180128,1,0,0:0:0:0:
272,192,180200,5,10,0:0:0:0:
296,168,180271,1,0,0:0:0:0:
320,152,180342,1,0,0:0:0:0:
352,136,180414,1,0,0:0:0:0:
368,112,180485,1,10,0:0:0:0:
360,80,180557,1,0,0:0:0:0:
336,64,180628,1,0,0:0:0:0:
304,64,180700,1,0,0:0:0:0:
272,80,180771,6,0,B|240:104,3,40,2|0|2|0,0:0|0:0|0:0|0:0,0:0:0:0:
208,104,181057,2,0,B|184:72,3,40,2|0|2|0,0:0|0:0|0:0|0:0,0:0:0:0:
160,56,181342,6,0,B|112:80,3,40,2|0|2|0,0:0|0:0|0:0|0:0,0:0:0:0:
96,80,181628,2,0,B|64:56,3,40,2|2|2|2,0:0|0:0|0:0|0:0,0:0:0:0:
32,48,181914,5,10,0:0:0:0:
8,72,181985,1,0,0:0:0:0:
0,104,182057,1,0,0:0:0:0:
8,136,182128,1,0,0:0:0:0:
32,160,182200,1,10,0:0:0:0:
64,168,182271,1,0,0:0:0:0:
96,168,182342,1,0,0:0:0:0:
120,184,182414,1,0,0:0:0:0:
136,208,182485,5,10,0:0:0:0:
136,240,182557,1,0,0:0:0:0:
120,264,182628,1,0,0:0:0:0:
104,288,182700,1,0,0:0:0:0:
104,320,182771,1,10,0:0:0:0:
128,344,182842,1,0,0:0:0:0:
160,352,182914,1,0,0:0:0:0:
192,344,182985,1,0,0:0:0:0:
216,328,183057,6,0,B|240:288,3,40,2|2|2|2,0:0|0:0|0:0|0:0,0:0:0:0:
264,288,183342,2,0,B|304:296,3,40,2|0|2|0,0:0|0:0|0:0|0:0,0:0:0:0:
336,288,183628,6,0,B|352:248,3,40,2|0|2|0,0:0|0:0|0:0|0:0,0:0:0:0:
376,240,183914,2,0,B|416:240,3,40,2|0|2|0,0:0|0:0|0:0|0:0,0:0:0:0:
448,240,184200,6,2,B|509:166|439:94,1,160
332,48,184628,2,2,B|227:6|200:116,1,160
112,168,185057,2,2,B|112:224|152:256,1,80
224,304,185342,6,2,B|288:304|328:272,1,80
360,368,185628,2,8,B|384:328|368:256,1,80
472,240,185914,2,2,B|424:216|368:224,1,80
432,112,186200,2,8,B|368:136|352:192,1,80
272,240,186485,6,2,B|176:272|128:176,1,160
88,96,186914,2,2,B|146:14|255:59,1,160
336,48,187342,2,2,B|384:80|384:136,1,80
432,208,187628,6,2,B|376:240|344:256,1,80
352,344,187914,2,8,B|296:280,1,80
192,320,188200,2,2,B|248:224,1,80
144,184,188485,2,8,B|248:176,1,80
328,168,188771,5,2,0:0:0:0:
424,128,189057,2,2,B|424:64|384:40,1,80
224,16,189628,2,2,B|111:-1|72:112,1,160
256,192,190557,12,2,192271,0:0:0:0:
416,280,201342,5,0,0:0:0:0:
312,336,201485,1,2,0:0:0:0:
192,320,201628,1,2,0:0:0:0:
112,232,201771,1,0,0:0:0:0:
144,160,201914,2,2,B|216:152|224:96,1,80
264,64,202200,2,0,B|336:40|360:72,1,80
408,96,202485,5,0,0:0:0:0:
464,200,202628,1,2,0:0:0:0:
400,312,202771,1,2,0:0:0:0:
280,320,202914,1,0,0:0:0:0:
224,264,203057,2,2,B|272:208|240:160,1,80
208,128,203342,2,0,B|232:56|288:64,1,80
328,48,203628,5,0,0:0:0:0:
408,96,203771,1,0,0:0:0:0:
344,160,203914,2,2,B|288:168|248:208,1,80
296,272,204200,2,0,B|240:304|184:296,1,80
192,216,204485,2,2,B|144:224|96:264,1,80
64,304,204771,5,0,0:0:0:0:
144,352,204914,1,0,0:0:0:0:
232,320,205057,1,0,0:0:0:0:
312,272,205200,2,2,B|408:208|400:48|272:8|144:80,1,400
88,112,206057,5,0,0:0:0:0:
56,192,206200,2,2,B|112:248,1,80
200,232,206485,2,0,B|280:176,1,80,0|2,0:0|0:0,0:0:0:0:
352,176,206771,2,2,B|424:256,1,80
432,320,207057,6,2,B|346:382|274:302,1,160
192,264,207485,2,2,B|112:195|191:105,1,160
248,56,207914,1,0,0:0:0:0:
328,96,208057,1,0,0:0:0:0:
384,168,208200,5,2,0:0:0:0:
312,216,208342,1,2,0:0:0:0:
320,296,208485,1,0,0:0:0:0:
248,336,208628,2,2,B|144:336|144:216,1,160
96,168,209057,2,2,B|96:104|152:104,1,80
280,48,209342,5,2,0:0:0:0:
360,72,209485,1,2,0:0:0:0:
334,146,209628,1,0,0:0:0:0:
414,174,209771,2,2,B|478:255|398:310,1,160
328,344,210200,2,2,B|264:344|264:264,1,80
144,224,210485,6,2,B|104:184|112:128,1,80
160,80,210771,1,0,0:0:0:0:
240,48,210914,2,0,B|304:48|344:96,1,80
376,128,211200,1,2,0:0:0:0:
408,208,211342,2,0,B|344:240|336:280,1,80
280,304,211628,6,0,B|208:336,1,80,2|0,0:0|0:0,0:0:0:0:
128,328,211914,2,0,B|96:240,1,80,8|0,0:0|0:0,0:0:0:0:
128,176,212200,2,0,B|208:136,1,80,2|0,0:0|0:0,0:0:0:0:
216,64,212485,2,0,B|304:32,1,80,8|0,0:0|0:0,0:0:0:0:
456,56,212771,6,2,B|456:144|400:144,1,80
376,192,213057,1,0,0:0:0:0:
368,272,213200,2,0,B|288:280|280:336,1,80
216,336,213485,1,2,0:0:0:0:
128,312,213628,2,0,B|72:264|88:216,1,80
72,168,213914,6,0,B|144:128,1,80,2|0,0:0|0:0,0:0:0:0:
176,64,214200,2,0,B|264:80,1,80,8|0,0:0|0:0,0:0:0:0:
320,48,214485,2,0,B|360:120,1,80,2|0,0:0|0:0,0:0:0:0:
424,160,214771,2,0,B|368:216,1,80,8|0,0:0|0:0,0:0:0:0:
264,312,215057,5,0,0:0:0:0:
264,312,215128,1,0,0:0:0:0:
264,312,215200,1,2,0:0:0:0:
192,328,215342,1,2,0:0:0:0:
112,312,215485,1,0,0:0:0:0:
48,248,215628,1,2,0:0:0:0:
32,160,215771,1,0,0:0:0:0:
72,72,215914,1,2,0:0:0:0:
168,24,216057,1,0,0:0:0:0:
288,32,216200,5,0,0:0:0:0:
288,32,216271,1,0,0:0:0:0:
288,32,216342,1,2,0:0:0:0:
376,72,216485,2,0,B|416:144,1,80,2|0,0:0|0:0,0:0:0:0:
336,168,216771,2,0,B|312:248,1,80,2|0,0:0|0:0,0:0:0:0:
400,256,217057,2,2,B|424:336,1,80
320,384,217342,6,2,B|215:390|196:291,1,160
96,248,217771,2,2,B|98:142|196:144,1,160
280,88,218200,1,0,0:0:0:0:
392,112,218485,5,0,0:0:0:0:
456,160,218628,1,0,0:0:0:0:
408,224,218771,1,0,0:0:0:0:
448,296,218914,2,2,B|380:361|288:308,1,160
80,288,219628,5,2,0:0:0:0:
80,288,219700,1,0,0:0:0:0:
80,288,219771,1,0,0:0:0:0:
80,288,219842,1,0,0:0:0:0:
80,288,219914,1,2,0:0:0:0:
144,96,220200,5,2,0:0:0:0:
144,96,220271,1,0,0:0:0:0:
144,96,220342,1,0,0:0:0:0:
144,96,220414,1,0,0:0:0:0:
144,96,220485,1,2,0:0:0:0:
248,208,220771,5,10,0:0:0:0:
272,240,220842,1,0,0:0:0:0:
312,248,220914,1,0,0:0:0:0:
352,240,220985,1,0,0:0:0:0:
376,216,221057,1,10,0:0:0:0:
384,176,221128,1,0,0:0:0:0:
360,144,221200,1,0,0:0:0:0:
328,120,221271,1,0,0:0:0:0:
320,80,221342,1,10,0:0:0:0:
336,48,221414,2,2,B|384:48,3,40,0|0|2|0,0:0|0:0|0:0|0:0,0:0:0:0:
496,112,221914,5,2,0:0:0:0:
496,112,221985,1,0,0:0:0:0:
496,112,222057,1,0,0:0:0:0:
496,112,222128,1,0,0:0:0:0:
496,112,222200,1,2,0:0:0:0:
384,312,222485,5,2,0:0:0:0:
384,312,222557,1,0,0:0:0:0:
384,312,222628,1,0,0:0:0:0:
384,312,222700,1,0,0:0:0:0:
384,312,222771,1,2,0:0:0:0:
280,160,223057,5,10,0:0:0:0:
272,120,223128,1,0,0:0:0:0:
240,96,223200,1,0,0:0:0:0:
200,88,223271,1,0,0:0:0:0:
160,96,223342,1,10,0:0:0:0:
136,120,223414,1,0,0:0:0:0:
120,152,223485,1,0,0:0:0:0:
128,192,223557,1,0,0:0:0:0:
152,224,223628,1,10,0:0:0:0:
184,240,223700,2,2,B|176:288,3,40,0|0|0|0,0:0|0:0|0:0|0:0,0:0:0:0:
80,344,224200,5,2,0:0:0:0:
80,344,224271,1,0,0:0:0:0:
80,344,224342,1,0,0:0:0:0:
80,344,224414,1,0,0:0:0:0:
80,344,224485,1,2,0:0:0:0:
304,264,224771,5,2,0:0:0:0:
304,264,224842,1,0,0:0:0:0:
304,264,224914,1,0,0:0:0:0:
304,264,224985,1,0,0:0:0:0:
304,264,225057,1,2,0:0:0:0:
144,168,225342,5,10,0:0:0:0:
152,136,225414,1,0,0:0:0:0:
176,112,225485,1,0,0:0:0:0:
208,104,225557,1,0,0:0:0:0:
240,120,225628,1,10,0:0:0:0:
256,144,225700,1,0,0:0:0:0:
272,176,225771,1,0,0:0:0:0:
296,192,225842,1,0,0:0:0:0:
328,192,225914,5,10,0:0:0:0:
352,176,225985,1,2,0:0:0:0:
360,144,226057,1,2,0:0:0:0:
360,112,226128,1,2,0:0:0:0:
344,88,226200,1,2,0:0:0:0:
208,24,226485,5,2,0:0:0:0:
208,24,226557,1,0,0:0:0:0:
208,24,226628,1,0,0:0:0:0:
208,24,226700,1,0,0:0:0:0:
208,24,226771,1,2,0:0:0:0:
88,208,227057,5,2,0:0:0:0:
88,208,227128,1,0,0:0:0:0:
88,208,227200,1,0,0:0:0:0:
88,208,227271,1,0,0:0:0:0:
88,208,227342,1,2,0:0:0:0:
280,168,227628,6,0,B|312:200,3,40,2|0|2|0,0:0|0:0|0:0|0:0,0:0:0:0:
344,200,227914,2,0,B|384:176,3,40,2|0|2|0,0:0|0:0|0:0|0:0,0:0:0:0:
408,176,228200,1,2,0:0:0:0:
440,184,228271,1,2,0:0:0:0:
464,208,228342,1,2,0:0:0:0:
472,240,228414,1,2,0:0:0:0:
456,272,228485,1,2,0:0:0:0:
288,344,228771,5,10,0:0:0:0:
256,368,228842,1,0,0:0:0:0:
216,368,228914,1,0,0:0:0:0:
184,352,228985,1,0,0:0:0:0:
160,320,229057,1,10,0:0:0:0:
152,288,229128,1,0,0:0:0:0:
168,256,229200,1,0,0:0:0:0:
192,232,229271,1,0,0:0:0:0:
224,216,229342,6,0,B|216:176,3,40
256,120,229628,2,0,B|296:120,3,40
360,96,229914,5,10,0:0:0:0:
392,88,229985,1,0,0:0:0:0:
424,104,230057,1,0,0:0:0:0:
440,136,230128,1,0,0:0:0:0:
440,168,230200,1,10,0:0:0:0:
424,200,230271,1,0,0:0:0:0:
400,216,230342,1,0,0:0:0:0:
368,224,230414,1,0,0:0:0:0:
336,224,230485,5,10,0:0:0:0:
304,208,230557,1,0,0:0:0:0:
296,176,230628,1,0,0:0:0:0:
272,152,230700,1,0,0:0:0:0:
240,152,230771,1,10,0:0:0:0:
112,176,231057,5,10,0:0:0:0:
80,200,231128,1,0,0:0:0:0:
64,232,231200,1,0,0:0:0:0:
72,272,231271,1,0,0:0:0:0:
104,296,231342,1,10,0:0:0:0:
136,304,231414,1,0,0:0:0:0:
176,288,231485,1,0,0:0:0:0:
200,256,231557,1,0,0:0:0:0:
208,216,231628,6,0,B|256:200,3,40
232,136,231914,2,0,B|200:96,3,40
160,56,232200,5,10,0:0:0:0:
176,16,232271,1,0,0:0:0:0:
216,0,232342,1,0,0:0:0:0:
256,8,232414,1,0,0:0:0:0:
288,32,232485,1,10,0:0:0:0:
304,64,232557,1,0,0:0:0:0:
320,96,232628,1,0,0:0:0:0:
352,120,232700,1,0,0:0:0:0:
392,120,232771,6,2,B|464:56,1,80
432,216,233057,2,8,B|368:272,1,80
224,328,233342,6,2,B|144:328|136:272,1,80
64,248,233628,1,2,0:0:0:0:
144,184,233771,1,0,0:0:0:0:
56,136,233914,2,2,B|56:72|96:32,1,80
168,16,234200,1,0,0:0:0:0:
424,32,234485,6,2,B|448:64|424:120,1,80
344,112,234771,2,2,B|320:160|352:200,1,80
432,192,235057,2,2,B|456:240|424:288,1,80
360,336,235342,1,0,0:0:0:0:
216,352,235628,5,10,0:0:0:0:
176,344,235700,1,0,0:0:0:0:
144,320,235771,1,0,0:0:0:0:
136,280,235842,1,0,0:0:0:0:
144,240,235914,2,0,B|184:216,3,40,2|0|2|0,0:0|0:0|0:0|0:0,0:0:0:0:
208,192,236200,5,10,0:0:0:0:
224,160,236271,1,0,0:0:0:0:
216,120,236342,1,0,0:0:0:0:
184,96,236414,1,0,0:0:0:0:
152,72,236485,2,0,B|168:32,3,40,2|0|2|0,0:0|0:0|0:0|0:0,0:0:0:0:
200,8,236771,5,10,0:0:0:0:
240,0,236842,1,0,0:0:0:0:
280,16,236914,1,0,0:0:0:0:
304,48,236985,1,0,0:0:0:0:
312,88,237057,2,0,B|288:120,3,40,2|0|2|0,0:0|0:0|0:0|0:0,0:0:0:0:
296,152,237342,5,10,0:0:0:0:
320,184,237414,1,0,0:0:0:0:
352,208,237485,1,0,0:0:0:0:
392,216,237557,1,0,0:0:0:0:
424,208,237628,1,10,0:0:0:0:
480,96,237914,6,2,B|429:22|320:32,1,160
176,48,238485,2,2,B|128:88|128:128,1,80
200,176,238771,2,2,B|184:224|128:256,1,80
88,320,239057,6,0,B|120:368|176:368,1,80
312,328,239485,1,2,0:0:0:0:
400,208,239771,1,0,0:0:0:0:
328,160,239914,1,0,0:0:0:0:
264,96,240057,6,2,B|192:40|80:96,1,160
48,144,240485,2,2,B|48:208|120:224,1,80
184,192,240771,2,2,B|240:208|240:272,1,80
240,344,241057,2,2,B|304:376|344:336,1,80
416,320,241342,6,0,B|424:216,1,80
400,160,241628,1,2,0:0:0:0:
464,104,241771,1,0,0:0:0:0:
304,32,242057,1,0,0:0:0:0:
232,64,242200,1,0,0:0:0:0:
272,136,242342,1,0,0:0:0:0:
312,208,242485,6,2,B|274:292|180:276,1,160
72,240,242914,2,2,B|48:139|143:96,1,160
200,32,243342,2,2,B|272:88|288:40,1,80
376,56,243628,5,10,0:0:0:0:
416,64,243700,1,0,0:0:0:0:
448,88,243771,1,0,0:0:0:0:
464,120,243842,1,0,0:0:0:0:
464,160,243914,1,10,0:0:0:0:
440,192,243985,1,0,0:0:0:0:
408,208,244057,1,0,0:0:0:0:
368,208,244128,1,0,0:0:0:0:
336,192,244200,1,10,0:0:0:0:
304,168,244271,2,0,B|272:216,3,40
192,320,244771,5,0,0:0:0:0:
120,248,244914,1,0,0:0:0:0:
184,168,245057,2,2,B|128:120|160:72,1,80
104,32,245342,2,2,B|176:8|208:48,1,80
272,32,245628,2,0,B|256:96|192:96,1,80
128,96,245914,5,10,0:0:0:0:
96,104,245985,1,0,0:0:0:0:
72,120,246057,1,0,0:0:0:0:
48,144,246128,1,0,0:0:0:0:
40,176,246200,1,10,0:0:0:0:
48,208,246271,1,0,0:0:0:0:
72,232,246342,1,0,0:0:0:0:
88,264,246414,1,0,0:0:0:0:
88,296,246485,6,0,B|64:328,3,40
80,352,246771,2,0,B|120:352,3,40
152,352,247057,5,10,0:0:0:0:
184,336,247128,1,0,0:0:0:0:
208,312,247200,1,0,0:0:0:0:
216,272,247271,1,0,0:0:0:0:
200,240,247342,1,10,0:0:0:0:
168,216,247414,1,0,0:0:0:0:
144,184,247485,1,0,0:0:0:0:
152,144,247557,1,0,0:0:0:0:
176,112,247628,6,0,B|216:112,3,40,2|0|2|0,0:0|0:0|0:0|0:0,0:0:0:0:
256,56,247914,2,2,B|304:80,3,40
352,104,248200,5,10,0:0:0:0:
384,112,248271,1,0,0:0:0:0:
416,136,248342,1,0,0:0:0:0:
424,168,248414,1,0,0:0:0:0:
408,200,248485,1,10,0:0:0:0:
384,224,248557,1,0,0:0:0:0:
352,232,248628,1,0,0:0:0:0:
320,216,248700,1,0,0:0:0:0:
296,192,248771,6,0,B|256:192,3,40,2|0|2|0,0:0|0:0|0:0|0:0,0:0:0:0:
192,216,249057,2,0,B|160:184,3,40,2|0|2|0,0:0|0:0|0:0|0:0,0:0:0:0:
112,144,249342,5,10,0:0:0:0:
80,128,249414,1,0,0:0:0:0:
56,96,249485,1,0,0:0:0:0:
56,64,249557,1,0,0:0:0:0:
72,32,249628,1,10,0:0:0:0:
104,16,249700,1,0,0:0:0:0:
136,16,249771,1,0,0:0:0:0:
160,40,249842,1,0,0:0:0:0:
184,64,249914,6,0,B|224:64,3,40,2|0|2|0,0:0|0:0|0:0|0:0,0:0:0:0:
288,88,250200,2,0,B|296:128,3,40,2|2|2|2,0:0|0:0|0:0|0:0,0:0:0:0:
336,184,250485,5,10,0:0:0:0:
368,208,250557,1,0,0:0:0:0:
408,208,250628,1,0,0:0:0:0:
448,216,250700,1,0,0:0:0:0:
480,240,250771,1,10,0:0:0:0:
504,280,250842,1,0,0:0:0:0:
496,320,250914,1,0,0:0:0:0:
472,352,250985,1,0,0:0:0:0:
440,368,251057,6,0,B|392:368,3,40,2|0|2|0,0:0|0:0|0:0|0:0,0:0:0:0:
344,328,251342,2,0,B|312:288,3,40,2|0|2|0,0:0|0:0|0:0|0:0,0:0:0:0:
264,256,251628,5,10,0:0:0:0:
240,232,251700,1,0,0:0:0:0:
200,216,251771,1,0,0:0:0:0:
160,208,251842,1,0,0:0:0:0:
128,224,251914,1,10,0:0:0:0:
96,248,251985,1,0,0:0:0:0:
64,264,252057,1,0,0:0:0:0:
32,264,252128,1,0,0:0:0:0:
0,240,252200,6,0,B|0:192,3,40,2|2|2|2,0:0|0:0|0:0|0:0,0:0:0:0:
32,136,252485,2,0,B|72:120,3,40,2|0|2|0,0:0|0:0|0:0|0:0,0:0:0:0:
128,80,252771,5,10,0:0:0:0:
160,80,252842,1,0,0:0:0:0:
192,96,252914,1,0,0:0:0:0:
216,120,252985,1,0,0:0:0:0:
248,136,253057,1,10,0:0:0:0:
280,128,253128,1,0,0:0:0:0:
304,104,253200,1,0,0:0:0:0:
320,72,253271,1,0,0:0:0:0:
328,40,253342,6,0,B|368:16,3,40,2|0|2|0,0:0|0:0|0:0|0:0,0:0:0:0:
432,24,253628,2,0,B|448:64,3,40,2|0|2|0,0:0|0:0|0:0|0:0,0:0:0:0:
464,128,253914,5,10,0:0:0:0:
464,160,253985,1,0,0:0:0:0:
448,192,254057,1,0,0:0:0:0:
416,208,254128,1,0,0:0:0:0:
384,200,254200,1,10,0:0:0:0:
352,184,254271,1,0,0:0:0:0:
320,176,254342,1,0,0:0:0:0:
288,184,254414,1,0,0:0:0:0:
256,208,254485,6,0,B|232:256,3,40,2|0|2|0,0:0|0:0|0:0|0:0,0:0:0:0:
176,280,254771,2,0,B|144:248,3,40,2|0|2|0,0:0|0:0|0:0|0:0,0:0:0:0:
88,216,255057,5,10,0:0:0:0:
56,192,255128,1,0,0:0:0:0:
32,168,255200,1,0,0:0:0:0:
16,136,255271,1,0,0:0:0:0:
8,104,255342,1,10,0:0:0:0:
16,72,255414,1,0,0:0:0:0:
40,48,255485,1,0,0:0:0:0:
72,32,255557,1,0,0:0:0:0:
104,32,255628,6,0,B|136:56,3,40,2|2|2|2,0:0|0:0|0:0|0:0,0:0:0:0:
208,64,255914,2,0,B|184:120,3,40,2|0|2|0,0:0|0:0|0:0|0:0,0:0:0:0:
192,168,256200,5,10,0:0:0:0:
208,200,256271,1,0,0:0:0:0:
232,224,256342,1,0,0:0:0:0:
264,240,256414,1,0,0:0:0:0:
296,240,256485,2,0,B|328:208,3,40,2|0|2|0,0:0|0:0|0:0|0:0,0:0:0:0:
368,160,256771,6,0,B|432:184,3,40,2|0|2|0,0:0|0:0|0:0|0:0,0:0:0:0:
472,160,257057,2,0,B|456:104,3,40,2|0|2|0,0:0|0:0|0:0|0:0,0:0:0:0:
424,64,257342,5,10,0:0:0:0:
408,32,257414,1,0,0:0:0:0:
376,16,257485,1,0,0:0:0:0:
344,16,257557,1,0,0:0:0:0:
312,32,257628,2,0,B|288:64,3,40,2|0|2|0,0:0|0:0|0:0|0:0,0:0:0:0:
224,96,257914,6,0,B|184:64,3,40,2|0|2|0,0:0|0:0|0:0|0:0,0:0:0:0:
120,80,258200,2,0,B|120:128,3,40,2|0|2|0,0:0|0:0|0:0|0:0,0:0:0:0:
96,184,258485,5,10,0:0:0:0:
80,224,258557,1,0,0:0:0:0:
88,256,258628,1,0,0:0:0:0:
112,288,258700,1,0,0:0:0:0:
144,304,258771,2,0,B|176:280,3,40,2|0|2|0,0:0|0:0|0:0|0:0,0:0:0:0:
240,264,259057,6,0,B|272:296,3,40,2|2|2|2,0:0|0:0|0:0|0:0,0:0:0:0:
328,328,259342,2,0,B|352:288,3,40,2|0|2|0,0:0|0:0|0:0|0:0,0:0:0:0:
400,240,259628,5,10,0:0:0:0:
432,224,259700,1,0,0:0:0:0:
456,200,259771,1,0,0:0:0:0:
464,160,259842,1,0,0:0:0:0:
448,128,259914,2,0,B|408:112,3,40,2|0|2|0,0:0|0:0|0:0|0:0,0:0:0:0:
344,128,260200,6,0,B|328:80,3,40,2|0|2|0,0:0|0:0|0:0|0:0,0:0:0:0:
288,40,260485,2,0,B|256:64,3,40,2|0|2|0,0:0|0:0|0:0|0:0,0:0:0:0:
200,104,260771,5,10,0:0:0:0:
176,120,260842,1,0,0:0:0:0:
144,128,260914,1,0,0:0:0:0:
112,120,260985,1,0,0:0:0:0:
88,104,261057,1,10,0:0:0:0:
56,104,261128,1,0,0:0:0:0:
32,120,261200,1,0,0:0:0:0:
24,152,261271,1,0,0:0:0:0:
32,184,261342,5,10,0:0:0:0:
48,208,261414,1,0,0:0:0:0:
80,216,261485,1,0,0:0:0:0:
112,208,261557,1,0,0:0:0:0:
144,208,261628,1,10,0:0:0:0:
160,232,261700,1,0,0:0:0:0:
168,264,261771,1,0,0:0:0:0:
152,288,261842,1,0,0:0:0:0:
152,320,261914,6,0,B|184:344,3,40,2|0|2|0,0:0|0:0|0:0|0:0,0:0:0:0:
216,344,262200,2,0,B|248:320,3,40,2|0|2|0,0:0|0:0|0:0|0:0,0:0:0:0:
280,320,262485,6,0,B|320:344,3,40,2|2|2|2,0:0|0:0|0:0|0:0,0:0:0:0:
344,344,262771,2,0,B|376:320,3,40,2|0|2|0,0:0|0:0|0:0|0:0,0:0:0:0:
400,296,263057,5,10,0:0:0:0:
400,264,263128,1,0,0:0:0:0:
384,240,263200,1,0,0:0:0:0:
360,224,263271,1,0,0:0:0:0:
328,216,263342,1,10,0:0:0:0:
304,232,263414,1,0,0:0:0:0:
272,240,263485,1,0,0:0:0:0:
248,224,263557,1,0,0:0:0:0:
232,200,263628,5,10,0:0:0:0:
232,168,263700,1,0,0:0:0:0:
248,136,263771,1,0,0:0:0:0:
280,128,263842,1,0,0:0:0:0:
312,128,263914,1,10,0:0:0:0:
336,112,263985,1,0,0:0:0:0:
352,88,264057,1,0,0:0:0:0:
336,64,264128,1,0,0:0:0:0:
312,40,264200,6,0,B|272:48,3,40,2|0|2|0,0:0|0:0|0:0|0:0,0:0:0:0:
240,48,264485,2,0,B|200:32,3,40,2|2|2|2,0:0|0:0|0:0|0:0,0:0:0:0:
176,32,264771,6,0,B|144:56,3,40,2|2|2|2,0:0|0:0|0:0|0:0,0:0:0:0:
112,56,265057,2,0,B|96:96,3,40,2|0|2|0,0:0|0:0|0:0|0:0,0:0:0:0:
80,120,265342,5,10,0:0:0:0:
56,152,265414,1,0,0:0:0:0:
48,192,265485,1,0,0:0:0:0:
64,224,265557,1,0,0:0:0:0:
96,248,265628,1,10,0:0:0:0:
128,256,265700,1,0,0:0:0:0:
168,240,265771,2,2,B|184:192,1,40
232,152,265914,5,10,0:0:0:0:
264,136,265985,1,0,0:0:0:0:
296,136,266057,1,0,0:0:0:0:
328,152,266128,1,0,0:0:0:0:
344,184,266200,1,10,0:0:0:0:
336,216,266271,1,0,0:0:0:0:
304,240,266342,2,2,B|272:264,1,40
232,320,266485,5,10,0:0:0:0:
248,352,266557,1,0,0:0:0:0:
280,376,266628,1,0,0:0:0:0:
320,376,266700,1,0,0:0:0:0:
352,352,266771,1,10,0:0:0:0:
360,312,266842,1,0,0:0:0:0:
352,272,266914,2,2,B|392:256,1,40
456,240,267057,5,10,0:0:0:0:
488,216,267128,1,0,0:0:0:0:
504,176,267200,1,0,0:0:0:0:
488,144,267271,1,0,0:0:0:0:
456,120,267342,1,10,0:0:0:0:
416,120,267414,1,0,0:0:0:0:
384,136,267485,2,2,B|352:160,1,40
288,184,267628,5,10,0:0:0:0:
256,208,267700,1,0,0:0:0:0:
224,224,267771,1,0,0:0:0:0:
184,216,267842,1,0,0:0:0:0:
152,192,267914,2,0,B|144:152,3,40,2|2|2|2,0:0|0:0|0:0|0:0,0:0:0:0:
136,120,268200,5,10,0:0:0:0:
112,88,268271,1,0,0:0:0:0:
80,64,268342,1,0,0:0:0:0:
40,64,268414,1,0,0:0:0:0:
8,88,268485,2,0,B|0:136,3,40,2|0|2|0,0:0|0:0|0:0|0:0,0:0:0:0:
8,160,268771,5,10,0:0:0:0:
32,192,268842,1,0,0:0:0:0:
56,216,268914,1,0,0:0:0:0:
72,248,268985,1,0,0:0:0:0:
72,288,269057,2,0,B|48:320,3,40,2|0|2|0,0:0|0:0|0:0|0:0,0:0:0:0:
32,352,269342,5,10,0:0:0:0:
56,384,269414,1,0,0:0:0:0:
96,384,269485,1,0,0:0:0:0:
128,360,269557,1,0,0:0:0:0:
144,320,269628,2,0,B|192:312,3,40,2|0|2|0,0:0|0:0|0:0|0:0,0:0:0:0:
216,304,269914,5,10,0:0:0:0:
256,312,269985,1,0,0:0:0:0:
296,304,270057,1,0,0:0:0:0:
320,272,270128,1,0,0:0:0:0:
312,232,270200,1,10,0:0:0:0:
288,200,270271,1,0,0:0:0:0:
264,176,270342,2,2,B|288:136,1,40
336,96,270485,5,10,0:0:0:0:
368,104,270557,1,0,0:0:0:0:
400,128,270628,1,0,0:0:0:0:
416,160,270700,1,0,0:0:0:0:
416,200,270771,1,10,0:0:0:0:
392,224,270842,1,0,0:0:0:0:
368,256,270914,2,2,B|384:304,1,40
368,360,271057,5,10,0:0:0:0:
336,376,271128,1,0,0:0:0:0:
296,384,271200,1,0,0:0:0:0:
256,376,271271,1,0,0:0:0:0:
224,352,271342,1,10,0:0:0:0:
208,320,271414,1,0,0:0:0:0:
208,280,271485,2,2,B|224:240,1,40
224,176,271628,5,10,0:0:0:0:
216,136,271700,1,0,0:0:0:0:
192,104,271771,1,0,0:0:0:0:
160,88,271842,1,0,0:0:0:0:
120,80,271914,1,10,0:0:0:0:
88,88,271985,1,0,0:0:0:0:
56,112,272057,2,2,B|24:152,1,40
8,208,272200,5,10,0:0:0:0:
24,240,272271,1,0,0:0:0:0:
48,264,272342,1,0,0:0:0:0:
80,272,272414,1,0,0:0:0:0:
112,264,272485,2,0,B|144:240,3,40,2|2|2|2,0:0|0:0|0:0|0:0,0:0:0:0:
168,216,272771,5,10,0:0:0:0:
168,176,272842,1,0,0:0:0:0:
184,144,272914,1,0,0:0:0:0:
216,120,272985,1,0,0:0:0:0:
256,120,273057,2,0,B|288:152,3,40,2|0|2|0,0:0|0:0|0:0|0:0,0:0:0:0:
312,176,273342,5,10,0:0:0:0:
344,184,273414,1,0,0:0:0:0:
376,168,273485,1,0,0:0:0:0:
392,136,273557,1,0,0:0:0:0:
376,96,273628,2,0,B|416:80,3,40,2|0|2|0,0:0|0:0|0:0|0:0,0:0:0:0:
440,64,273914,5,10,0:0:0:0:
448,24,273985,1,0,0:0:0:0:
416,0,274057,1,0,0:0:0:0:
376,8,274128,1,0,0:0:0:0:
336,16,274200,2,0,B|296:16,3,40,2|2|2|2,0:0|0:0|0:0|0:0,0:0:0:0:
224,16,274485,6,0,B|192:48,3,40,2|0|2|0,0:0|0:0|0:0|0:0,0:0:0:0:
160,104,274771,2,0,B|184:144,3,40
128,192,275057,2,0,B|112:232,3,40,2|0|2|0,0:0|0:0|0:0|0:0,0:0:0:0:
184,248,275342,2,0,B|216:272,3,40
272,320,275628,6,0,B|312:288,3,40,2|0|2|0,0:0|0:0|0:0|0:0,0:0:0:0:
360,248,275914,2,0,B|400:272,3,40
464,248,276200,2,0,B|456:200,3,40,2|0|2|0,0:0|0:0|0:0|0:0,0:0:0:0:
432,144,276485,2,0,B|392:128,3,40
336,88,276771,6,0,B|280:104,3,40,2|0|2|0,0:0|0:0|0:0|0:0,0:0:0:0:
240,144,277057,2,0,B|200:104,3,40
152,80,277342,2,0,B|112:112,3,40,2|2|2|2,0:0|0:0|0:0|0:0,0:0:0:0:
48,112,277628,2,0,B|64:160,3,40
32,216,277914,6,0,B|96:240,3,40,2|0|2|0,0:0|0:0|0:0|0:0,0:0:0:0:
136,208,278200,2,0,B|168:248,3,40
208,296,278485,2,0,B|248:272,3,40,2|0|2|0,0:0|0:0|0:0|0:0,0:0:0:0:
304,240,278771,2,0,B|336:264,3,40
408,264,279057,5,10,0:0:0:0:
440,248,279128,1,0,0:0:0:0:
464,224,279200,1,0,0:0:0:0:
472,184,279271,1,0,0:0:0:0:
448,152,279342,1,10,0:0:0:0:
416,136,279414,1,0,0:0:0:0:
384,112,279485,1,0,0:0:0:0:
368,80,279557,1,0,0:0:0:0:
344,56,279628,6,0,B|296:64,3,40,2|0|2|0,0:0|0:0|0:0|0:0,0:0:0:0:
272,64,279914,2,0,B|232:40,3,40,2|2|2|2,0:0|0:0|0:0|0:0,0:0:0:0:
208,32,280200,5,10,0:0:0:0:
176,24,280271,1,0,0:0:0:0:
144,16,280342,1,0,0:0:0:0:
112,24,280414,1,0,0:0:0:0:
80,40,280485,1,10,0:0:0:0:
56,64,280557,1,0,0:0:0:0:
48,96,280628,1,0,0:0:0:0:
56,128,280700,1,0,0:0:0:0:
80,160,280771,6,0,B|136:136,3,40,2|0|2|0,0:0|0:0|0:0|0:0,0:0:0:0:
152,152,281057,2,0,B|160:200,3,40,2|0|2|0,0:0|0:0|0:0|0:0,0:0:0:0:
160,224,281342,5,2,0:0:0:0:
288,280,281628,1,2,0:0:0:0:
344,144,281914,1,2,0:0:0:0:
464,216,282200,1,2,0:0:0:0:
400,336,282485,5,2,0:0:0:0:
96,232,282771,1,2,0:0:0:0:
400,152,283057,1,2,0:0:0:0:
96,48,283342,1,2,0:0:0:0:
328,24,283628,6,2,B|256:72|296:112,1,80
336,168,283914,2,0,B|360:240|296:256,1,80
232,272,284200,2,2,B|176:312|192:352,1,80
96,352,284485,2,0,B|48:304|72:264,1,80
40,120,284771,6,2,B|104:80|96:32,1,80
256,16,285200,1,2,0:0:0:0:
336,32,285342,1,0,0:0:0:0:
368,48,285414,1,0,0:0:0:0:
392,72,285485,1,0,0:0:0:0:
400,112,285557,1,0,0:0:0:0:
384,144,285628,1,0,0:0:0:0:
368,256,285914,5,10,0:0:0:0:
384,288,285985,1,0,0:0:0:0:
384,328,286057,1,0,0:0:0:0:
368,360,286128,1,0,0:0:0:0:
336,384,286200,1,10,0:0:0:0:
296,384,286271,1,0,0:0:0:0:
264,360,286342,1,2,0:0:0:0:
224,288,286485,5,10,0:0:0:0:
216,256,286557,1,0,0:0:0:0:
200,224,286628,1,0,0:0:0:0:
176,200,286700,1,0,0:0:0:0:
144,184,286771,1,10,0:0:0:0:
112,184,286842,1,0,0:0:0:0:
80,208,286914,1,2,0:0:0:0:
24,272,287057,6,0,B|48:312,3,40,2|2|2|2,0:0|0:0|0:0|0:0,0:0:0:0:
72,320,287342,2,0,B|128:312,3,40
144,320,287628,6,0,B|176:352,3,40,2|0|2|0,0:0|0:0|0:0|0:0,0:0:0:0:
208,360,287914,2,0,B|256:352,3,40
280,344,288200,5,10,0:0:0:0:
320,328,288271,1,0,0:0:0:0:
352,304,288342,1,0,0:0:0:0:
368,264,288414,1,0,0:0:0:0:
368,216,288485,1,10,0:0:0:0:
336,184,288557,1,0,0:0:0:0:
296,168,288628,1,0,0:0:0:0:
256,144,288700,1,0,0:0:0:0:
240,104,288771,5,10,0:0:0:0:
256,64,288842,1,0,0:0:0:0:
288,40,288914,1,0,0:0:0:0:
328,40,288985,1,0,0:0:0:0:
360,56,289057,2,0,B|384:96,3,40,2|0|2|0,0:0|0:0|0:0|0:0,0:0:0:0:
400,120,289342,5,10,0:0:0:0:
424,152,289414,1,0,0:0:0:0:
432,192,289485,1,0,0:0:0:0:
416,232,289557,1,0,0:0:0:0:
376,240,289628,1,10,0:0:0:0:
336,224,289700,1,0,0:0:0:0:
296,208,289771,1,0,0:0:0:0:
256,208,289842,1,0,0:0:0:0:
224,224,289914,5,10,0:0:0:0:
200,256,289985,1,0,0:0:0:0:
192,296,290057,1,0,0:0:0:0:
216,328,290128,1,0,0:0:0:0:
248,344,290200,1,10,0:0:0:0:
416,320,290485,6,0,B|376:288,3,40
368,272,290771,2,0,B|368:224,3,40,2|0|2|0,0:0|0:0|0:0|0:0,0:0:0:0:
352,208,291057,2,0,B|312:192,3,40
296,176,291342,2,0,B|296:128,3,40,2|0|2|0,0:0|0:0|0:0|0:0,0:0:0:0:
288,104,291628,5,10,0:0:0:0:
272,80,291700,1,0,0:0:0:0:
248,64,291771,1,0,0:0:0:0:
216,56,291842,1,0,0:0:0:0:
184,64,291914,1,10,0:0:0:0:
160,80,291985,1,0,0:0:0:0:
144,104,292057,1,0,0:0:0:0:
136,136,292128,1,0,0:0:0:0:
152,168,292200,5,10,0:0:0:0:
168,192,292271,1,0,0:0:0:0:
176,224,292342,1,0,0:0:0:0:
160,248,292414,1,0,0:0:0:0:
136,264,292485,1,10,0:0:0:0:
104,272,292557,1,0,0:0:0:0:
72,264,292628,1,0,0:0:0:0:
40,272,292700,1,0,0:0:0:0:
16,296,292771,6,0,B|48:336,3,40,2|0|2|0,0:0|0:0|0:0|0:0,0:0:0:0:
64,352,293057,2,0,B|112:352,3,40,2|0|2|0,0:0|0:0|0:0|0:0,0:0:0:0:
136,344,293342,2,0,B|176:344,3,40,2|0|2|0,0:0|0:0|0:0|0:0,0:0:0:0:
208,336,293628,2,0,B|248:336,3,40,2|0|2|0,0:0|0:0|0:0|0:0,0:0:0:0:
272,320,293914,6,2,B|352:304|352:256,1,80
408,256,294200,2,0,B|360:208|312:208,1,80
392,120,294485,2,2,B|328:128|288:168,1,80
264,40,294771,2,0,B|232:104|264:144,1,80
248,192,295057,5,10,0:0:0:0:
232,232,295128,1,0,0:0:0:0:
200,256,295200,1,0,0:0:0:0:
160,264,295271,1,0,0:0:0:0:
120,248,295342,1,10,0:0:0:0:
104,216,295414,1,0,0:0:0:0:
112,176,295485,1,0,0:0:0:0:
144,152,295557,1,0,0:0:0:0:
176,136,295628,5,10,0:0:0:0:
192,96,295700,1,0,0:0:0:0:
176,56,295771,1,0,0:0:0:0:
144,32,295842,1,0,0:0:0:0:
104,32,295914,1,10,0:0:0:0:
256,192,296271,12,0,297128,0:0:0:0:
256,192,297342,5,10,0:0:0:0:
296,184,297414,1,0,0:0:0:0:
328,152,297485,1,0,0:0:0:0:
328,112,297557,1,0,0:0:0:0:
304,80,297628,1,10,0:0:0:0:
264,64,297700,1,0,0:0:0:0:
224,72,297771,1,0,0:0:0:0:
192,96,297842,1,0,0:0:0:0:
168,128,297914,5,10,0:0:0:0:
160,168,297985,1,0,0:0:0:0:
176,208,298057,1,0,0:0:0:0:
208,240,298128,1,0,0:0:0:0:
224,280,298200,1,10,0:0:0:0:
216,320,298271,1,0,0:0:0:0:
184,344,298342,1,0,0:0:0:0:
144,344,298414,1,0,0:0:0:0:
112,328,298485,6,0,B|88:288,3,40,2|0|2|0,0:0|0:0|0:0|0:0,0:0:0:0:
80,264,298771,2,0,B|96:224,3,40,2|2|2|2,0:0|0:0|0:0|0:0,0:0:0:0:
88,192,299057,5,2,0:0:0:0:
64,160,299128,1,2,0:0:0:0:
48,128,299200,1,2,0:0:0:0:
56,88,299271,1,2,0:0:0:0:
80,56,299342,1,2,0:0:0:0:
216,16,299628,6,0,B|248:40,3,40,2|0|2|0,0:0|0:0|0:0|0:0,0:0:0:0:
344,32,299914,2,0,B|312:72,3,40,2|0|2|0,0:0|0:0|0:0|0:0,0:0:0:0:
320,160,300200,2,2,B|272:120,3,40
192,144,300485,2,2,B|224:104,3,40
256,192,300771,12,0,301700,0:0:0:0:
304,136,301914,5,10,0:0:0:0:
336,152,301985,1,0,0:0:0:0:
360,176,302057,1,0,0:0:0:0:
368,208,302128,1,0,0:0:0:0:
352,240,302200,1,10,0:0:0:0:
320,256,302271,1,0,0:0:0:0:
288,256,302342,1,0,0:0:0:0:
256,264,302414,1,0,0:0:0:0:
232,288,302485,5,10,0:0:0:0:
224,320,302557,1,0,0:0:0:0:
240,352,302628,1,0,0:0:0:0:
272,368,302700,1,0,0:0:0:0:
304,368,302771,1,10,0:0:0:0:
432,288,303057,5,10,0:0:0:0:
456,256,303128,1,0,0:0:0:0:
456,216,303200,1,0,0:0:0:0:
440,184,303271,1,0,0:0:0:0:
416,160,303342,1,10,0:0:0:0:
384,144,303414,1,0,0:0:0:0:
352,128,303485,1,0,0:0:0:0:
320,120,303557,1,0,0:0:0:0:
288,112,303628,5,10,0:0:0:0:
256,96,303700,1,0,0:0:0:0:
232,72,303771,1,0,0:0:0:0:
208,48,303842,1,0,0:0:0:0:
176,32,303914,1,10,0:0:0:0:
40,64,304200,6,0,B|16:104,3,40,2|0|2|0,0:0|0:0|0:0|0:0,0:0:0:0:
64,152,304485,2,0,B|96:184,3,40,2|0|2|0,0:0|0:0|0:0|0:0,0:0:0:0:
128,240,304771,2,0,B|104:272,3,40,2|0|2|0,0:0|0:0|0:0|0:0,0:0:0:0:
72,336,305057,2,0,B|120:352,3,40,2|0|2|0,0:0|0:0|0:0|0:0,0:0:0:0:
184,360,305342,5,10,0:0:0:0:
224,352,305414,1,0,0:0:0:0:
248,320,305485,1,0,0:0:0:0:
248,280,305557,1,0,0:0:0:0:
232,240,305628,1,10,0:0:0:0:
232,200,305700,1,0,0:0:0:0:
256,168,305771,1,2,0:0:0:0:
328,128,305914,5,10,0:0:0:0:
360,112,305985,1,0,0:0:0:0:
400,112,306057,1,0,0:0:0:0:
432,128,306128,1,0,0:0:0:0:
448,160,306200,1,10,0:0:0:0:
448,200,306271,1,0,0:0:0:0:
416,224,306342,1,2,0:0:0:0:
352,280,306485,6,2,B|288:312|240:312,1,80
192,288,306771,1,0,0:0:0:0:
112,240,306914,2,2,B|71:148|128:56,1,160
192,40,307342,2,2,B|256:64|288:48,1,80
440,80,307628,6,2,B|456:144|400:160,1,80
336,200,307914,2,2,B|272:216|272:128,1,80
288,72,308200,2,2,B|312:16|376:48,1,80
456,56,308485,1,0,0:0:0:0:
296,304,308771,5,2,0:0:0:0:
192,336,308914,1,0,0:0:0:0:
88,280,309057,1,2,0:0:0:0:
56,176,309200,2,2,B|64:72|192:88,1,160
296,88,309628,2,2,B|256:160|312:168,1,80
472,192,309914,6,2,B|440:256|392:248,1,80
344,176,310200,2,2,B|280:184|272:248,1,80
192,288,310485,1,10,0:0:0:0:
160,304,310557,1,0,0:0:0:0:
120,304,310628,1,0,0:0:0:0:
96,280,310700,1,0,0:0:0:0:
96,240,310771,1,10,0:0:0:0:
112,208,310842,1,0,0:0:0:0:
112,168,310914,1,0,0:0:0:0:
88,136,310985,1,0,0:0:0:0:
64,112,311057,5,8,0:0:0:0:
64,16,311200,1,0,0:0:0:0:
160,24,311342,2,2,B|240:64,1,80
320,72,311628,1,0,0:0:0:0:
320,72,311771,2,2,B|336:160,1,80
368,224,312057,1,2,0:0:0:0:
424,336,312200,5,0,0:0:0:0:
424,336,312342,2,2,B|360:352|320:328,1,80
256,328,312628,1,2,0:0:0:0:
176,272,312771,2,2,B|128:208,1,80
224,176,313057,2,2,B|240:88,1,80
376,16,313342,6,2,B|432:56|424:96,1,80
320,120,313628,2,2,B|304:184|352:216,1,80
432,176,313914,2,2,B|456:256|400:272,1,80
344,312,314200,2,0,B|288:360|240:328,1,80
144,240,314485,6,0,B|96:192|96:136,3,80
240,112,315057,2,0,B|288:160|288:216,3,80
352,280,315628,5,10,0:0:0:0:
336,312,315700,1,0,0:0:0:0:
312,336,315771,1,0,0:0:0:0:
280,352,315842,1,0,0:0:0:0:
248,360,315914,1,10,0:0:0:0:
216,360,315985,1,0,0:0:0:0:
184,352,316057,1,0,0:0:0:0:
160,328,316128,1,0,0:0:0:0:
144,296,316200,2,0,B|104:288,3,40,2|0|2|0,0:0|0:0|0:0|0:0,0:0:0:0:
72,280,316485,6,0,B|64:216|80:184,1,80,2|0,0:0|0:0,0:0:0:0:
120,104,316771,5,10,0:0:0:0:
136,80,316842,1,0,0:0:0:0:
160,56,316914,1,0,0:0:0:0:
184,40,316985,1,0,0:0:0:0:
216,32,317057,1,10,0:0:0:0:
248,32,317128,1,0,0:0:0:0:
280,40,317200,1,0,0:0:0:0:
304,56,317271,1,0,0:0:0:0:
328,80,317342,2,0,B|368:64,3,40,2|0|2|0,0:0|0:0|0:0|0:0,0:0:0:0:
400,72,317628,6,0,B|424:144|400:176,1,80,0|2,0:0|0:0,0:0:0:0:
432,256,317914,5,10,0:0:0:0:
416,288,317985,1,0,0:0:0:0:
392,312,318057,1,0,0:0:0:0:
360,328,318128,1,0,0:0:0:0:
328,336,318200,1,10,0:0:0:0:
296,328,318271,1,0,0:0:0:0:
264,304,318342,1,0,0:0:0:0:
248,280,318414,1,0,0:0:0:0:
224,256,318485,6,0,B|184:240,3,40
160,240,318771,2,0,B|120:272,3,40
104,280,319057,5,10,0:0:0:0:
72,288,319128,1,0,0:0:0:0:
40,272,319200,1,0,0:0:0:0:
24,240,319271,1,0,0:0:0:0:
16,208,319342,1,10,0:0:0:0:
24,176,319414,1,0,0:0:0:0:
48,152,319485,1,0,0:0:0:0:
80,144,319557,1,0,0:0:0:0:
104,120,319628,6,0,B|80:80,3,40
88,48,319914,2,0,B|128:16,3,40
144,16,320200,5,10,0:0:0:0:
160,48,320271,1,0,0:0:0:0:
176,80,320342,1,0,0:0:0:0:
208,96,320414,1,0,0:0:0:0:
232,120,320485,1,10,0:0:0:0:
240,160,320557,1,0,0:0:0:0:
256,192,320628,1,0,0:0:0:0:
288,208,320700,1,0,0:0:0:0:
320,208,320771,6,0,B|352:184,3,40,2|0|2|0,0:0|0:0|0:0|0:0,0:0:0:0:
384,184,321057,2,0,B|408:216,3,40,2|0|2|0,0:0|0:0|0:0|0:0,0:0:0:0:
424,240,321342,5,10,0:0:0:0:
432,280,321414,1,0,0:0:0:0:
408,312,321485,1,0,0:0:0:0:
376,328,321557,1,0,0:0:0:0:
336,328,321628,1,10,0:0:0:0:
304,312,321700,1,0,0:0:0:0:
280,280,321771,1,0,0:0:0:0:
248,264,321842,1,0,0:0:0:0:
208,272,321914,6,0,B|176:296,3,40,2|0|2|0,0:0|0:0|0:0|0:0,0:0:0:0:
144,304,322200,2,0,B|96:280,3,40,2|0|2|0,0:0|0:0|0:0|0:0,0:0:0:0:
80,264,322485,5,10,0:0:0:0:
56,232,322557,1,0,0:0:0:0:
48,192,322628,1,0,0:0:0:0:
64,160,322700,1,0,0:0:0:0:
88,136,322771,1,10,0:0:0:0:
120,120,322842,1,0,0:0:0:0:
144,96,322914,1,0,0:0:0:0:
144,56,322985,1,0,0:0:0:0:
136,24,323057,6,0,B|184:16,3,40,2|0|2|0,0:0|0:0|0:0|0:0,0:0:0:0:
208,24,323342,2,0,B|240:48,3,40,2|0|2|0,0:0|0:0|0:0|0:0,0:0:0:0:
264,72,323628,5,10,0:0:0:0:
288,96,323700,1,0,0:0:0:0:
304,128,323771,1,0,0:0:0:0:
296,168,323842,1,0,0:0:0:0:
272,184,323914,1,10,0:0:0:0:
240,200,323985,1,0,0:0:0:0:
216,224,324057,1,0,0:0:0:0:
208,256,324128,1,0,0:0:0:0:
224,288,324200,6,0,B|272:304,3,40,2|0|2|0,0:0|0:0|0:0|0:0,0:0:0:0:
288,320,324485,2,0,B|312:352,3,40,2|2|2|2,0:0|0:0|0:0|0:0,0:0:0:0:
344,368,324771,5,10,0:0:0:0:
384,360,324842,1,0,0:0:0:0:
416,336,324914,1,0,0:0:0:0:
432,296,324985,1,0,0:0:0:0:
416,256,325057,1,10,0:0:0:0:
384,232,325128,1,0,0:0:0:0:
352,200,325200,1,0,0:0:0:0:
352,160,325271,1,0,0:0:0:0:
376,128,325342,5,10,0:0:0:0:
400,96,325414,1,0,0:0:0:0:
384,56,325485,1,0,0:0:0:0:
352,32,325557,1,0,0:0:0:0:
312,32,325628,2,0,B|256:40,3,40,2|0|2|0,0:0|0:0|0:0|0:0,0:0:0:0:
240,56,325914,5,10,0:0:0:0:
216,88,325985,1,0,0:0:0:0:
200,128,326057,1,0,0:0:0:0:
216,168,326128,1,0,0:0:0:0:
248,200,326200,1,10,0:0:0:0:
280,224,326271,1,0,0:0:0:0:
296,264,326342,1,0,0:0:0:0:
280,304,326414,1,0,0:0:0:0:
248,328,326485,5,10,0:0:0:0:
208,336,326557,1,0,0:0:0:0:
168,320,326628,1,0,0:0:0:0:
160,280,326700,1,0,0:0:0:0:
144,240,326771,2,0,B|96:224,3,40,2|0|2|0,0:0|0:0|0:0|0:0,0:0:0:0:
72,208,327057,5,10,0:0:0:0:
40,184,327128,1,0,0:0:0:0:
24,144,327200,1,0,0:0:0:0:
32,104,327271,1,0,0:0:0:0:
56,80,327342,1,10,0:0:0:0:
88,64,327414,1,0,0:0:0:0:
120,64,327485,1,0,0:0:0:0:
152,80,327557,1,0,0:0:0:0:
176,104,327628,6,0,B|224:104,3,40,2|0|2|0,0:0|0:0|0:0|0:0,0:0:0:0:
248,112,327914,2,0,B|272:152,3,40,2|0|2|0,0:0|0:0|0:0|0:0,0:0:0:0:
288,176,328200,5,10,0:0:0:0:
312,208,328271,1,0,0:0:0:0:
344,224,328342,1,0,0:0:0:0:
376,224,328414,1,0,0:0:0:0:
408,200,328485,1,10,0:0:0:0:
408,168,328557,1,0,0:0:0:0:
392,136,328628,1,0,0:0:0:0:
368,112,328700,1,0,0:0:0:0:
344,88,328771,6,2,B|296:40|200:48|144:128|176:216,1,280,6|4,0:0|0:0,0:0:0:0:
184,232,329342,5,10,0:0:0:0:
200,264,329414,1,0,0:0:0:0:
224,288,329485,1,0,0:0:0:0:
256,304,329557,1,0,0:0:0:0:
288,304,329628,2,0,B|328:288,3,40,2|0|2|0,0:0|0:0|0:0|0:0,0:0:0:0:
352,280,329914,5,10,0:0:0:0:
384,272,329985,1,0,0:0:0:0:
416,280,330057,1,0,0:0:0:0:
448,288,330128,1,0,0:0:0:0:
480,272,330200,2,0,B|480:232,3,40,2|0|2|0,0:0|0:0|0:0|0:0,0:0:0:0:
480,200,330485,5,10,0:0:0:0:
464,168,330557,1,0,0:0:0:0:
440,144,330628,1,0,0:0:0:0:
408,128,330700,1,0,0:0:0:0:
376,120,330771,1,10,0:0:0:0:
344,120,330842,1,0,0:0:0:0:
312,128,330914,1,0,0:0:0:0:
288,144,330985,1,0,0:0:0:0:
264,168,331057,6,0,B|176:240|200:328|280:360|352:312,1,280,6|0,0:0|0:0,0:0:0:0:
368,304,331628,5,10,0:0:0:0:
392,272,331700,1,0,0:0:0:0:
384,240,331771,1,0,0:0:0:0:
360,216,331842,1,0,0:0:0:0:
328,208,331914,1,10,0:0:0:0:
296,216,331985,1,0,0:0:0:0:
264,216,332057,1,0,0:0:0:0:
232,200,332128,1,0,0:0:0:0:
208,176,332200,5,10,0:0:0:0:
208,144,332271,1,0,0:0:0:0:
224,112,332342,1,0,0:0:0:0:
256,96,332414,1,0,0:0:0:0:
280,64,332485,2,0,B|256:32,3,40,2|2|2|2,0:0|0:0|0:0|0:0,0:0:0:0:
232,16,332771,5,0,0:0:0:0:
200,8,332842,1,0,0:0:0:0:
168,8,332914,1,0,0:0:0:0:
136,24,332985,1,0,0:0:0:0:
112,48,333057,1,10,0:0:0:0:
104,80,333128,1,0,0:0:0:0:
112,112,333200,1,0,0:0:0:0:
112,144,333271,1,0,0:0:0:0:
104,176,333342,6,2,B|24:192,1,80
104,288,333628,2,2,B|208:328|280:272,1,160
408,168,334200,6,2,B|376:120|320:104,1,80
304,224,334485,2,2,B|240:288|216:240,1,80
224,136,334771,2,0,B|176:88|136:120,1,80
72,152,335057,5,2,0:0:0:0:
48,272,335200,1,0,0:0:0:0:
144,336,335342,2,2,B|224:368|240:312,1,80
320,288,335628,1,2,0:0:0:0:
416,328,335771,1,2,0:0:0:0:
416,232,335914,1,0,0:0:0:0:
376,48,336200,5,0,0:0:0:0:
264,64,336342,1,2,0:0:0:0:
264,64,336485,2,2,B|240:144|192:144,1,80
128,192,336771,1,0,0:0:0:0:
192,280,336914,1,2,0:0:0:0:
192,280,337057,2,2,B|256:304|288:272,1,80
368,248,337342,5,0,0:0:0:0:
312,168,337485,1,2,0:0:0:0:
328,80,337628,1,0,0:0:0:0:
240,48,337771,1,0,0:0:0:0:
160,0,337914,2,0,B|88:40|72:144|160:224,1,240,2|0,0:0|0:0,0:0:0:0:
296,296,338485,5,2,0:0:0:0:
384,136,338771,1,2,0:0:0:0:
232,136,339057,2,2,B|280:240,1,80
144,176,339342,2,2,B|104:104,1,80
80,256,339628,5,0,0:0:0:0:
144,328,339771,1,2,0:0:0:0:
232,296,339914,1,0,0:0:0:0:
256,192,340057,12,0,340700,0:0:0:0:
216,144,340842,5,10,0:0:0:0:
240,112,340914,1,0,0:0:0:0:
280,96,340985,1,0,0:0:0:0:
320,104,341057,1,0,0:0:0:0:
352,128,341128,1,10,0:0:0:0:
376,160,341200,1,0,0:0:0:0:
376,200,341271,1,0,0:0:0:0:
376,240,341342,1,0,0:0:0:0:
352,272,341414,6,0,B|312:288,3,40,2|0|2|0,0:0|0:0|0:0|0:0,0:0:0:0:
288,312,341700,2,0,B|232:296,3,40,2|0|2|0,0:0|0:0|0:0|0:0,0:0:0:0:
216,312,341985,5,10,0:0:0:0:
184,336,342057,1,0,0:0:0:0:
144,344,342128,1,0,0:0:0:0:
112,328,342200,1,0,0:0:0:0:
80,304,342271,1,10,0:0:0:0:
256,192,342414,12,0,342985,0:0:0:0:
0,168,343128,5,10,0:0:0:0:
32,200,343200,1,0,0:0:0:0:
72,216,343271,1,0,0:0:0:0:
112,216,343342,1,0,0:0:0:0:
152,208,343414,1,10,0:0:0:0:
192,192,343485,1,0,0:0:0:0:
232,200,343557,1,0,0:0:0:0:
264,224,343628,1,0,0:0:0:0:
288,256,343700,5,10,0:0:0:0:
312,288,343771,1,0,0:0:0:0:
344,312,343842,1,0,0:0:0:0:
384,320,343914,1,0,0:0:0:0:
424,312,343985,1,10,0:0:0:0:
448,280,344057,1,0,0:0:0:0:
456,240,344128,1,0,0:0:0:0:
432,200,344200,1,0,0:0:0:0:
408,168,344271,5,10,0:0:0:0:
400,128,344342,1,0,0:0:0:0:
400,88,344414,1,0,0:0:0:0:
376,56,344485,1,0,0:0:0:0:
336,40,344557,1,10,0:0:0:0:
296,56,344628,1,0,0:0:0:0:
256,72,344700,1,0,0:0:0:0:
216,64,344771,1,0,0:0:0:0:
184,48,344842,2,0,B|128:64,3,40,2|2|2|2,0:0|0:0|0:0|0:0,0:0:0:0:
48,112,345342,6,2,B|24:192|80:208,1,80
168,184,345628,2,2,B|208:232|184:272,1,80
160,368,345914,2,2,B|208:384|248:368,1,80
344,336,346200,2,0,B|368:296|352:256,1,80
456,184,346485,6,2,B|408:112|376:152,1,80
272,32,346771,2,2,B|272:112|328:104,1,80
264,216,347057,2,0,B|328:208|336:144,1,80
368,72,347342,1,2,0:0:0:0:
112,32,347628,5,10,0:0:0:0:
72,48,347700,1,0,0:0:0:0:
40,80,347771,1,0,0:0:0:0:
40,120,347842,1,0,0:0:0:0:
56,160,347914,1,10,0:0:0:0:
88,184,347985,1,0,0:0:0:0:
128,184,348057,2,2,B|168:168,1,40
232,136,348200,5,10,0:0:0:0:
272,120,348271,1,0,0:0:0:0:
312,136,348342,1,0,0:0:0:0:
344,168,348414,1,0,0:0:0:0:
352,208,348485,1,10,0:0:0:0:
336,248,348557,1,0,0:0:0:0:
312,280,348628,2,2,B|264:312,1,40
200,328,348771,5,10,0:0:0:0:
160,328,348842,1,0,0:0:0:0:
120,312,348914,1,0,0:0:0:0:
88,280,348985,1,0,0:0:0:0:
80,240,349057,1,10,0:0:0:0:
96,200,349128,1,0,0:0:0:0:
128,168,349200,2,2,B|160:120,1,40
192,64,349342,5,10,0:0:0:0:
216,32,349414,1,0,0:0:0:0:
256,16,349485,1,0,0:0:0:0:
296,16,349557,1,0,0:0:0:0:
328,40,349628,1,10,0:0:0:0:
360,72,349700,1,0,0:0:0:0:
392,96,349771,2,2,B|440:80,1,40
504,96,349914,6,0,B|488:152,3,40,2|0|2|0,0:0|0:0|0:0|0:0,0:0:0:0:
496,216,350200,2,0,B|448:216,3,40,2|0|2|0,0:0|0:0|0:0|0:0,0:0:0:0:
376,224,350485,2,0,B|392:264,3,40,2|0|2|0,0:0|0:0|0:0|0:0,0:0:0:0:
416,336,350771,2,0,B|368:336,3,40,2|0|2|0,0:0|0:0|0:0|0:0,0:0:0:0:
272,344,351057,6,2,B|240:304,3,40
152,264,351342,2,2,B|184:224,3,40
136,136,351628,2,2,B|192:136,3,40
224,40,351914,2,2,B|256:64,3,40
344,112,352200,5,2,0:0:0:0:
176,184,359057,5,2,0:0:0:0:
176,184,359128,1,0,0:0:0:0:
176,184,359200,1,0,0:0:0:0:
232,136,359342,1,0,0:0:0:0:
288,184,359485,1,2,0:0:0:0:
288,184,359557,1,0,0:0:0:0:
288,184,359628,1,0,0:0:0:0:
256,248,359771,1,0,0:0:0:0:
304,304,359914,1,2,0:0:0:0:
304,304,359985,1,0,0:0:0:0:
304,304,360057,1,0,0:0:0:0:
368,272,360200,5,2,0:0:0:0:
368,272,360271,1,0,0:0:0:0:
368,272,360342,1,0,0:0:0:0:
360,200,360485,1,0,0:0:0:0:
408,144,360628,1,2,0:0:0:0:
408,144,360700,1,0,0:0:0:0:
408,144,360771,1,0,0:0:0:0:
368,88,360914,1,0,0:0:0:0:
424,48,361057,1,2,0:0:0:0:
424,48,361128,1,0,0:0:0:0:
424,48,361200,1,0,0:0:0:0:
360,16,361342,5,10,0:0:0:0:
328,16,361414,1,0,0:0:0:0:
304,32,361485,1,0,0:0:0:0:
280,56,361557,1,0,0:0:0:0:
280,88,361628,1,10,0:0:0:0:
296,112,361700,1,0,0:0:0:0:
312,136,361771,1,0,0:0:0:0:
312,168,361842,1,0,0:0:0:0:
296,200,361914,5,10,0:0:0:0:
272,216,361985,1,0,0:0:0:0:
240,224,362057,1,0,0:0:0:0:
208,216,362128,1,0,0:0:0:0:
184,192,362200,1,10,0:0:0:0:
168,168,362271,1,0,0:0:0:0:
152,144,362342,1,0,0:0:0:0:
128,128,362414,1,0,0:0:0:0:
96,120,362485,6,0,B|64:144,3,40,2|0|2|0,0:0|0:0|0:0|0:0,0:0:0:0:
48,168,362771,2,0,B|72:208,3,40,2|0|2|0,0:0|0:0|0:0|0:0,0:0:0:0:
80,232,363057,5,10,0:0:0:0:
80,264,363128,1,0,0:0:0:0:
88,296,363200,1,0,0:0:0:0:
112,320,363271,1,0,0:0:0:0:
136,336,363342,1,10,0:0:0:0:
168,336,363414,1,0,0:0:0:0:
192,320,363485,1,0,0:0:0:0:
208,296,363557,1,0,0:0:0:0:
208,264,363628,5,10,0:0:0:0:
208,232,363700,1,0,0:0:0:0:
224,208,363771,1,0,0:0:0:0:
248,192,363842,1,0,0:0:0:0:
280,192,363914,1,10,0:0:0:0:
304,208,363985,1,0,0:0:0:0:
320,240,364057,1,0,0:0:0:0:
320,272,364128,1,0,0:0:0:0:
304,304,364200,6,0,B|352:336,3,40,2|0|2|0,0:0|0:0|0:0|0:0,0:0:0:0:
368,336,364485,2,0,B|400:304,3,40,2|0|2|0,0:0|0:0|0:0|0:0,0:0:0:0:
416,288,364771,5,10,0:0:0:0:
416,256,364842,1,0,0:0:0:0:
400,232,364914,1,0,0:0:0:0:
384,208,364985,1,0,0:0:0:0:
384,176,365057,1,10,0:0:0:0:
400,152,365128,1,0,0:0:0:0:
416,128,365200,1,0,0:0:0:0:
416,96,365271,1,0,0:0:0:0:
400,72,365342,5,10,0:0:0:0:
384,48,365414,1,0,0:0:0:0:
360,32,365485,1,0,0:0:0:0:
328,24,365557,1,0,0:0:0:0:
296,24,365628,1,10,0:0:0:0:
264,32,365700,1,0,0:0:0:0:
240,48,365771,1,0,0:0:0:0:
224,72,365842,1,0,0:0:0:0:
224,104,365914,6,0,B|256:144,3,40,2|0|2|0,0:0|0:0|0:0|0:0,0:0:0:0:
248,168,366200,2,0,B|208:208,3,40,2|0|2|0,0:0|0:0|0:0|0:0,0:0:0:0:
200,216,366485,5,10,0:0:0:0:
168,224,366557,1,0,0:0:0:0:
136,216,366628,1,0,0:0:0:0:
120,192,366700,1,0,0:0:0:0:
112,160,366771,1,10,0:0:0:0:
120,128,366842,1,0,0:0:0:0:
104,104,366914,1,0,0:0:0:0:
80,88,366985,1,0,0:0:0:0:
48,88,367057,5,10,0:0:0:0:
16,96,367128,1,0,0:0:0:0:
0,120,367200,1,0,0:0:0:0:
0,152,367271,1,0,0:0:0:0:
16,176,367342,1,10,0:0:0:0:
32,200,367414,1,0,0:0:0:0:
32,232,367485,1,0,0:0:0:0:
16,256,367557,1,0,0:0:0:0:
8,288,367628,6,0,B|48:320,3,40,2|2|2|2,0:0|0:0|0:0|0:0,0:0:0:0:
64,328,367914,2,0,B|104:320,3,40,2|0|2|0,0:0|0:0|0:0|0:0,0:0:0:0:
128,312,368200,5,10,0:0:0:0:
160,304,368271,1,0,0:0:0:0:
184,288,368342,1,0,0:0:0:0:
200,264,368414,1,0,0:0:0:0:
192,232,368485,1,10,0:0:0:0:
176,208,368557,1,0,0:0:0:0:
160,184,368628,1,0,0:0:0:0:
168,152,368700,1,0,0:0:0:0:
184,128,368771,5,10,0:0:0:0:
208,112,368842,1,0,0:0:0:0:
240,112,368914,1,0,0:0:0:0:
264,128,368985,1,0,0:0:0:0:
272,160,369057,1,10,0:0:0:0:
288,184,369128,1,0,0:0:0:0:
312,208,369200,1,0,0:0:0:0:
344,216,369271,1,0,0:0:0:0:
376,216,369342,5,10,0:0:0:0:
400,200,369414,1,0,0:0:0:0:
408,168,369485,1,0,0:0:0:0:
400,136,369557,1,0,0:0:0:0:
384,112,369628,1,10,0:0:0:0:
360,96,369700,1,0,0:0:0:0:
344,72,369771,1,0,0:0:0:0:
344,40,369842,1,0,0:0:0:0:
360,16,369914,5,10,0:0:0:0:
392,8,369985,1,0,0:0:0:0:
424,8,370057,1,0,0:0:0:0:
456,16,370128,1,0,0:0:0:0:
480,32,370200,2,0,B|480:80,3,40,6|0|6|0,0:0|0:0|0:0|0:0,0:0:0:0:
488,112,370485,5,10,0:0:0:0:
504,144,370557,1,0,0:0:0:0:
504,184,370628,1,0,0:0:0:0:
480,216,370700,1,0,0:0:0:0:
448,240,370771,1,10,0:0:0:0:
408,240,370842,1,0,0:0:0:0:
376,224,370914,1,0,0:0:0:0:
360,184,370985,1,0,0:0:0:0:
336,160,371057,5,10,0:0:0:0:
296,144,371128,1,0,0:0:0:0:
256,152,371200,1,0,0:0:0:0:
224,176,371271,1,0,0:0:0:0:
208,208,371342,2,2,B|232:240,3,40
248,272,371628,5,10,0:0:0:0:
240,304,371700,1,0,0:0:0:0:
208,328,371771,1,0,0:0:0:0:
176,336,371842,1,0,0:0:0:0:
136,328,371914,1,10,0:0:0:0:
120,296,371985,1,0,0:0:0:0:
136,256,372057,1,0,0:0:0:0:
120,224,372128,1,0,0:0:0:0:
96,192,372200,5,10,0:0:0:0:
64,176,372271,1,0,0:0:0:0:
32,152,372342,1,0,0:0:0:0:
24,112,372414,1,0,0:0:0:0:
40,80,372485,2,2,B|80:64,3,40
112,56,372771,5,10,0:0:0:0:
152,56,372842,1,0,0:0:0:0:
184,80,372914,1,0,0:0:0:0:
200,112,372985,1,0,0:0:0:0:
200,152,373057,1,10,0:0:0:0:
192,184,373128,1,0,0:0:0:0:
216,216,373200,1,0,0:0:0:0:
248,232,373271,1,0,0:0:0:0:
288,224,373342,5,10,0:0:0:0:
320,200,373414,1,0,0:0:0:0:
328,160,373485,1,0,0:0:0:0:
320,128,373557,1,0,0:0:0:0:
328,96,373628,2,2,B|368:72,3,40
392,64,373914,5,10,0:0:0:0:
432,72,373985,1,0,0:0:0:0:
464,96,374057,1,0,0:0:0:0:
472,136,374128,1,0,0:0:0:0:
456,176,374200,1,10,0:0:0:0:
424,200,374271,1,0,0:0:0:0:
392,224,374342,1,0,0:0:0:0:
368,256,374414,1,0,0:0:0:0:
368,296,374485,5,10,0:0:0:0:
384,328,374557,1,0,0:0:0:0:
368,368,374628,1,0,0:0:0:0:
336,376,374700,1,0,0:0:0:0:
296,360,374771,2,2,B|272:328,3,40
256,304,375057,6,0,B|256:256,3,40,2|4|2|4,0:0|0:0|0:0|0:0,0:0:0:0:
240,240,375342,2,0,B|192:224,3,40,2|4|2|4,0:0|0:0|0:0|0:0,0:0:0:0:
176,216,375628,2,0,B|136:184,3,40,2|4|2|4,0:0|0:0|0:0|0:0,0:0:0:0:
120,176,375914,2,0,B|104:136,3,40,2|4|2|4,0:0|0:0|0:0|0:0,0:0:0:0:
88,112,376200,2,0,B|136:80,3,40,2|4|2|4,0:0|0:0|0:0|0:0,0:0:0:0:
144,64,376485,2,0,B|192:64,3,40,2|4|2|4,0:0|0:0|0:0|0:0,0:0:0:0:
216,64,376771,5,10,0:0:0:0:
248,72,376842,1,0,0:0:0:0:
272,88,376914,1,0,0:0:0:0:
280,120,376985,1,0,0:0:0:0:
280,152,377057,1,10,0:0:0:0:
280,184,377128,1,0,0:0:0:0:
304,208,377200,1,0,0:0:0:0:
328,224,377271,1,0,0:0:0:0:
360,224,377342,5,10,0:0:0:0:
384,208,377414,1,0,0:0:0:0:
400,184,377485,1,0,0:0:0:0:
400,144,377557,1,0,0:0:0:0:
384,120,377628,1,10,0:0:0:0:
360,96,377700,1,0,0:0:0:0:
368,64,377771,1,0,0:0:0:0:
392,48,377842,1,0,0:0:0:0:
424,48,377914,5,10,0:0:0:0:
456,56,377985,1,0,0:0:0:0:
480,80,378057,1,0,0:0:0:0:
488,112,378128,1,0,0:0:0:0:
496,144,378200,1,10,0:0:0:0:
488,176,378271,1,0,0:0:0:0:
480,208,378342,1,0,0:0:0:0:
464,232,378414,1,0,0:0:0:0:
440,256,378485,5,10,0:0:0:0:
416,272,378557,1,0,0:0:0:0:
384,280,378628,1,0,0:0:0:0:
352,280,378700,1,0,0:0:0:0:
320,272,378771,1,10,0:0:0:0:
288,264,378842,1,0,0:0:0:0:
256,256,378914,1,0,0:0:0:0:
224,264,378985,1,0,0:0:0:0:
192,280,379057,5,10,0:0:0:0:
168,296,379128,1,0,0:0:0:0:
136,304,379200,1,0,0:0:0:0:
104,296,379271,1,0,0:0:0:0:
80,280,379342,1,10,0:0:0:0:
64,256,379414,1,0,0:0:0:0:
64,224,379485,1,0,0:0:0:0:
80,200,379557,1,0,0:0:0:0:
104,176,379628,5,10,0:0:0:0:
432,128,380771,5,10,0:0:0:0:
168,272,381914,6,0,B|192:232,3,40,4|0|4|0,0:0|0:0|0:0|0:0,0:0:0:0:
136,168,382200,6,0,B|192:160,3,40,4|0|4|0,0:0|0:0|0:0|0:0,0:0:0:0:
184,88,382485,6,0,B|224:104,3,40,4|0|4|0,0:0|0:0|0:0|0:0,0:0:0:0:
280,40,382771,6,0,B|296:88,3,40,4|0|4|0,0:0|0:0|0:0|0:0,0:0:0:0:
328,144,383057,5,2,0:0:0:0:
288,264,383271,1,2,0:0:0:0:
200,168,383485,1,0,0:0:0:0:
256,192,383700,12,0,384485,0:0:0:0:
