osu file format v9

[General]
AudioFilename: Fury of the storm.mp3
AudioLeadIn: 1511
PreviewTime: 108534
Countdown: 0
SampleSet: Normal
StackLeniency: 0.7
Mode: 0
LetterboxInBreaks: 1

[Editor]
Bookmarks: 2358,11721,35091,53873,73374,111516,148180,185963,204530,232846,261640,282748,300971,339529,343721,381829,401041,-683
DistanceSpacing: 0.8
BeatDivisor: 4
GridSize: 8

[Metadata]
Title:Fury Of The Storm
Artist:DragonForce
Creator:[Satellite]
Version:Legend
Source:
Tags:It's made to Lesjuh's mapping style

[Difficulty]
HPDrainRate:3
CircleSize:5
OverallDifficulty:8
ApproachRate:8
SliderMultiplier:1.6
SliderTickRate:2

[Events]
//Background and Video events
0,0,"bg.jpg"
//Break Periods
2,61634,70284
2,202034,210684
2,370034,376284
//Storyboard Layer 0 (Background)
//Storyboard Layer 1 (Fail)
//Storyboard Layer 2 (Pass)
//Storyboard Layer 3 (Foreground)
//Storyboard Sound Samples
//Background Colour Transformations
3,100,0,0,0

[TimingPoints]
234,300,4,1,0,75,1,0
9841,-100,4,1,0,75,0,1
51834,-100,4,1,0,75,0,0
109434,-100,4,1,0,75,0,1
126234,-100,4,1,0,75,0,0
183834,-100,4,1,0,75,0,1
201834,-100,4,1,0,75,0,0
259434,-100,4,1,0,75,0,1
297834,-100,4,1,0,75,0,0
311109,-100,4,2,0,5,0,0
312234,-100,4,1,0,75,0,0
315834,-100,4,2,0,5,0,0
317034,-100,4,1,0,75,0,0
336234,-100,4,1,0,75,0,1
350634,-100,4,1,0,75,0,1
357084,-100,4,2,0,5,0,1
357909,-100,4,1,0,75,0,1
359559,-100,4,2,0,5,0,1
360309,-100,4,1,0,75,0,1
369834,-100,4,1,0,75,0,0
377034,-100,4,1,0,75,0,1
398634,-100,4,1,0,75,0,0
402909,-100,4,2,0,5,0,0

[Colours]
Combo1 : 0,128,255
Combo2 : 0,255,255
Combo3 : 0,0,255

[HitObjects]
136,80,234,1,0
304,120,534,1,0
304,120,684,1,0
344,184,834,1,0
232,136,984,1,0
336,56,1134,1,0
424,192,1434,5,0
288,288,1734,1,0
288,288,1884,1,0
216,288,2034,1,0
328,224,2184,1,0
328,352,2334,1,0
120,256,2634,5,0
160,104,2934,1,0
160,104,3084,1,0
224,64,3234,1,0
160,176,3384,1,0
96,64,3534,1,0
24,104,3684,1,0
16,184,3834,5,10
40,216,3909,1,0
72,240,3984,1,0
112,248,4059,1,0
152,240,4134,1,8
184,216,4209,1,0
208,184,4284,1,0
224,152,4359,1,0
224,112,4434,6,0,B|200:80,3,40,2|0|2|0
200,48,4734,2,0,B|240:24,3,40,2|0|2|0
264,24,5034,5,2
384,96,5334,1,0
440,160,5484,1,0
392,232,5634,1,0
312,208,5784,1,0
312,128,5934,1,0
192,88,6234,5,0
128,192,6534,1,0
72,248,6684,1,0
112,320,6834,1,0
192,304,6984,1,0
200,224,7134,1,0
224,136,7434,6,2,B|280:112|336:136,1,80
360,48,7734,2,10,B|384:96|360:160,1,80
448,184,8034,2,2,B|400:208|344:184,1,80
312,272,8334,2,10,B|288:216|312:160,1,80
352,56,8634,5,2
128,184,8934,1,2
448,336,9234,1,2
368,320,9384,1,0
368,320,9459,1,0
368,320,9534,1,8
256,304,9834,5,10
216,320,9909,1,0
176,320,9984,1,0
136,304,10059,1,0
112,272,10134,1,8
104,232,10209,1,0
112,192,10284,1,0
136,160,10359,1,4
168,136,10434,6,0,B|160:96,3,40
168,64,10734,2,0,B|208:48,3,40
240,48,11034,5,10
280,56,11109,1,0
312,88,11184,1,0
312,128,11259,1,0
288,160,11334,1,8
256,184,11409,1,0
232,216,11484,1,0
232,256,11559,1,4
256,288,11634,6,0,B|296:312,3,40
320,312,11934,2,0,B|352:288,3,40
376,264,12234,5,10
392,224,12309,1,0
368,192,12384,1,0
336,168,12459,1,0
304,144,12534,1,8
280,112,12609,1,0
272,72,12684,1,0
296,40,12759,1,4
328,24,12834,6,0,B|368:32,3,40
400,32,13134,2,0,B|440:16,3,40
472,24,13434,5,10
496,56,13509,1,0
504,96,13584,1,0
480,128,13659,1,0
448,144,13734,1,8
408,144,13809,1,0
368,160,13884,1,0
344,192,13959,1,4
336,232,14034,5,10
312,264,14109,1,0
272,280,14184,1,0
232,272,14259,1,0
200,240,14334,1,10
48,160,14634,5,10
56,120,14709,1,0
80,88,14784,1,0
112,72,14859,1,0
152,72,14934,1,8
184,96,15009,1,0
224,104,15084,1,0
264,88,15159,1,4
296,72,15234,6,2,B|248:0,1,80
400,48,15534,2,8,B|456:120,1,80
464,208,15834,5,10
448,248,15909,1,0
408,264,15984,1,0
368,256,16059,1,0
336,240,16134,1,8
296,232,16209,1,0
256,240,16284,1,0
224,264,16359,1,4
208,296,16434,6,2,B|264:368,1,80
120,312,16734,2,8,B|64:240,1,80
64,160,17034,5,10
80,120,17109,1,0
112,88,17184,1,0
152,72,17259,1,0
192,88,17334,1,8
224,120,17409,1,0
240,160,17484,1,0
256,192,17559,1,4
272,224,17634,5,10
288,264,17709,1,0
320,296,17784,1,0
360,312,17859,1,0
400,296,17934,1,8
432,264,18009,1,0
448,224,18084,1,0
456,192,18159,1,4
456,152,18234,5,14
352,32,18534,1,2
80,136,18834,1,2
456,336,19134,1,2
288,328,19434,5,10
248,344,19509,1,0
208,352,19584,1,0
168,344,19659,1,0
128,320,19734,1,8
96,288,19809,1,0
80,248,19884,1,0
80,208,19959,1,4
96,176,20034,6,0,B|128:152,3,40
152,128,20334,2,0,B|128:80,3,40
120,56,20634,5,10
136,24,20709,1,0
176,8,20784,1,0
216,8,20859,1,0
248,32,20934,1,8
264,72,21009,1,0
256,112,21084,1,0
264,152,21159,1,4
288,184,21234,6,0,B|336:192,3,40
360,208,21534,2,0,B|368:256,3,40
376,280,21834,5,10
360,320,21909,1,0
328,344,21984,1,0
288,352,22059,1,0
248,352,22134,1,8
208,336,22209,1,0
176,304,22284,1,0
176,264,22359,1,4
168,232,22434,6,0,B|120:200,3,40
128,176,22734,2,0,B|152:144,3,40
144,80,23034,6,2,B|192:56,3,40
208,0,23334,2,2,B|256:32,3,40
312,0,23634,6,2,B|312:48,3,40
384,72,23934,2,2,B|336:112,3,40
296,168,24234,5,10
288,208,24309,1,0
304,248,24384,1,0
336,272,24459,1,0
376,280,24534,1,8
416,264,24609,1,0
440,232,24684,1,0
448,192,24759,1,4
440,152,24834,6,0,B|408:128,3,40
392,96,25134,2,0,B|392:48,3,40
368,24,25434,5,10
328,8,25509,1,0
288,8,25584,1,0
248,24,25659,1,0
224,56,25734,1,8
208,96,25809,1,0
184,128,25884,1,0
152,152,25959,1,4
112,160,26034,5,10
72,152,26109,1,0
32,160,26184,1,0
8,192,26259,1,0
8,232,26334,2,4,B|24:272,3,40,0|0|0|0
40,296,26634,5,10
64,328,26709,1,0
96,352,26784,1,0
136,360,26859,1,0
176,344,26934,1,8
200,312,27009,1,0
208,272,27084,1,0
232,240,27159,1,4
264,224,27234,2,0,B|304:232,3,40
336,240,27534,5,10
376,240,27609,1,0
408,216,27684,1,0
416,176,27759,1,0
400,136,27834,1,8
256,192,27909,12,4,28434
256,192,28509,12,4,29034
256,192,29109,12,6,30234
240,112,30384,5,0
328,88,30534,1,2
400,144,30684,1,0
432,232,30834,2,2,B|432:281|368:320,1,80
304,328,31134,1,8
224,288,31284,1,0
136,280,31434,6,2,B|96:232|96:176,1,80
96,128,31734,1,2
176,96,31884,1,0
248,40,32034,2,2,B|312:40|352:80,1,80
400,112,32334,1,8
360,192,32484,1,0
304,272,32634,5,10
272,296,32709,1,0
232,312,32784,1,0
192,296,32859,1,0
168,264,32934,2,0,B|136:240,3,40,2|0|2|0
120,208,33234,5,10
104,168,33309,1,0
120,128,33384,1,0
152,104,33459,1,0
192,112,33534,2,0,B|216:160,3,40,2|0|2|0
240,176,33834,5,10
272,200,33909,1,0
304,208,33984,1,0
344,200,34059,1,0
368,176,34134,1,8
368,136,34209,1,0
352,104,34284,1,0
320,80,34359,1,0
280,72,34434,6,4,B|256:40,3,40
224,32,34734,2,4,B|184:48,3,40
160,64,35034,6,2,B|120:112|120:160,1,80
128,224,35334,1,2
216,240,35484,1,0
304,272,35634,2,2,B|368:256|368:192,1,80
352,136,35934,1,8
408,64,36084,1,0
328,24,36234,6,2,B|256:24|224:56,1,80
176,80,36534,1,2
224,152,36684,1,0
152,200,36834,2,2,B|104:240|104:304,1,80
136,352,37134,1,8
224,328,37284,1,0
312,328,37434,5,10
344,352,37509,1,0
384,352,37584,1,0
416,328,37659,1,0
424,288,37734,2,0,B|400:232,3,40,2|0|2|0
392,216,38034,5,10
392,176,38109,1,0
408,144,38184,1,0
440,120,38259,1,0
472,104,38334,2,0,B|464:64,3,40,2|0|2|0
440,40,38634,5,10
408,24,38709,1,0
368,24,38784,1,0
336,40,38859,1,0
312,72,38934,1,8
312,112,39009,1,0
328,144,39084,1,0
320,184,39159,1,4
296,216,39234,6,4,B|248:200,3,40
224,208,39534,2,4,B|200:240,3,40
168,256,39834,5,10
128,264,39909,1,0
88,256,39984,1,0
56,232,40059,1,0
32,200,40134,1,10
32,160,40209,1,0
56,128,40284,1,0
88,112,40359,1,0
128,104,40434,5,10
168,120,40509,1,0
200,144,40584,1,0
224,184,40659,1,0
240,216,40734,2,4,B|280:240,3,40
304,256,41034,5,10
344,264,41109,1,0
384,264,41184,1,0
416,240,41259,1,0
440,208,41334,1,10
432,168,41409,1,0
408,136,41484,1,0
400,96,41559,1,0
416,64,41634,5,10
424,24,41709,1,0
392,0,41784,1,0
352,0,41859,1,0
320,24,41934,2,4,B|288:48,3,40
264,72,42234,5,10
248,112,42309,1,0
224,144,42384,1,0
184,160,42459,1,0
144,144,42534,1,10
112,120,42609,1,0
72,120,42684,1,0
40,144,42759,1,0
24,176,42834,5,10
16,216,42909,1,0
32,248,42984,1,0
64,280,43059,1,0
88,304,43134,2,4,B|80:344,3,40
96,376,43434,5,10
136,384,43509,1,0
176,376,43584,1,0
208,352,43659,1,0
224,320,43734,1,10
216,280,43809,1,0
200,248,43884,1,0
208,208,43959,1,0
240,184,44034,5,10
280,176,44109,1,0
320,192,44184,1,0
344,224,44259,1,0
352,264,44334,2,4,B|392:280,3,40
424,280,44634,5,10
456,256,44709,1,0
480,224,44784,1,0
488,184,44859,1,0
480,144,44934,1,10
456,112,45009,1,0
416,104,45084,1,0
376,112,45159,1,0
344,128,45234,5,10
312,152,45309,1,0
272,144,45384,1,0
240,120,45459,1,0
232,80,45534,2,4,B|184:64,3,40
160,64,45834,5,10
120,72,45909,1,0
88,88,45984,1,0
56,112,46059,1,0
32,144,46134,1,10
32,184,46209,1,0
48,216,46284,1,0
80,240,46359,1,0
112,256,46434,5,10
144,280,46509,1,0
160,312,46584,1,0
144,352,46659,1,0
168,384,46734,2,4,B|208:376,3,40
240,368,47034,5,0
240,368,47109,1,0
240,368,47184,1,8
296,320,47334,1,0
296,320,47409,1,0
296,320,47484,1,8
368,328,47634,1,0
368,328,47709,1,0
368,328,47784,1,8
424,280,47934,1,0
424,280,48009,1,0
424,280,48084,1,8
440,208,48234,5,10
432,176,48309,1,0
416,144,48384,1,0
392,120,48459,1,0
360,104,48534,1,10
328,96,48609,1,0
288,104,48684,1,0
264,120,48759,1,0
240,152,48834,5,10
232,184,48909,1,0
224,216,48984,1,0
200,240,49059,1,0
168,256,49134,1,10
136,256,49209,1,0
104,240,49284,1,0
88,208,49359,1,0
80,176,49434,5,14
256,192,49509,12,4,50634
216,40,50934,5,4
264,256,51234,5,2
168,304,51534,1,2
80,256,51834,6,2,B|80:192|120:152,1,80
160,112,52134,1,8
248,136,52284,1,0
328,88,52434,2,2,B|392:88|424:144,1,80
456,184,52734,1,8
392,240,52884,1,0
366,318,53034,6,2,B|282:374|197:310,1,160
157,259,53484,2,2,B|97:177|154:100,1,160
200,48,53934,1,0
200,48,54009,1,0
200,48,54084,1,8
304,48,54234,6,2,B|368:72|368:128,1,80
352,184,54534,1,8
416,240,54684,1,0
368,312,54834,2,2,B|296:328|256:328,1,80
208,288,55134,1,8
144,344,55284,1,0
71,298,55434,6,2,B|22:214|71:138,1,160
159,72,55884,2,2,B|172:167|279:176,1,160
376,144,56334,1,0
376,144,56409,1,0
376,144,56484,1,8
488,176,56634,5,2
440,248,56784,1,0
360,288,56934,2,2,B|304:256|256:256,1,80
200,272,57234,2,2,B|168:208|168:168,1,80
160,112,57534,1,8
152,32,57684,1,0
232,48,57834,6,2,B|333:22|384:136,1,160
408,208,58284,2,2,B|298:180|272:304,1,160
208,344,58734,1,0
208,344,58809,1,0
208,344,58884,1,8
120,312,59034,6,2,B|96:256|120:200,1,80
48,176,59334,2,8,B|104:152|160:176,1,80
184,104,59634,2,2,B|208:152|184:216,1,80
256,240,59934,2,8,B|208:256|144:240,1,80
104,216,60234,5,10
88,176,60309,1,0
96,136,60384,1,0
120,112,60459,1,0
160,104,60534,1,8
192,120,60609,1,0
208,152,60684,1,0
224,184,60759,1,4
256,208,60834,2,0,B|296:192,3,40
320,176,61134,5,10
360,184,61209,1,0
384,216,61284,1,0
384,256,61359,1,0
368,288,61434,1,14
112,96,71034,5,0
200,96,71184,2,2,B|264:96|304:128,1,80
344,168,71484,1,0
296,240,71634,2,2,B|256:288|256:328,1,80
328,352,71934,2,2,B|368:296|368:256,1,80
440,224,72234,6,2,B|460:126|368:80,1,160
284,48,72684,2,2,B|271:150|148:160,1,160
80,168,73134,1,0
40,184,73209,1,0
16,216,73284,1,0
24,256,73359,1,0
48,288,73434,5,2
144,288,73584,2,2,B|208:288|248:256,1,80
288,216,73884,1,0
336,144,74034,2,2,B|336:80|360:48,1,80
432,80,74334,2,2,B|432:152|400:184,1,80
410,245,74634,6,2,B|369:345|257:309,1,160
186,330,75084,2,2,B|231:238|138:162,1,160
96,128,75534,1,0
80,96,75609,1,0
80,56,75684,1,0
112,32,75759,1,0
144,24,75834,5,2
232,40,75984,1,2
320,72,76134,2,2,B|360:104|360:168|360:160,1,80
432,192,76434,2,2,B|384:224|328:200,1,80
272,248,76734,2,0,B|272:184|320:144,1,80
363,139,77034,6,2,B|467:139|467:260,1,160
386,313,77484,2,2,B|274:313|274:193,1,160
328,80,77934,1,0
304,112,78009,1,0
272,128,78084,1,0
232,112,78159,1,0
200,96,78234,6,2,B|152:72|112:112,1,80
56,56,78534,2,2,B|32:104|80:152,1,80
64,224,78834,2,2,B|120:208|128:144,1,80
160,88,79134,1,8
224,32,79284,1,0
312,32,79434,5,10
344,48,79509,1,0
368,80,79584,1,0
368,120,79659,1,0
352,152,79734,2,4,B|320:176,3,40
296,200,80034,5,10
280,232,80109,1,0
280,272,80184,1,0
304,304,80259,1,0
336,320,80334,1,10
376,320,80409,1,0
408,304,80484,1,0
432,272,80559,1,4
448,240,80634,6,2,B|512:168|447:84,1,160
336,80,81084,2,2,B|263:148|168:80,1,160
96,96,81534,1,8
72,184,81684,1,0
72,272,81834,6,2,B|143:339|256:272,1,160
328,240,82284,2,2,B|260:166|328:80,1,160
408,48,82734,1,8
456,120,82884,1,0
464,216,83034,6,2,B|412:307|296:264,1,160
208,312,83484,2,2,B|188:196|309:168,1,160
320,96,83934,1,8
344,16,84084,1,0
256,8,84234,5,10
224,16,84309,1,0
192,40,84384,1,0
176,72,84459,1,0
176,112,84534,1,10
192,144,84609,1,0
224,168,84684,1,0
256,176,84759,1,0
296,176,84834,6,2,B|312:216,3,40
328,248,85134,2,2,B|304:288,3,40
320,312,85434,5,0
448,168,85734,2,2,B|448:88|408:64,1,80
360,48,86034,1,8
232,48,86184,1,0
136,112,86334,1,8
128,232,86484,1,0
200,272,86634,5,10
264,224,86784,1,0
336,272,86934,2,2,B|408:272|432:216,1,80
456,176,87234,1,2
384,128,87384,1,2
456,80,87534,2,0,B|424:24|368:8,1,80
297,35,87834,6,2,B|189:9|167:127,1,160
72,136,88284,2,2,B|98:233|224:224,1,160
288,240,88734,1,2
368,320,89034,5,10
400,304,89109,1,0
432,280,89184,1,0
448,248,89259,1,0
440,208,89334,1,10
416,176,89409,1,0
384,152,89484,1,0
360,120,89559,1,0
360,80,89634,6,4,B|392:48,3,40
384,16,89934,2,4,B|344:0,3,40
312,0,90234,5,4
120,48,90534,2,2,B|80:104|80:152,1,80
48,192,90834,1,8
96,296,90984,1,0
208,344,91134,1,8
320,304,91284,1,0
400,320,91434,5,2
376,240,91584,1,0
304,200,91734,2,2,B|328:128|328:88,1,80
288,48,92034,1,2
208,80,92184,1,2
128,40,92334,2,0,B|72:72|72:120,1,80
56,176,92634,6,2,B|96:272|224:232,1,160
288,160,93084,2,2,B|388:161|408:280,1,160
352,328,93534,1,0
256,352,93834,6,2,B|183:276|256:192,1,160
352,144,94284,2,2,B|317:48|192:88,1,160
128,96,94734,1,0
128,264,95034,6,2,B|202:185|304:272,1,160
304,352,95484,2,2,B|407:337|392:200,1,160
448,160,95934,2,0,B|432:96|368:96,1,80
344,16,96234,6,6,B|293:115|176:80,1,160
55,78,96834,2,6,B|-18:137|39:246,1,160
96,312,97434,6,6,B|208:312|208:184,1,160
232,80,97884,2,6,B|335:27|383:144,1,160
440,160,98334,1,8
400,224,98484,1,0
400,296,98634,5,0
400,296,98709,1,0
400,296,98784,1,8
328,328,98934,1,0
264,280,99084,1,0
264,280,99159,1,0
264,280,99234,1,8
304,216,99384,1,0
264,152,99534,1,0
264,152,99609,1,0
264,152,99684,1,0
264,152,99759,1,0
264,152,99834,1,2
312,88,100134,5,2
64,160,100434,1,2
352,352,100734,1,4
464,240,101034,6,6,B|492:134|376:88,1,160
318,51,101484,2,2,B|308:2|110:140|91:71,1,240
48,208,102234,6,2,B|48:264,3,40
120,256,102534,2,2,B|144:288,3,40
208,248,102834,6,2,B|248:256,3,40
272,184,103134,2,2,B|312:176,3,40
344,176,103434,5,10
376,200,103509,1,0
392,232,103584,1,0
384,272,103659,1,0
360,304,103734,1,10
328,328,103809,1,0
288,336,103884,1,0
256,312,103959,1,4
216,304,104034,6,0,B|176:320,3,40
144,312,104334,2,0,B|112:272,3,40
88,256,104634,6,6,B|21:171|96:80,1,160
175,52,105084,2,2,B|184:-9|405:176|415:110,1,240
440,216,105834,5,0
440,216,105909,1,0
440,216,105984,1,8
392,280,106134,1,0
312,264,106284,1,0
312,264,106359,1,0
312,264,106434,1,8
264,336,106584,1,0
184,344,106734,1,0
152,360,106809,1,0
112,360,106884,1,0
80,344,106959,1,0
56,320,107034,1,6
256,192,107109,12,4,108234
416,344,108534,5,4
104,192,108834,1,4
480,32,109134,1,4
336,32,109434,6,2,B|229:-6|176:96,1,160
88,136,109884,2,2,B|88:240|192:256,1,160
288,272,110334,1,2
352,192,110484,1,0
432,112,110634,6,2,B|359:30|279:118,1,160
178,82,111084,2,2,B|223:171|122:234,1,160
48,272,111534,1,2
120,344,111684,1,0
224,336,111834,6,2,B|333:328|317:204,1,160
410,163,112284,2,2,B|364:68|242:131,1,160
184,136,112734,1,2
104,72,112884,1,0
8,128,113034,6,2,B|-10:227|96:280,1,160
176,328,113484,2,2,B|277:321|280:184,1,160
272,104,113934,1,2
328,24,114084,1,0
424,48,114234,5,0
424,48,114309,1,0
424,48,114384,1,8
464,120,114534,1,0
400,168,114684,1,0
400,168,114759,1,0
400,168,114834,1,8
336,224,114984,1,0
328,304,115134,1,0
328,304,115209,1,0
328,304,115284,1,8
248,336,115434,5,0
248,336,115509,1,0
248,336,115584,1,8
240,256,115734,1,0
160,256,115884,1,0
160,256,115959,1,0
160,256,116034,1,8
96,208,116184,1,0
144,144,116334,1,0
144,144,116409,1,0
144,144,116484,1,8
312,56,116634,6,2,B|288:24,2,40
352,152,116934,1,0
440,208,117084,2,2,B|480:200,2,40
392,296,117384,1,0
296,328,117534,1,2
296,328,117609,1,2
296,328,117684,2,2,B|328:360,2,40
272,304,117909,5,10
248,272,117984,1,0
232,240,118059,1,0
240,200,118134,1,0
264,168,118209,1,10
296,144,118284,1,0
336,144,118359,1,0
368,168,118434,1,4
400,192,118509,5,10
440,192,118584,1,0
472,168,118659,1,0
480,128,118734,1,0
464,96,118809,1,10
344,16,119034,6,2,B|247:-11|200:81,1,160
96,64,119484,2,2,B|56:160|176:208,1,160
256,224,119934,1,8
240,320,120084,1,0
336,320,120234,6,2,B|408:312|416:288,1,80
344,248,120534,2,8,B|328:184|296:168,1,80
304,96,120834,2,2,B|232:120|224:160,1,80
200,208,121134,2,8,B|136:144|152:112,1,80
104,72,121434,6,2,B|176:-3|280:72,1,160
384,32,121884,2,2,B|316:118|416:200,1,160
464,248,122334,1,8
400,320,122484,1,0
304,320,122634,6,2,B|232:320|200:280,1,80
152,336,122934,2,8,B|152:264|192:240,1,80
112,176,123234,2,2,B|184:176|208:208,1,80
280,200,123534,1,0
312,176,123609,1,0
336,144,123684,1,0
320,104,123759,1,8
288,72,123834,1,2
200,40,124134,6,6,B|128:40|96:72,1,80,6|2
32,96,124734,2,6,B|-5:192|96:264,1,160
192,64,126234,6,2,B|88:64|88:187,1,160
136,288,126684,2,2,B|240:288|240:160,1,160
304,112,127134,1,8
392,160,127284,1,0
448,248,127434,6,2,B|351:260|312:160,1,160
304,72,127884,2,2,B|204:28|136:128,1,160
88,176,128334,1,8
152,256,128484,1,0
248,280,128634,5,0
248,280,128709,1,0
248,280,128784,1,8
312,240,128934,1,0
296,168,129084,1,0
296,168,129159,1,0
296,168,129234,1,8
312,96,129384,1,0
368,48,129534,1,8
384,120,129684,1,12
456,120,129834,5,0
456,120,129909,1,0
456,120,129984,1,8
440,192,130134,1,0
480,256,130284,1,0
480,256,130359,1,0
480,256,130434,1,8
440,320,130584,1,0
368,296,130734,1,8
320,352,130884,1,12
176,304,131034,6,2,B|144:240|144:208,1,80
176,144,131334,1,8
240,80,131484,2,0,B|208:48,3,40
192,24,131784,5,8
328,32,131934,1,8
400,136,132084,1,0
376,272,132234,6,2,B|312:304|264:304,1,80
216,264,132534,1,8
144,200,132684,2,0,B|104:168,3,40
96,144,132984,5,8
176,16,133134,1,8
312,80,133284,1,0
416,56,133434,5,10
448,72,133509,1,0
472,104,133584,1,0
472,144,133659,1,0
448,176,133734,1,10
416,192,133809,1,0
384,216,133884,1,0
368,248,133959,1,0
376,288,134034,1,14
408,360,134184,5,0
264,352,134334,1,8
240,208,134484,1,8
216,112,134634,5,10
192,80,134709,1,0
160,64,134784,1,0
120,56,134859,1,0
80,72,134934,1,10
56,104,135009,1,0
48,144,135084,1,0
64,184,135159,1,0
104,200,135234,1,14
176,216,135384,5,0
304,248,135534,1,8
400,152,135684,1,8
336,80,135834,6,2,B|268:-1|160:64,1,160
88,128,136284,2,2,B|175:192|96:296,1,160
168,360,136734,1,2
256,320,136884,1,2
344,320,137034,5,10
376,304,137109,1,0
400,280,137184,1,0
408,240,137259,1,0
392,208,137334,1,10
368,184,137409,1,0
344,160,137484,1,0
320,128,137559,1,4
312,96,137634,6,0,B|336:48,3,40
344,32,137934,2,0,B|296:-8,3,40
280,0,138234,5,10
240,0,138309,1,0
208,16,138384,1,0
176,40,138459,1,0
160,72,138534,1,10
160,112,138609,1,0
176,144,138684,1,0
200,176,138759,1,4
224,200,138834,6,2,B|160:264,1,80
312,264,139134,2,8,B|392:192,1,80
456,200,139434,5,10
464,240,139509,1,0
456,272,139584,1,0
432,304,139659,1,0
392,312,139734,1,10
360,296,139809,1,0
328,280,139884,1,0
288,272,139959,1,4
256,296,140034,6,2,B|272:376,1,80
152,272,140334,2,8,B|128:184,1,80
104,96,140634,5,2
120,64,140709,1,0
144,40,140784,1,0
176,24,140859,1,0
216,24,140934,1,10
248,40,141009,1,0
280,56,141084,1,0
320,56,141159,1,4
352,48,141234,6,2,B|416:0,1,80
408,144,141534,2,8,B|336:200,1,80
264,264,141834,5,10
240,296,141909,1,0
208,312,141984,1,0
168,312,142059,1,0
136,296,142134,1,10
120,264,142209,1,0
120,224,142284,1,0
112,192,142359,1,4
88,160,142434,6,0,B|40:152,3,40
24,128,142734,2,0,B|24:80,3,40
32,56,143034,5,10
56,24,143109,1,0
96,16,143184,1,0
128,32,143259,1,0
152,64,143334,1,10
168,96,143409,1,0
200,120,143484,1,0
240,128,143559,1,0
280,112,143634,5,10
304,80,143709,1,0
320,48,143784,1,0
352,24,143859,1,0
392,24,143934,1,10
424,48,144009,1,0
448,80,144084,1,0
456,120,144159,1,0
448,152,144234,5,14
256,192,144309,12,6,145434
208,144,145584,5,0
288,112,145734,1,8
344,176,145884,1,8
408,240,146034,2,2,B|384:304|352:320,1,80
296,360,146334,2,8,B|232:328|232:288,1,80
144,280,146634,6,2,B|74:206|144:120,1,160
232,46,147084,2,2,B|332:19|376:134,1,160
400,200,147534,1,0
400,200,147609,1,0
400,200,147684,1,8
352,280,147834,6,2,B|288:280|256:248,1,80
184,208,148134,2,2,B|224:152|264:144,1,80
328,120,148434,1,0
288,40,148584,1,0
376,32,148734,1,8
448,80,148884,1,0
455,174,149034,6,2,B|463:280|351:310,1,160
176,304,149484,2,2,B|82:265|106:153,1,160
128,80,149934,1,0
152,48,150009,1,0
192,32,150084,1,0
232,40,150159,1,0
264,64,150234,6,2,B|312:64|352:88,1,80
416,136,150534,1,8
344,200,150684,1,0
424,256,150834,2,2,B|400:320|352:336,1,80
288,336,151134,1,8
232,256,151284,1,0
144,184,151434,6,2,B|127:80|232:48,1,160
384,64,151884,2,2,B|316:148|416:224,1,160
456,272,152334,1,0
456,272,152409,1,0
456,272,152484,1,8
344,328,152634,5,0
256,304,152784,2,2,B|184:304|152:272,1,80
104,232,153084,1,0
176,176,153234,1,2
104,112,153384,2,2,B|144:56|184:56,1,80
256,32,153684,1,0
352,56,153834,5,10
392,64,153909,1,0
432,88,153984,1,0
448,128,154059,1,0
432,168,154134,1,10
400,192,154209,1,0
360,208,154284,1,0
320,224,154359,1,4
288,248,154434,5,10
272,288,154509,1,0
240,320,154584,1,0
200,320,154659,1,0
160,304,154734,2,2,B|128:224,1,80
104,144,155034,6,0,B|16:120,2,80,2|2|2
192,88,155484,2,0,B|136:8,2,80,2|0|2
224,192,155934,1,8
312,136,156084,1,0
400,80,156234,6,2,B|474:144|416:248,1,160
352,312,156684,2,2,B|256:360|192:272,1,160
112,216,157134,1,0
80,192,157209,1,0
56,160,157284,1,0
64,120,157359,1,0
88,88,157434,6,0,B|152:32,2,80,2|0|2
152,168,157884,2,0,B|240:200,2,80,2|0|2
72,232,158334,1,8
152,304,158484,1,0
272,328,158634,6,2,B|378:304|360:176,1,160
288,136,159084,2,2,B|314:33|432:56,1,160
464,160,159534,2,0,B|464:224|432:256,1,80
400,320,159834,5,8
144,336,160134,2,2,B|72:336|40:304,1,80
120,240,160434,2,2,B|120:160|80:136,1,80
48,96,160734,2,2,B|88:64|152:64,1,80
216,56,161034,5,8
424,136,161334,2,2,B|424:208|384:232,1,80
328,176,161634,2,2,B|288:232|240:240,1,80
224,304,161934,2,2,B|160:272|160:216,1,80
112,176,162234,5,0
160,96,162384,1,2
240,144,162534,1,0
392,248,162684,5,0
464,200,162834,1,2
424,128,162984,1,0
264,32,163134,5,0
184,24,163284,1,2
56,96,163434,6,0,B|64:144,3,40
48,168,163734,2,0,B|56:216,3,40
40,240,164034,6,0,B|56:288,3,40
40,312,164334,2,0,B|56:352,3,40
48,384,164634,5,6
337,368,164934,2,2,B|449:368|449:240,1,160
296,80,165534,2,2,B|256:40|200:48,1,80
112,40,166134,5,0
448,192,166434,1,0
48,328,166734,1,0
104,280,167034,5,0
104,280,167109,1,0
104,280,167184,1,8
168,320,167334,1,0
224,272,167484,1,0
224,272,167559,1,0
224,272,167634,1,8
184,208,167784,1,0
168,136,167934,1,0
168,136,168009,1,0
168,136,168084,1,8
216,80,168234,5,0
216,80,168309,1,0
216,80,168384,1,8
280,112,168534,1,0
272,184,168684,1,0
272,184,168759,1,0
272,184,168834,1,8
344,200,168984,1,0
408,160,169134,1,0
408,160,169209,1,0
408,160,169284,1,8
464,112,169434,6,2,B|432:16|312:32,1,160
232,32,169884,2,2,B|122:35|112:160,1,160
104,216,170334,2,0,B|184:216|184:256,1,80
208,320,170634,6,6,B|320:320|320:192,1,160
224,96,171234,2,0,B|112:96|112:224,1,160
176,280,171834,5,0
176,280,171909,1,0
176,280,171984,1,8
240,240,172134,1,0
296,288,172284,1,0
296,288,172359,1,0
296,288,172434,1,8
368,296,172584,1,0
432,256,172734,1,0
432,256,172809,1,0
432,256,172884,1,8
432,184,173034,5,0
432,184,173109,1,0
432,184,173184,1,8
384,128,173334,1,0
432,72,173484,1,0
432,72,173559,1,0
432,72,173634,1,8
368,40,173784,1,0
296,48,173934,2,0,B|256:64,3,40
224,80,174234,5,2
152,136,174384,1,2
240,176,174534,2,0,B|256:232|224:264,1,80
168,320,174834,1,2
264,336,174984,1,0
368,328,175134,2,0,B|416:280|416:240,1,80
456,112,175434,6,6,B|410:17|288:40,1,160
191,44,175884,2,2,B|138:19|130:259|72:227,1,240
176,336,176634,5,10
216,344,176709,1,0
256,336,176784,1,0
288,312,176859,1,0
288,272,176934,1,10
264,240,177009,1,0
232,216,177084,1,0
200,192,177159,1,0
184,160,177234,6,0,B|216:128,3,40
224,104,177534,2,0,B|208:56,3,40
224,32,177834,5,10
256,8,177909,1,0
296,0,177984,1,0
336,16,178059,1,0
360,48,178134,1,14
424,160,178434,5,0
248,312,178734,1,0
80,112,179034,2,2,B|90:14|192:0,1,160
280,88,179484,2,2,B|207:155|280:232,1,160
384,272,179934,2,0,B|384:200|416:176,1,80
440,103,180234,6,2,B|380:21|281:71,1,160
192,72,180684,2,2,B|261:144|192:224,1,160
96,280,181134,2,0,B|144:336|192:328,1,80
256,336,181434,5,10
296,328,181509,1,0
336,312,181584,1,0
368,280,181659,1,0
376,240,181734,1,10
352,200,181809,1,0
320,176,181884,1,0
280,168,181959,1,0
240,168,182034,5,10
200,176,182109,1,0
160,176,182184,1,0
120,152,182259,1,0
96,120,182334,2,4,B|128:80,3,40
144,64,182634,5,14
288,24,182934,1,0
376,320,183234,1,0
72,184,183534,1,0
184,312,183834,6,2,B|160:240|208:224,1,80
224,144,184134,1,0
304,96,184284,1,0
400,112,184434,2,2,B|400:176|352:208,1,80
304,248,184734,1,2
376,312,184884,1,0
224,344,185034,6,2,B|152:344|120:304,1,80
64,264,185334,1,0
96,176,185484,1,0
24,120,185634,2,2,B|48:56|104:56,1,80
160,32,185934,1,2
224,96,186084,1,0
368,40,186234,6,2,B|432:72|432:128,1,80
456,184,186534,1,0
368,208,186684,1,0
280,256,186834,2,2,B|344:288|344:328,1,80
264,360,187134,1,2
176,320,187284,1,0
48,240,187434,6,2,B|56:160|104:144,1,80
160,120,187734,1,0
120,40,187884,1,0
216,16,188034,2,2,B|288:16|312:64,1,80
336,112,188334,1,2
424,96,188484,1,0
456,256,188634,5,10
432,280,188709,1,0
400,296,188784,1,0
368,304,188859,1,0
336,296,188934,1,10
304,280,189009,1,0
280,256,189084,1,0
264,224,189159,1,4
272,192,189234,5,10
296,168,189309,1,0
320,152,189384,1,0
352,136,189459,1,0
368,112,189534,1,10
360,80,189609,1,0
336,64,189684,1,0
304,64,189759,1,4
272,80,189834,6,0,B|240:104,3,40,2|0|2|0
208,104,190134,2,0,B|184:72,3,40,2|0|2|0
160,56,190434,6,0,B|112:80,3,40,2|0|2|0
96,80,190734,2,0,B|64:56,3,40,2|2|2|2
32,48,191034,5,10
8,72,191109,1,0
0,104,191184,1,0
8,136,191259,1,0
32,160,191334,1,10
64,168,191409,1,0
96,168,191484,1,0
120,184,191559,1,4
136,208,191634,5,10
136,240,191709,1,0
120,264,191784,1,0
104,288,191859,1,0
104,320,191934,1,10
128,344,192009,1,0
160,352,192084,1,0
192,344,192159,1,4
216,328,192234,6,0,B|240:288,3,40,2|2|2|2
264,288,192534,2,0,B|304:296,3,40,2|0|2|0
336,288,192834,6,0,B|352:248,3,40,2|0|2|0
376,240,193134,2,0,B|416:240,3,40,2|0|2|0
448,240,193434,6,2,B|509:166|439:94,1,160
332,48,193884,2,2,B|227:6|200:116,1,160
112,168,194334,2,2,B|112:224|152:256,1,80
224,304,194634,6,2,B|288:304|328:272,1,80
360,368,194934,2,8,B|384:328|368:256,1,80
472,240,195234,2,2,B|424:216|368:224,1,80
432,112,195534,2,8,B|368:136|352:192,1,80
272,240,195834,6,2,B|176:272|128:176,1,160
88,96,196284,2,2,B|146:14|255:59,1,160
336,48,196734,2,2,B|384:80|384:136,1,80
432,208,197034,6,2,B|376:240|344:256,1,80
352,344,197334,2,8,B|296:280,1,80
192,320,197634,2,2,B|248:224,1,80
144,184,197934,2,8,B|248:176,1,80
328,168,198234,5,2
424,128,198534,2,6,B|424:64|384:40,1,80
224,16,199134,2,6,B|111:-1|72:112,1,160
256,192,200109,12,2,201834
416,280,211434,5,0
312,336,211584,1,2
192,320,211734,1,2
112,232,211884,1,0
144,160,212034,2,2,B|216:152|224:96,1,80
264,64,212334,2,0,B|336:40|360:72,1,80
408,96,212634,5,0
464,200,212784,1,2
400,312,212934,1,2
280,320,213084,1,0
224,264,213234,2,2,B|272:208|240:160,1,80
208,128,213534,2,0,B|232:56|288:64,1,80
328,48,213834,5,0
408,96,213984,1,0
344,160,214134,2,2,B|288:168|248:208,1,80
296,272,214434,2,0,B|240:304|184:296,1,80
192,216,214734,2,2,B|144:224|96:264,1,80
64,304,215034,5,0
144,352,215184,1,0
232,320,215334,1,0
312,272,215484,2,6,B|408:208|400:48|272:8|144:80,1,400
88,112,216384,5,0
56,192,216534,2,2,B|112:248,1,80
200,232,216834,2,0,B|280:176,1,80,0|2
352,176,217134,2,2,B|424:256,1,80
432,320,217434,6,2,B|346:382|274:302,1,160
192,264,217884,2,2,B|112:195|191:105,1,160
248,56,218334,1,0
328,96,218484,1,0
384,168,218634,5,2
312,216,218784,1,2
320,296,218934,1,0
248,336,219084,2,2,B|144:336|144:216,1,160
96,168,219534,2,2,B|96:104|152:104,1,80
280,48,219834,5,2
360,72,219984,1,2
334,146,220134,1,0
414,174,220284,2,2,B|478:255|398:310,1,160
328,344,220734,2,2,B|264:344|264:264,1,80
144,224,221034,6,2,B|104:184|112:128,1,80
160,80,221334,1,0
240,48,221484,2,0,B|304:48|344:96,1,80
376,128,221784,1,2
408,208,221934,2,0,B|344:240|336:280,1,80
280,304,222234,6,0,B|208:336,1,80,2|0
128,328,222534,2,0,B|96:240,1,80,8|0
128,176,222834,2,0,B|208:136,1,80,2|0
216,64,223134,2,0,B|304:32,1,80,8|0
456,56,223434,6,2,B|456:144|400:144,1,80
376,192,223734,1,0
368,272,223884,2,0,B|288:280|280:336,1,80
216,336,224184,1,2
128,312,224334,2,0,B|72:264|88:216,1,80
72,168,224634,6,0,B|144:128,1,80,2|0
176,64,224934,2,0,B|264:80,1,80,8|0
320,48,225234,2,0,B|360:120,1,80,2|0
424,160,225534,2,0,B|368:216,1,80,8|0
264,312,225834,5,0
264,312,225909,1,0
264,312,225984,1,2
192,328,226134,1,2
112,312,226284,1,0
48,248,226434,1,2
32,160,226584,1,0
72,72,226734,1,2
168,24,226884,1,0
288,32,227034,5,0
288,32,227109,1,0
288,32,227184,1,2
376,72,227334,2,0,B|416:144,1,80,2|0
336,168,227634,2,0,B|312:248,1,80,2|0
400,256,227934,2,2,B|424:336,1,80
320,384,228234,6,2,B|215:390|196:291,1,160
96,248,228684,2,2,B|98:142|196:144,1,160
280,88,229134,1,0
392,112,229434,5,0
456,160,229584,1,0
408,224,229734,1,0
448,296,229884,2,2,B|380:361|288:308,1,160
80,288,230634,5,2
80,288,230709,1,0
80,288,230784,1,0
80,288,230859,1,0
80,288,230934,1,2
144,96,231234,5,2
144,96,231309,1,0
144,96,231384,1,0
144,96,231459,1,0
144,96,231534,1,2
248,208,231834,5,10
272,240,231909,1,0
312,248,231984,1,0
352,240,232059,1,0
376,216,232134,1,10
384,176,232209,1,0
360,144,232284,1,0
328,120,232359,1,0
320,80,232434,1,10
336,48,232509,2,2,B|384:48,3,40,0|0|2|0
496,112,233034,5,2
496,112,233109,1,0
496,112,233184,1,0
496,112,233259,1,0
496,112,233334,1,2
384,312,233634,5,2
384,312,233709,1,0
384,312,233784,1,0
384,312,233859,1,0
384,312,233934,1,2
280,160,234234,5,10
272,120,234309,1,0
240,96,234384,1,0
200,88,234459,1,0
160,96,234534,1,10
136,120,234609,1,0
120,152,234684,1,0
128,192,234759,1,0
152,224,234834,1,10
184,240,234909,2,2,B|176:288,3,40,0|0|0|0
80,344,235434,5,2
80,344,235509,1,0
80,344,235584,1,0
80,344,235659,1,0
80,344,235734,1,2
304,264,236034,5,2
304,264,236109,1,0
304,264,236184,1,0
304,264,236259,1,0
304,264,236334,1,2
144,168,236634,5,10
152,136,236709,1,0
176,112,236784,1,0
208,104,236859,1,0
240,120,236934,1,10
256,144,237009,1,0
272,176,237084,1,0
296,192,237159,1,0
328,192,237234,5,10
352,176,237309,1,2
360,144,237384,1,2
360,112,237459,1,2
344,88,237534,1,2
208,24,237834,5,2
208,24,237909,1,0
208,24,237984,1,0
208,24,238059,1,0
208,24,238134,1,2
88,208,238434,5,2
88,208,238509,1,0
88,208,238584,1,0
88,208,238659,1,0
88,208,238734,1,2
280,168,239034,6,0,B|312:200,3,40,2|0|2|0
344,200,239334,2,0,B|384:176,3,40,2|0|2|0
408,176,239634,1,2
440,184,239709,1,2
464,208,239784,1,2
472,240,239859,1,2
456,272,239934,1,2
288,344,240234,5,10
256,368,240309,1,0
216,368,240384,1,0
184,352,240459,1,0
160,320,240534,1,10
152,288,240609,1,0
168,256,240684,1,0
192,232,240759,1,4
224,216,240834,6,0,B|216:176,3,40
256,120,241134,2,0,B|296:120,3,40
360,96,241434,5,10
392,88,241509,1,0
424,104,241584,1,0
440,136,241659,1,0
440,168,241734,1,10
424,200,241809,1,0
400,216,241884,1,0
368,224,241959,1,4
336,224,242034,5,10
304,208,242109,1,0
296,176,242184,1,0
272,152,242259,1,0
240,152,242334,1,10
112,176,242634,5,10
80,200,242709,1,0
64,232,242784,1,0
72,272,242859,1,0
104,296,242934,1,10
136,304,243009,1,0
176,288,243084,1,0
200,256,243159,1,4
208,216,243234,6,0,B|256:200,3,40
232,136,243534,2,0,B|200:96,3,40
160,56,243834,5,10
176,16,243909,1,0
216,0,243984,1,0
256,8,244059,1,0
288,32,244134,1,10
304,64,244209,1,0
320,96,244284,1,0
352,120,244359,1,4
392,120,244434,6,2,B|464:56,1,80
432,216,244734,2,8,B|368:272,1,80
224,328,245034,6,2,B|144:328|136:272,1,80
64,248,245334,1,2
144,184,245484,1,0
56,136,245634,2,2,B|56:72|96:32,1,80
168,16,245934,1,0
424,32,246234,6,2,B|448:64|424:120,1,80
344,112,246534,2,2,B|320:160|352:200,1,80
432,192,246834,2,2,B|456:240|424:288,1,80
360,336,247134,1,0
216,352,247434,5,10
176,344,247509,1,0
144,320,247584,1,0
136,280,247659,1,0
144,240,247734,2,0,B|184:216,3,40,2|0|2|0
208,192,248034,5,10
224,160,248109,1,0
216,120,248184,1,0
184,96,248259,1,0
152,72,248334,2,0,B|168:32,3,40,2|0|2|0
200,8,248634,5,10
240,0,248709,1,0
280,16,248784,1,0
304,48,248859,1,0
312,88,248934,2,0,B|288:120,3,40,2|0|2|0
296,152,249234,5,10
320,184,249309,1,0
352,208,249384,1,0
392,216,249459,1,0
424,208,249534,1,10
480,96,249834,6,2,B|429:22|320:32,1,160
176,48,250434,2,2,B|128:88|128:128,1,80
200,176,250734,2,2,B|184:224|128:256,1,80
88,320,251034,6,0,B|120:368|176:368,1,80
312,328,251484,1,2
400,208,251784,1,0
328,160,251934,1,0
264,96,252084,6,2,B|192:40|80:96,1,160
48,144,252534,2,2,B|48:208|120:224,1,80
184,192,252834,2,2,B|240:208|240:272,1,80
240,344,253134,2,2,B|304:376|344:336,1,80
416,320,253434,6,0,B|424:216,1,80
400,160,253734,1,2
464,104,253884,1,0
304,32,254184,1,0
232,64,254334,1,0
272,136,254484,1,0
312,208,254634,6,2,B|274:292|180:276,1,160
72,240,255084,2,2,B|48:139|143:96,1,160
200,32,255534,2,2,B|272:88|288:40,1,80
376,56,255834,5,10
416,64,255909,1,0
448,88,255984,1,0
464,120,256059,1,0
464,160,256134,1,10
440,192,256209,1,0
408,208,256284,1,0
368,208,256359,1,0
336,192,256434,1,10
304,168,256509,2,4,B|272:216,3,40
192,320,257034,5,0
120,248,257184,1,0
184,168,257334,2,2,B|128:120|160:72,1,80
104,32,257634,2,2,B|176:8|208:48,1,80
272,32,257934,2,0,B|256:96|192:96,1,80
128,96,258234,5,10
96,104,258309,1,0
72,120,258384,1,0
48,144,258459,1,0
40,176,258534,1,10
48,208,258609,1,0
72,232,258684,1,0
88,264,258759,1,4
88,296,258834,6,0,B|64:328,3,40
80,352,259134,2,0,B|120:352,3,40
152,352,259434,5,10
184,336,259509,1,0
208,312,259584,1,0
216,272,259659,1,0
200,240,259734,1,10
168,216,259809,1,0
144,184,259884,1,0
152,144,259959,1,0
176,112,260034,6,0,B|216:112,3,40,2|0|2|0
256,56,260334,2,2,B|304:80,3,40
352,104,260634,5,10
384,112,260709,1,0
416,136,260784,1,0
424,168,260859,1,0
408,200,260934,1,10
384,224,261009,1,0
352,232,261084,1,0
320,216,261159,1,0
296,192,261234,6,0,B|256:192,3,40,2|0|2|0
192,216,261534,2,0,B|160:184,3,40,2|0|2|0
112,144,261834,5,10
80,128,261909,1,0
56,96,261984,1,0
56,64,262059,1,0
72,32,262134,1,10
104,16,262209,1,0
136,16,262284,1,0
160,40,262359,1,0
184,64,262434,6,0,B|224:64,3,40,2|0|2|0
288,88,262734,2,0,B|296:128,3,40,2|2|2|2
336,184,263034,5,10
368,208,263109,1,0
408,208,263184,1,0
448,216,263259,1,0
480,240,263334,1,10
504,280,263409,1,0
496,320,263484,1,0
472,352,263559,1,0
440,368,263634,6,0,B|392:368,3,40,2|0|2|0
344,328,263934,2,0,B|312:288,3,40,2|0|2|0
264,256,264234,5,10
240,232,264309,1,0
200,216,264384,1,0
160,208,264459,1,0
128,224,264534,1,10
96,248,264609,1,0
64,264,264684,1,0
32,264,264759,1,0
0,240,264834,6,0,B|0:192,3,40,2|2|2|2
32,136,265134,2,0,B|72:120,3,40,2|0|2|0
128,80,265434,5,10
160,80,265509,1,0
192,96,265584,1,0
216,120,265659,1,0
248,136,265734,1,10
280,128,265809,1,0
304,104,265884,1,0
320,72,265959,1,0
328,40,266034,6,0,B|368:16,3,40,2|0|2|0
432,24,266334,2,0,B|448:64,3,40,2|0|2|0
464,128,266634,5,10
464,160,266709,1,0
448,192,266784,1,0
416,208,266859,1,0
384,200,266934,1,10
352,184,267009,1,0
320,176,267084,1,0
288,184,267159,1,0
256,208,267234,6,0,B|232:256,3,40,2|0|2|0
176,280,267534,2,0,B|144:248,3,40,2|0|2|0
88,216,267834,5,10
56,192,267909,1,0
32,168,267984,1,0
16,136,268059,1,0
8,104,268134,1,10
16,72,268209,1,0
40,48,268284,1,0
72,32,268359,1,0
104,32,268434,6,0,B|136:56,3,40,2|2|2|2
208,64,268734,2,0,B|184:120,3,40,2|0|2|0
192,168,269034,5,10
208,200,269109,1,0
232,224,269184,1,0
264,240,269259,1,0
296,240,269334,2,0,B|328:208,3,40,2|0|2|0
368,160,269634,6,0,B|432:184,3,40,2|0|2|0
472,160,269934,2,0,B|456:104,3,40,2|0|2|0
424,64,270234,5,10
408,32,270309,1,0
376,16,270384,1,0
344,16,270459,1,0
312,32,270534,2,0,B|288:64,3,40,2|0|2|0
224,96,270834,6,0,B|184:64,3,40,2|0|2|0
120,80,271134,2,0,B|120:128,3,40,2|0|2|0
96,184,271434,5,10
80,224,271509,1,0
88,256,271584,1,0
112,288,271659,1,0
144,304,271734,2,0,B|176:280,3,40,2|0|2|0
240,264,272034,6,0,B|272:296,3,40,2|2|2|2
328,328,272334,2,0,B|352:288,3,40,2|0|2|0
400,240,272634,5,10
432,224,272709,1,0
456,200,272784,1,0
464,160,272859,1,0
448,128,272934,2,0,B|408:112,3,40,2|0|2|0
344,128,273234,6,0,B|328:80,3,40,2|0|2|0
288,40,273534,2,0,B|256:64,3,40,2|0|2|0
200,104,273834,5,10
176,120,273909,1,0
144,128,273984,1,0
112,120,274059,1,0
88,104,274134,1,10
56,104,274209,1,0
32,120,274284,1,0
24,152,274359,1,0
32,184,274434,5,10
48,208,274509,1,0
80,216,274584,1,0
112,208,274659,1,0
144,208,274734,1,10
160,232,274809,1,0
168,264,274884,1,0
152,288,274959,1,0
152,320,275034,6,0,B|184:344,3,40,2|0|2|0
216,344,275334,2,0,B|248:320,3,40,2|0|2|0
280,320,275634,6,0,B|320:344,3,40,2|2|2|2
344,344,275934,2,0,B|376:320,3,40,2|0|2|0
400,296,276234,5,10
400,264,276309,1,0
384,240,276384,1,0
360,224,276459,1,0
328,216,276534,1,10
304,232,276609,1,0
272,240,276684,1,0
248,224,276759,1,0
232,200,276834,5,10
232,168,276909,1,0
248,136,276984,1,0
280,128,277059,1,0
312,128,277134,1,10
336,112,277209,1,0
352,88,277284,1,0
336,64,277359,1,0
312,40,277434,6,0,B|272:48,3,40,2|0|2|0
240,48,277734,2,0,B|200:32,3,40,2|2|2|2
176,32,278034,6,0,B|144:56,3,40,2|2|2|2
112,56,278334,2,0,B|96:96,3,40,2|0|2|0
80,120,278634,5,10
56,152,278709,1,0
48,192,278784,1,0
64,224,278859,1,0
96,248,278934,1,10
128,256,279009,1,0
168,240,279084,2,2,B|184:192,1,40
232,152,279234,5,10
264,136,279309,1,0
296,136,279384,1,0
328,152,279459,1,0
344,184,279534,1,10
336,216,279609,1,0
304,240,279684,2,2,B|272:264,1,40
232,320,279834,5,10
248,352,279909,1,0
280,376,279984,1,0
320,376,280059,1,0
352,352,280134,1,10
360,312,280209,1,0
352,272,280284,2,2,B|392:256,1,40
456,240,280434,5,10
488,216,280509,1,0
504,176,280584,1,0
488,144,280659,1,0
456,120,280734,1,10
416,120,280809,1,0
384,136,280884,2,2,B|352:160,1,40
288,184,281034,5,10
256,208,281109,1,0
224,224,281184,1,0
184,216,281259,1,0
152,192,281334,2,0,B|144:152,3,40,2|2|2|2
136,120,281634,5,10
112,88,281709,1,0
80,64,281784,1,0
40,64,281859,1,0
8,88,281934,2,0,B|0:136,3,40,2|0|2|0
8,160,282234,5,10
32,192,282309,1,0
56,216,282384,1,0
72,248,282459,1,0
72,288,282534,2,0,B|48:320,3,40,2|0|2|0
32,352,282834,5,10
56,384,282909,1,0
96,384,282984,1,0
128,360,283059,1,0
144,320,283134,2,0,B|192:312,3,40,2|0|2|0
216,304,283434,5,10
256,312,283509,1,0
296,304,283584,1,0
320,272,283659,1,0
312,232,283734,1,10
288,200,283809,1,0
264,176,283884,2,2,B|288:136,1,40
336,96,284034,5,10
368,104,284109,1,0
400,128,284184,1,0
416,160,284259,1,0
416,200,284334,1,10
392,224,284409,1,0
368,256,284484,2,2,B|384:304,1,40
368,360,284634,5,10
336,376,284709,1,0
296,384,284784,1,0
256,376,284859,1,0
224,352,284934,1,10
208,320,285009,1,0
208,280,285084,2,2,B|224:240,1,40
224,176,285234,5,10
216,136,285309,1,0
192,104,285384,1,0
160,88,285459,1,0
120,80,285534,1,10
88,88,285609,1,0
56,112,285684,2,2,B|24:152,1,40
8,208,285834,5,10
24,240,285909,1,0
48,264,285984,1,0
80,272,286059,1,0
112,264,286134,2,0,B|144:240,3,40,2|2|2|2
168,216,286434,5,10
168,176,286509,1,0
184,144,286584,1,0
216,120,286659,1,0
256,120,286734,2,0,B|288:152,3,40,2|0|2|0
312,176,287034,5,10
344,184,287109,1,0
376,168,287184,1,0
392,136,287259,1,0
376,96,287334,2,0,B|416:80,3,40,2|0|2|0
440,64,287634,5,10
448,24,287709,1,0
416,0,287784,1,0
376,8,287859,1,0
336,16,287934,2,0,B|296:16,3,40,2|2|2|2
224,16,288234,6,0,B|192:48,3,40,2|0|2|0
160,104,288534,2,0,B|184:144,3,40
128,192,288834,2,0,B|112:232,3,40,2|0|2|0
184,248,289134,2,0,B|216:272,3,40
272,320,289434,6,0,B|312:288,3,40,2|0|2|0
360,248,289734,2,0,B|400:272,3,40
464,248,290034,2,0,B|456:200,3,40,2|0|2|0
432,144,290334,2,0,B|392:128,3,40
336,88,290634,6,0,B|280:104,3,40,2|0|2|0
240,144,290934,2,0,B|200:104,3,40
152,80,291234,2,0,B|112:112,3,40,2|2|2|2
48,112,291534,2,0,B|64:160,3,40
32,216,291834,6,0,B|96:240,3,40,2|0|2|0
136,208,292134,2,0,B|168:248,3,40
208,296,292434,2,0,B|248:272,3,40,2|0|2|0
304,240,292734,2,0,B|336:264,3,40
408,264,293034,5,10
440,248,293109,1,0
464,224,293184,1,0
472,184,293259,1,0
448,152,293334,1,10
416,136,293409,1,0
384,112,293484,1,0
368,80,293559,1,0
344,56,293634,6,0,B|296:64,3,40,2|0|2|0
272,64,293934,2,0,B|232:40,3,40,2|2|2|2
208,32,294234,5,10
176,24,294309,1,0
144,16,294384,1,0
112,24,294459,1,0
80,40,294534,1,10
56,64,294609,1,0
48,96,294684,1,0
56,128,294759,1,0
80,160,294834,6,0,B|136:136,3,40,2|0|2|0
152,152,295134,2,0,B|160:200,3,40,2|0|2|0
160,224,295434,5,2
288,280,295734,1,2
344,144,296034,1,2
464,216,296334,1,2
400,336,296634,5,2
96,232,296934,1,2
400,152,297234,1,2
96,48,297534,1,2
328,24,297834,6,2,B|256:72|296:112,1,80
336,168,298134,2,0,B|360:240|296:256,1,80
232,272,298434,2,2,B|176:312|192:352,1,80
96,352,298734,2,0,B|48:304|72:264,1,80
40,120,299034,6,2,B|104:80|96:32,1,80
256,16,299484,1,2
336,32,299634,1,0
368,48,299709,1,0
392,72,299784,1,0
400,112,299859,1,0
384,144,299934,1,0
368,256,300234,5,10
384,288,300309,1,0
384,328,300384,1,0
368,360,300459,1,0
336,384,300534,1,10
296,384,300609,1,0
264,360,300684,1,2
224,288,300834,5,10
216,256,300909,1,0
200,224,300984,1,0
176,200,301059,1,0
144,184,301134,1,10
112,184,301209,1,0
80,208,301284,1,2
24,272,301434,6,0,B|48:312,3,40,2|2|2|2
72,320,301734,2,0,B|128:312,3,40
144,320,302034,6,0,B|176:352,3,40,2|0|2|0
208,360,302334,2,0,B|256:352,3,40
280,344,302634,5,10
320,328,302709,1,0
352,304,302784,1,0
368,264,302859,1,0
368,216,302934,1,10
336,184,303009,1,0
296,168,303084,1,0
256,144,303159,1,4
240,104,303234,5,10
256,64,303309,1,0
288,40,303384,1,0
328,40,303459,1,0
360,56,303534,2,0,B|384:96,3,40,2|0|2|0
400,120,303834,5,10
424,152,303909,1,0
432,192,303984,1,0
416,232,304059,1,0
376,240,304134,1,10
336,224,304209,1,0
296,208,304284,1,0
256,208,304359,1,4
224,224,304434,5,10
200,256,304509,1,0
192,296,304584,1,0
216,328,304659,1,0
248,344,304734,1,14
416,320,305034,6,0,B|376:288,3,40
368,272,305334,2,0,B|368:224,3,40,2|0|2|0
352,208,305634,2,0,B|312:192,3,40
296,176,305934,2,0,B|296:128,3,40,2|0|2|0
288,104,306234,5,10
272,80,306309,1,0
248,64,306384,1,0
216,56,306459,1,0
184,64,306534,1,10
160,80,306609,1,0
144,104,306684,1,0
136,136,306759,1,4
152,168,306834,5,10
168,192,306909,1,0
176,224,306984,1,0
160,248,307059,1,0
136,264,307134,1,10
104,272,307209,1,0
72,264,307284,1,0
40,272,307359,1,4
16,296,307434,6,0,B|48:336,3,40,2|0|2|0
64,352,307734,2,0,B|112:352,3,40,2|0|2|0
136,344,308034,2,0,B|176:344,3,40,2|0|2|0
208,336,308334,2,0,B|248:336,3,40,2|0|2|0
272,320,308634,6,2,B|352:304|352:256,1,80
408,256,308934,2,0,B|360:208|312:208,1,80
392,120,309234,2,2,B|328:128|288:168,1,80
264,40,309534,2,0,B|232:104|264:144,1,80
248,192,309834,5,10
232,232,309909,1,0
200,256,309984,1,0
160,264,310059,1,0
120,248,310134,1,10
104,216,310209,1,0
112,176,310284,1,0
144,152,310359,1,4
176,136,310434,5,10
192,96,310509,1,0
176,56,310584,1,0
144,32,310659,1,0
104,32,310734,1,14
256,192,311109,12,4,312084
256,192,312234,5,10
296,184,312309,1,0
328,152,312384,1,0
328,112,312459,1,0
304,80,312534,1,10
264,64,312609,1,0
224,72,312684,1,0
192,96,312759,1,4
168,128,312834,5,10
160,168,312909,1,0
176,208,312984,1,0
208,240,313059,1,0
224,280,313134,1,10
216,320,313209,1,0
184,344,313284,1,0
144,344,313359,1,4
112,328,313434,6,0,B|88:288,3,40,2|0|2|0
80,264,313734,2,0,B|96:224,3,40,2|2|2|2
88,192,314034,5,2
64,160,314109,1,2
48,128,314184,1,2
56,88,314259,1,2
80,56,314334,1,2
216,16,314634,6,0,B|248:40,3,40,2|0|2|0
344,32,314934,2,0,B|312:72,3,40,2|0|2|0
320,160,315234,2,2,B|272:120,3,40
192,144,315534,2,2,B|224:104,3,40
256,192,315834,12,4,316884
304,136,317034,5,10
336,152,317109,1,0
360,176,317184,1,0
368,208,317259,1,0
352,240,317334,1,10
320,256,317409,1,0
288,256,317484,1,0
256,264,317559,1,4
232,288,317634,5,10
224,320,317709,1,0
240,352,317784,1,0
272,368,317859,1,0
304,368,317934,1,14
432,288,318234,5,10
456,256,318309,1,0
456,216,318384,1,0
440,184,318459,1,0
416,160,318534,1,10
384,144,318609,1,0
352,128,318684,1,0
320,120,318759,1,4
288,112,318834,5,10
256,96,318909,1,0
232,72,318984,1,0
208,48,319059,1,0
176,32,319134,1,14
40,64,319434,6,0,B|16:104,3,40,2|0|2|0
64,152,319734,2,0,B|96:184,3,40,2|0|2|0
128,240,320034,2,0,B|104:272,3,40,2|0|2|0
72,336,320334,2,0,B|120:352,3,40,2|0|2|0
184,360,320634,5,10
224,352,320709,1,0
248,320,320784,1,0
248,280,320859,1,0
232,240,320934,1,10
232,200,321009,1,0
256,168,321084,1,2
328,128,321234,5,10
360,112,321309,1,0
400,112,321384,1,0
432,128,321459,1,0
448,160,321534,1,10
448,200,321609,1,0
416,224,321684,1,2
352,280,321834,6,2,B|288:312|240:312,1,80
192,288,322134,1,0
112,240,322284,2,2,B|71:148|128:56,1,160
192,40,322734,2,2,B|256:64|288:48,1,80
440,80,323034,6,2,B|456:144|400:160,1,80
336,200,323334,2,2,B|272:216|272:128,1,80
288,72,323634,2,2,B|312:16|376:48,1,80
456,56,323934,1,0
296,304,324234,5,2
192,336,324384,1,0
88,280,324534,1,2
56,176,324684,2,2,B|64:72|192:88,1,160
296,88,325134,2,2,B|256:160|312:168,1,80
472,192,325434,6,2,B|440:256|392:248,1,80
344,176,325734,2,2,B|280:184|272:248,1,80
192,288,326034,1,10
160,304,326109,1,0
120,304,326184,1,0
96,280,326259,1,0
96,240,326334,1,10
112,208,326409,1,0
112,168,326484,1,0
88,136,326559,1,0
64,112,326634,5,8
64,16,326784,1,0
160,24,326934,2,2,B|240:64,1,80
320,72,327234,1,0
320,72,327384,2,2,B|336:160,1,80
368,224,327684,1,2
424,336,327834,5,0
424,336,327984,2,2,B|360:352|320:328,1,80
256,328,328284,1,2
176,272,328434,2,2,B|128:208,1,80
224,176,328734,2,2,B|240:88,1,80
376,16,329034,6,2,B|432:56|424:96,1,80
320,120,329334,2,2,B|304:184|352:216,1,80
432,176,329634,2,2,B|456:256|400:272,1,80
344,312,329934,2,0,B|288:360|240:328,1,80
144,240,330234,6,4,B|96:192|96:136,3,80
240,112,330834,2,4,B|288:160|288:216,3,80
352,280,331434,5,10
336,312,331509,1,0
312,336,331584,1,0
280,352,331659,1,0
248,360,331734,1,10
216,360,331809,1,0
184,352,331884,1,0
160,328,331959,1,0
144,296,332034,2,0,B|104:288,3,40,2|0|2|0
72,280,332334,6,0,B|64:216|80:184,1,80,2|0
120,104,332634,5,10
136,80,332709,1,0
160,56,332784,1,0
184,40,332859,1,0
216,32,332934,1,10
248,32,333009,1,0
280,40,333084,1,0
304,56,333159,1,0
328,80,333234,2,0,B|368:64,3,40,2|0|2|0
400,72,333534,6,0,B|424:144|400:176,1,80,0|2
432,256,333834,5,10
416,288,333909,1,0
392,312,333984,1,0
360,328,334059,1,0
328,336,334134,1,10
296,328,334209,1,0
264,304,334284,1,0
248,280,334359,1,4
224,256,334434,6,0,B|184:240,3,40
160,240,334734,2,0,B|120:272,3,40
104,280,335034,5,10
72,288,335109,1,0
40,272,335184,1,0
24,240,335259,1,0
16,208,335334,1,10
24,176,335409,1,0
48,152,335484,1,0
80,144,335559,1,4
104,120,335634,6,0,B|80:80,3,40
88,48,335934,2,0,B|128:16,3,40
144,16,336234,5,10
160,48,336309,1,0
176,80,336384,1,0
208,96,336459,1,0
232,120,336534,1,10
240,160,336609,1,0
256,192,336684,1,0
288,208,336759,1,4
320,208,336834,6,0,B|352:184,3,40,2|0|2|0
384,184,337134,2,0,B|408:216,3,40,2|0|2|0
424,240,337434,5,10
432,280,337509,1,0
408,312,337584,1,0
376,328,337659,1,0
336,328,337734,1,10
304,312,337809,1,0
280,280,337884,1,0
248,264,337959,1,4
208,272,338034,6,0,B|176:296,3,40,2|0|2|0
144,304,338334,2,0,B|96:280,3,40,2|0|2|0
80,264,338634,5,10
56,232,338709,1,0
48,192,338784,1,0
64,160,338859,1,0
88,136,338934,1,10
120,120,339009,1,0
144,96,339084,1,0
144,56,339159,1,4
136,24,339234,6,0,B|184:16,3,40,2|0|2|0
208,24,339534,2,0,B|240:48,3,40,2|0|2|0
264,72,339834,5,10
288,96,339909,1,0
304,128,339984,1,0
296,168,340059,1,0
272,184,340134,1,10
240,200,340209,1,0
216,224,340284,1,0
208,256,340359,1,4
224,288,340434,6,0,B|272:304,3,40,2|0|2|0
288,320,340734,2,0,B|312:352,3,40,2|2|2|2
344,368,341034,5,10
384,360,341109,1,0
416,336,341184,1,0
432,296,341259,1,0
416,256,341334,1,10
384,232,341409,1,0
352,200,341484,1,0
352,160,341559,1,4
376,128,341634,5,10
400,96,341709,1,0
384,56,341784,1,0
352,32,341859,1,0
312,32,341934,2,0,B|256:40,3,40,2|0|2|0
240,56,342234,5,10
216,88,342309,1,0
200,128,342384,1,0
216,168,342459,1,0
248,200,342534,1,10
280,224,342609,1,0
296,264,342684,1,0
280,304,342759,1,4
248,328,342834,5,10
208,336,342909,1,0
168,320,342984,1,0
160,280,343059,1,0
144,240,343134,2,0,B|96:224,3,40,2|0|2|0
72,208,343434,5,10
40,184,343509,1,0
24,144,343584,1,0
32,104,343659,1,0
56,80,343734,1,10
88,64,343809,1,0
120,64,343884,1,0
152,80,343959,1,4
176,104,344034,6,0,B|224:104,3,40,2|0|2|0
248,112,344334,2,0,B|272:152,3,40,2|0|2|0
288,176,344634,5,10
312,208,344709,1,0
344,224,344784,1,0
376,224,344859,1,0
408,200,344934,1,10
408,168,345009,1,0
392,136,345084,1,0
368,112,345159,1,0
344,88,345234,6,6,B|296:40|200:48|144:128|176:216,1,280,6|4
184,232,345834,5,10
200,264,345909,1,0
224,288,345984,1,0
256,304,346059,1,0
288,304,346134,2,0,B|328:288,3,40,2|0|2|0
352,280,346434,5,10
384,272,346509,1,0
416,280,346584,1,0
448,288,346659,1,0
480,272,346734,2,0,B|480:232,3,40,2|0|2|0
480,200,347034,5,10
464,168,347109,1,0
440,144,347184,1,0
408,128,347259,1,0
376,120,347334,1,10
344,120,347409,1,0
312,128,347484,1,0
288,144,347559,1,4
264,168,347634,6,0,B|176:240|200:328|280:360|352:312,1,280,6|0
368,304,348234,5,10
392,272,348309,1,0
384,240,348384,1,0
360,216,348459,1,0
328,208,348534,1,10
296,216,348609,1,0
264,216,348684,1,0
232,200,348759,1,4
208,176,348834,5,10
208,144,348909,1,0
224,112,348984,1,0
256,96,349059,1,0
280,64,349134,2,0,B|256:32,3,40,2|2|2|2
232,16,349434,5,0
200,8,349509,1,0
168,8,349584,1,0
136,24,349659,1,0
112,48,349734,1,10
104,80,349809,1,0
112,112,349884,1,0
112,144,349959,1,4
104,176,350034,6,2,B|24:192,1,80
104,288,350334,2,6,B|208:328|280:272,1,160
408,168,350934,6,2,B|376:120|320:104,1,80
304,224,351234,2,2,B|240:288|216:240,1,80
224,136,351534,2,0,B|176:88|136:120,1,80
72,152,351834,5,2
48,272,351984,1,0
144,336,352134,2,2,B|224:368|240:312,1,80
320,288,352434,1,2
416,328,352584,1,2
416,232,352734,1,0
376,48,353034,5,0
264,64,353184,1,2
264,64,353334,2,2,B|240:144|192:144,1,80
128,192,353634,1,0
192,280,353784,1,2
192,280,353934,2,2,B|256:304|288:272,1,80
368,248,354234,5,0
312,168,354384,1,2
328,80,354534,1,0
240,48,354684,1,0
160,0,354834,2,0,B|88:40|72:144|160:224,1,240,2|0
296,296,355434,5,2
384,136,355734,1,2
232,136,356034,2,2,B|280:240,1,80
144,176,356334,2,2,B|104:104,1,80
80,256,356634,5,0
144,328,356784,1,2
232,296,356934,1,0
256,192,357084,12,4,357759
216,144,357909,5,10
240,112,357984,1,0
280,96,358059,1,0
320,104,358134,1,0
352,128,358209,1,10
376,160,358284,1,0
376,200,358359,1,0
376,240,358434,1,4
352,272,358509,6,0,B|312:288,3,40,2|0|2|0
288,312,358809,2,0,B|232:296,3,40,2|0|2|0
216,312,359109,5,10
184,336,359184,1,0
144,344,359259,1,0
112,328,359334,1,0
80,304,359409,1,14
256,192,359559,12,0,360159
0,168,360305,5,10
32,200,360384,1,0
72,216,360459,1,0
112,216,360534,1,0
152,208,360609,1,10
192,192,360684,1,0
232,200,360759,1,0
264,224,360834,1,4
288,256,360909,5,10
312,288,360984,1,0
344,312,361059,1,0
384,320,361134,1,0
424,312,361209,1,10
448,280,361284,1,0
456,240,361359,1,0
432,200,361434,1,4
408,168,361509,5,10
400,128,361584,1,0
400,88,361659,1,0
376,56,361734,1,0
336,40,361809,1,10
296,56,361884,1,0
256,72,361959,1,0
216,64,362034,1,4
184,48,362109,2,0,B|128:64,3,40,2|2|2|2
48,112,362634,6,2,B|24:192|80:208,1,80
168,184,362934,2,2,B|208:232|184:272,1,80
160,368,363234,2,2,B|208:384|248:368,1,80
344,336,363534,2,0,B|368:296|352:256,1,80
456,184,363834,6,2,B|408:112|376:152,1,80
272,32,364134,2,2,B|272:112|328:104,1,80
264,216,364434,2,0,B|328:208|336:144,1,80
368,72,364734,1,2
112,32,365034,5,10
72,48,365109,1,0
40,80,365184,1,0
40,120,365259,1,0
56,160,365334,1,10
88,184,365409,1,0
128,184,365484,2,2,B|168:168,1,40
232,136,365634,5,10
272,120,365709,1,0
312,136,365784,1,0
344,168,365859,1,0
352,208,365934,1,10
336,248,366009,1,0
312,280,366084,2,2,B|264:312,1,40
200,328,366234,5,10
160,328,366309,1,0
120,312,366384,1,0
88,280,366459,1,0
80,240,366534,1,10
96,200,366609,1,0
128,168,366684,2,2,B|160:120,1,40
192,64,366834,5,10
216,32,366909,1,0
256,16,366984,1,0
296,16,367059,1,0
328,40,367134,1,10
360,72,367209,1,0
392,96,367284,2,2,B|440:80,1,40
504,96,367434,6,0,B|488:152,3,40,2|0|2|0
496,216,367734,2,0,B|448:216,3,40,2|0|2|0
376,224,368034,2,0,B|392:264,3,40,2|0|2|0
416,336,368334,2,0,B|368:336,3,40,2|0|2|0
272,344,368634,6,2,B|240:304,3,40
152,264,368934,2,2,B|184:224,3,40
136,136,369234,2,2,B|192:136,3,40
224,40,369534,2,2,B|256:64,3,40
344,112,369834,5,6
176,184,377034,5,2
176,184,377109,1,0
176,184,377184,1,0
232,136,377334,1,0
288,184,377484,1,2
288,184,377559,1,0
288,184,377634,1,0
256,248,377784,1,0
304,304,377934,1,2
304,304,378009,1,0
304,304,378084,1,0
368,272,378234,5,2
368,272,378309,1,0
368,272,378384,1,0
360,200,378534,1,0
408,144,378684,1,2
408,144,378759,1,0
408,144,378834,1,0
368,88,378984,1,0
424,48,379134,1,2
424,48,379209,1,0
424,48,379284,1,0
360,16,379434,5,10
328,16,379509,1,0
304,32,379584,1,0
280,56,379659,1,0
280,88,379734,1,10
296,112,379809,1,0
312,136,379884,1,0
312,168,379959,1,4
296,200,380034,5,10
272,216,380109,1,0
240,224,380184,1,0
208,216,380259,1,0
184,192,380334,1,10
168,168,380409,1,0
152,144,380484,1,0
128,128,380559,1,4
96,120,380634,6,0,B|64:144,3,40,2|0|2|0
48,168,380934,2,0,B|72:208,3,40,2|0|2|0
80,232,381234,5,10
80,264,381309,1,0
88,296,381384,1,0
112,320,381459,1,0
136,336,381534,1,10
168,336,381609,1,0
192,320,381684,1,0
208,296,381759,1,4
208,264,381834,5,10
208,232,381909,1,0
224,208,381984,1,0
248,192,382059,1,0
280,192,382134,1,10
304,208,382209,1,0
320,240,382284,1,0
320,272,382359,1,4
304,304,382434,6,0,B|352:336,3,40,2|0|2|0
368,336,382734,2,0,B|400:304,3,40,2|0|2|0
416,288,383034,5,10
416,256,383109,1,0
400,232,383184,1,0
384,208,383259,1,0
384,176,383334,1,10
400,152,383409,1,0
416,128,383484,1,0
416,96,383559,1,4
400,72,383634,5,10
384,48,383709,1,0
360,32,383784,1,0
328,24,383859,1,0
296,24,383934,1,10
264,32,384009,1,0
240,48,384084,1,0
224,72,384159,1,4
224,104,384234,6,0,B|256:144,3,40,2|0|2|0
248,168,384534,2,0,B|208:208,3,40,2|0|2|0
200,216,384834,5,10
168,224,384909,1,0
136,216,384984,1,0
120,192,385059,1,0
112,160,385134,1,10
120,128,385209,1,0
104,104,385284,1,0
80,88,385359,1,4
48,88,385434,5,10
16,96,385509,1,0
0,120,385584,1,0
0,152,385659,1,0
16,176,385734,1,10
32,200,385809,1,0
32,232,385884,1,0
16,256,385959,1,4
8,288,386034,6,0,B|48:320,3,40,2|2|2|2
64,328,386334,2,0,B|104:320,3,40,2|0|2|0
128,312,386634,5,10
160,304,386709,1,0
184,288,386784,1,0
200,264,386859,1,0
192,232,386934,1,10
176,208,387009,1,0
160,184,387084,1,0
168,152,387159,1,4
184,128,387234,5,10
208,112,387309,1,0
240,112,387384,1,0
264,128,387459,1,0
272,160,387534,1,10
288,184,387609,1,0
312,208,387684,1,0
344,216,387759,1,4
376,216,387834,5,10
400,200,387909,1,0
408,168,387984,1,0
400,136,388059,1,0
384,112,388134,1,10
360,96,388209,1,0
344,72,388284,1,0
344,40,388359,1,4
360,16,388434,5,10
392,8,388509,1,0
424,8,388584,1,0
456,16,388659,1,0
480,32,388734,2,0,B|480:80,3,40,6|0|6|0
488,112,389034,5,10
504,144,389109,1,0
504,184,389184,1,0
480,216,389259,1,0
448,240,389334,1,10
408,240,389409,1,0
376,224,389484,1,0
360,184,389559,1,4
336,160,389634,5,10
296,144,389709,1,0
256,152,389784,1,0
224,176,389859,1,0
208,208,389934,2,2,B|232:240,3,40
248,272,390234,5,10
240,304,390309,1,0
208,328,390384,1,0
176,336,390459,1,0
136,328,390534,1,10
120,296,390609,1,0
136,256,390684,1,0
120,224,390759,1,4
96,192,390834,5,10
64,176,390909,1,0
32,152,390984,1,0
24,112,391059,1,0
40,80,391134,2,2,B|80:64,3,40
112,56,391434,5,10
152,56,391509,1,0
184,80,391584,1,0
200,112,391659,1,0
200,152,391734,1,10
192,184,391809,1,0
216,216,391884,1,0
248,232,391959,1,4
288,224,392034,5,10
320,200,392109,1,0
328,160,392184,1,0
320,128,392259,1,0
328,96,392334,2,2,B|368:72,3,40
392,64,392634,5,10
432,72,392709,1,0
464,96,392784,1,0
472,136,392859,1,0
456,176,392934,1,10
424,200,393009,1,0
392,224,393084,1,0
368,256,393159,1,4
368,296,393234,5,10
384,328,393309,1,0
368,368,393384,1,0
336,376,393459,1,0
296,360,393534,2,2,B|272:328,3,40
256,304,393834,6,0,B|256:256,3,40,2|4|2|4
240,240,394134,2,0,B|192:224,3,40,2|4|2|4
176,216,394434,2,0,B|136:184,3,40,2|4|2|4
120,176,394734,2,0,B|104:136,3,40,2|4|2|4
88,112,395034,2,0,B|136:80,3,40,2|4|2|4
144,64,395334,2,0,B|192:64,3,40,2|4|2|4
216,64,395634,5,14
248,72,395709,1,0
272,88,395784,1,0
280,120,395859,1,0
280,152,395934,1,14
280,184,396009,1,0
304,208,396084,1,0
328,224,396159,1,0
360,224,396234,5,14
384,208,396309,1,0
400,184,396384,1,0
400,144,396459,1,0
384,120,396534,1,14
360,96,396609,1,0
368,64,396684,1,0
392,48,396759,1,0
424,48,396834,5,14
456,56,396909,1,0
480,80,396984,1,0
488,112,397059,1,0
496,144,397134,1,14
488,176,397209,1,0
480,208,397284,1,0
464,232,397359,1,0
440,256,397434,5,14
416,272,397509,1,0
384,280,397584,1,0
352,280,397659,1,0
320,272,397734,1,14
288,264,397809,1,0
256,256,397884,1,0
224,264,397959,1,0
192,280,398034,5,14
168,296,398109,1,0
136,304,398184,1,0
104,296,398259,1,0
80,280,398334,1,14
64,256,398409,1,0
64,224,398484,1,0
80,200,398559,1,0
104,176,398634,5,14
432,128,399834,5,14
168,272,401034,6,0,B|192:232,3,40,4|0|4|0
136,168,401334,6,0,B|192:160,3,40,4|0|4|0
184,88,401634,6,0,B|224:104,3,40,4|0|4|0
280,40,401934,6,0,B|296:88,3,40,4|0|4|0
328,144,402234,5,2
288,264,402459,1,2
200,168,402684,1,4
256,192,402909,12,4,403734
