osu file format v14

[General]
AudioFilename: Dragonforce - Above The Winter Moonlight.mp3
AudioLeadIn: 0
PreviewTime: 352482
Countdown: 0
SampleSet: Normal
StackLeniency: 0.7
Mode: 0
LetterboxInBreaks: 0
WidescreenStoryboard: 0

[Editor]
DistanceSpacing: 1.5
BeatDivisor: 4
GridSize: 16
TimelineZoom: 2.5

[Metadata]
Title:Above the Winter Moonlight
TitleUnicode:Above the Winter Moonlight
Artist:DragonForce
ArtistUnicode:DragonForce
Creator:CircleChu
Version:Freedom
Source:
Tags:sonic firestorm dragon force speed metal speedmetal powermetal power insane legend deathstream melodic marathon
BeatmapID:908042
BeatmapSetID:419588

[Difficulty]
HPDrainRate:4
CircleSize:4
OverallDifficulty:9
ApproachRate:9.5
SliderMultiplier:1.65
SliderTickRate:2

[Events]
//Background and Video events
0,0,"background.jpg",0,0
//Break Periods
2,124712,126387
2,127112,128187
2,129512,131187
2,220712,224787
2,354912,356787
//Storyboard Layer 0 (Background)
//Storyboard Layer 1 (Fail)
//Storyboard Layer 2 (Pass)
//Storyboard Layer 3 (Foreground)
//Storyboard Sound Samples

[TimingPoints]
2319,574.162679425837,4,1,1,10,1,0
2606,-100,4,1,1,15,0,0
2893,-100,4,1,1,20,0,0
3180,-100,4,1,1,25,0,0
3467,-100,4,1,1,30,0,0
3754,-100,4,1,1,35,0,0
4041,-100,4,1,1,40,0,0
4328,-100,4,1,1,45,0,0
4615,-100,4,1,1,50,0,0
4902,-100,4,1,1,55,0,0
5189,-100,4,1,1,60,0,0
5476,-100,4,1,1,65,0,0
5763,-100,4,1,1,70,0,0
6051,-100,4,1,1,75,0,0
6338,-100,4,1,1,80,0,0
6625,-100,4,2,1,5,0,0
6912,600,4,2,1,40,1,0
26112,300,4,1,1,65,1,0
52512,-133.333333333333,4,1,1,65,0,0
52587,-100,4,1,1,5,0,0
53712,-100,4,1,1,65,0,0
54912,-100,4,1,1,65,0,0
74112,-100,4,1,1,65,0,0
83712,-200,4,1,1,50,0,0
93312,-133.333333333333,4,1,1,60,0,0
102912,-100,4,1,1,80,0,1
124512,-100,4,1,1,65,0,0
131712,-133.333333333333,4,1,1,65,0,0
132912,-100,4,1,1,65,0,0
142512,-100,4,1,1,65,0,0
162912,-200,4,1,1,50,0,0
172512,-133.333333333333,4,1,1,60,0,0
182112,-100,4,1,1,80,0,1
210912,-100,4,2,1,65,0,0
225312,-133.333333333333,4,2,1,50,0,0
239712,-117.647058823529,4,1,1,60,0,0
254112,-100,4,1,1,65,0,0
258912,-100,4,2,1,65,0,0
273312,-100,4,1,1,65,0,0
275712,-100,4,1,1,65,0,0
292512,-100,4,1,1,65,0,0
300912,-133.333333333333,4,1,1,65,0,0
304512,-111.111111111111,4,1,1,60,0,0
305712,-100,4,1,1,60,0,0
306012,-100,4,1,1,5,0,0
306162,-100,4,1,1,60,0,0
306462,-100,4,1,1,5,0,0
306612,-100,4,1,1,60,0,0
306762,-100,4,1,1,5,0,0
306912,-100,4,1,1,60,0,0
307212,-100,4,1,1,5,0,0
307362,-100,4,1,1,65,0,0
308112,-100,4,1,1,5,0,0
308262,-100,4,1,1,60,0,0
310062,-100,4,1,1,5,0,0
310212,-100,4,1,1,60,0,0
310812,-100,4,1,1,5,0,0
310962,-100,4,1,1,60,0,0
311262,-100,4,1,1,5,0,0
311412,-100,4,1,1,60,0,0
313437,-100,4,1,1,5,0,0
313512,-100,4,1,1,60,0,0
313662,-100,4,1,1,5,0,0
313812,-100,4,1,1,60,0,0
313962,-100,4,1,1,5,0,0
314112,-153.846153846154,4,1,1,65,0,0
318837,-100,4,1,1,5,0,0
318912,-100,4,1,1,65,0,0
323112,-111.111111111111,4,1,1,65,0,0
323637,-100,4,1,1,5,0,0
323712,-100,4,1,1,65,0,0
328437,-100,4,1,1,5,0,0
328512,-100,4,1,1,65,0,0
333312,-100,4,1,1,60,0,0
334137,-100,4,1,1,5,0,0
334212,-80,4,1,1,60,0,0
334287,-100,4,1,1,5,0,0
334362,-80,4,1,1,60,0,0
334437,-100,4,1,1,5,0,0
334512,-100,4,1,1,60,0,0
334887,-100,4,1,1,5,0,0
334962,-100,4,1,1,60,0,0
335337,-100,4,1,1,5,0,0
335412,-100,4,1,1,60,0,0
335637,-100,4,1,1,5,0,0
335712,-100,4,1,1,60,0,0
336087,-100,4,1,1,5,0,0
336162,-100,4,1,1,60,0,0
336537,-100,4,1,1,5,0,0
336612,-100,4,1,1,60,0,0
336837,-100,4,1,1,5,0,0
336912,-125,4,1,1,60,0,0
337737,-100,4,1,1,5,0,0
337812,-80,4,1,1,60,0,0
337887,-100,4,1,1,5,0,0
337962,-80,4,1,1,60,0,0
338037,-100,4,1,1,5,0,0
338112,-100,4,1,1,60,0,0
338337,-100,4,1,1,5,0,0
338412,-100,4,1,1,60,0,0
339387,-100,4,1,1,5,0,0
339462,-100,4,1,1,60,0,0
344862,-80,4,1,1,60,0,0
357312,-100,4,1,1,80,0,1
371562,-100,4,1,1,80,0,0
371712,-100,4,1,1,80,0,1
378612,-86.9565217391304,4,1,1,80,0,1
378912,-83.3333333333333,4,1,1,80,0,1
380112,-100,4,1,1,80,0,1
381312,666.666666666667,4,1,1,60,1,0
391978,-100,4,1,1,50,0,0
431812,923.076923076923,4,1,1,60,1,0
432042,824.742268041237,4,1,1,45,1,0
432866,802.407221664995,4,1,1,45,1,0
433668,885.282183696053,4,1,1,45,1,0
434553,1158.86045388701,4,1,1,45,1,0
435711,1019.54120645709,4,1,1,45,1,0
447945,1200,4,1,1,45,1,0

[Colours]
Combo1 : 0,221,221
Combo2 : 145,145,255
Combo3 : 0,230,115
Combo4 : 128,0,255

[HitObjects]
256,192,2318,12,0,6625,0:0:0:0:
244,44,6912,6,0,B|151:61|170:13|74:28,1,165,0|2,0:0|0:0,0:0:0:0:
116,132,7812,1,0,0:0:0:0:
44,215,8112,1,0,0:0:0:0:
44,215,8712,2,0,P|84:221|125:215,1,82.5
213,127,9312,6,0,P|243:177|229:283,1,165,0|2,0:0|0:0,0:0:0:0:
164,352,10212,1,0,0:0:0:0:
137,256,10512,1,0,0:0:0:0:
360,159,11112,2,0,P|400:152|440:160,1,82.5
328,232,11712,6,0,P|280:152|336:80,1,165,0|2,0:0|0:0,0:0:0:0:
408,56,12612,1,0,0:0:0:0:
288,24,12912,1,0,0:0:0:0:
168,56,13212,2,0,P|128:48|80:8,2,82.5
296,128,14112,6,0,B|308:124|308:124|336:129|336:129|360:125|360:125|376:129,1,82.5
288,224,14712,1,2,0:0:0:0:
192,144,15012,1,0,0:0:0:0:
438,247,15612,1,0,0:0:0:0:
342,327,15912,1,0,0:0:0:0:
342,327,16512,6,0,P|263:349|194:290,1,165,0|2,0:0|0:0,0:0:0:0:
280,259,17412,2,0,P|303:224|311:184,2,82.5
187,164,18312,2,0,P|195:123|217:89,1,82.5
332,24,18912,6,0,P|413:31|456:111,1,165,0|2,0:0|0:0,0:0:0:0:
432,228,19812,1,0,0:0:0:0:
360,116,20112,1,0,0:0:0:0:
359,115,20712,2,0,P|316:120|277:117,1,82.5
178,23,21312,6,0,P|143:87|160:179,1,165,0|2,0:0|0:0,0:0:0:0:
230,276,22212,1,0,0:0:0:0:
350,305,22512,2,0,P|390:309|441:299,2,82.5
387,187,23412,1,0,0:0:0:0:
476,350,23712,6,0,P|432:356|385:349,1,82.5
289,285,24312,1,2,0:0:0:0:
175,333,24612,1,0,0:0:0:0:
175,333,25212,2,0,P|125:310|85:311,1,82.5
157,61,26112,6,0,P|227:36|324:73,1,165,4|8,0:0|0:0,0:0:0:0:
356,176,26562,1,0,0:0:0:0:
234,168,26712,2,0,L|151:163,1,82.5
58,245,27012,2,0,L|140:248,1,82.5,8|0,0:0|0:0,0:0:0:0:
303,327,27312,6,0,P|213:343|123:315,1,165,0|8,0:0|0:0,0:0:0:0:
58,245,27762,1,0,0:0:0:0:
132,125,27912,2,0,B|153:168|153:168|198:224,1,82.5
309,169,28212,2,0,B|288:126|288:126|267:100,1,82.5,8|0,0:0|0:0,0:0:0:0:
96,36,28512,6,0,P|44:88|56:188,1,165,0|8,0:0|0:0,0:0:0:0:
104,296,28962,1,0,0:0:0:0:
164,182,29112,1,0,0:0:0:0:
164,182,29187,1,0,0:0:0:0:
164,182,29262,1,0,0:0:0:0:
267,264,29412,6,0,L|348:275,1,82.5,8|0,0:0|0:0,0:0:0:0:
492,216,29712,2,0,L|411:205,1,82.5
284,161,30012,1,8,0:0:0:0:
404,107,30162,1,0,0:0:0:0:
282,59,30312,2,0,P|230:51|169:65,1,82.5
130,166,30612,2,0,P|182:174|243:160,1,82.5,8|0,0:0|0:0,0:0:0:0:
84,65,30912,6,0,P|27:124|33:218,1,165,4|8,0:0|0:0,0:0:0:0:
81,322,31362,1,0,0:0:0:0:
189,247,31512,1,0,0:0:0:0:
287,334,31662,1,0,0:0:0:0:
344,216,31812,6,0,P|336:130|381:51,2,165,8|0|8,0:0|0:0|0:0,0:0:0:0:
443,154,32562,1,0,0:0:0:0:
263,51,32712,2,0,P|207:61|171:86,1,82.5
243,228,33012,2,0,P|251:171|239:129,1,82.5,8|0,0:0|0:0,0:0:0:0:
50,262,33312,6,0,P|114:324|212:320,1,165,0|8,0:0|0:0,0:0:0:0:
317,260,33762,1,0,0:0:0:0:
443,154,33912,2,0,B|450:192|450:192|446:235,1,82.5
266,132,34212,2,0,B|258:93|258:93|262:50,1,82.5,8|0,0:0|0:0,0:0:0:0:
336,252,34512,5,0,0:0:0:0:
323,287,34587,1,0,0:0:0:0:
301,317,34662,1,0,0:0:0:0:
272,340,34737,1,0,0:0:0:0:
238,355,34812,1,8,0:0:0:0:
202,360,34887,1,0,0:0:0:0:
165,355,34962,1,0,0:0:0:0:
131,341,35037,1,0,0:0:0:0:
103,316,35112,5,0,0:0:0:0:
96,296,35187,1,0,0:0:0:0:
92,276,35262,1,0,0:0:0:0:
89,256,35337,1,0,0:0:0:0:
89,235,35412,1,8,0:0:0:0:
90,214,35487,1,0,0:0:0:0:
94,194,35562,1,0,0:0:0:0:
99,174,35637,1,0,0:0:0:0:
106,154,35712,6,0,P|179:128|267:132,1,165,4|8,0:0|0:0,0:0:0:0:
396,197,36162,1,0,0:0:0:0:
294,269,36312,1,0,0:0:0:0:
361,118,36462,1,0,0:0:0:0:
376,273,36612,6,0,P|326:276|284:266,1,82.5,8|0,0:0|0:0,0:0:0:0:
254,135,36912,2,0,P|295:131|336:139,1,82.5
217,277,37212,2,0,P|167:280|125:270,1,82.5,8|0,0:0|0:0,0:0:0:0:
97,108,37512,2,0,P|137:104|178:111,1,82.5
53,310,37812,2,0,P|50:260|60:218,1,82.5,8|0,0:0|0:0,0:0:0:0:
195,20,38112,6,0,B|240:36|240:36|304:8|363:53,1,165,0|8,0:0|0:0,0:0:0:0:
377,184,38562,1,0,0:0:0:0:
240,208,38712,2,0,B|255:140|255:140|255:105,1,82.5
112,27,39012,2,0,B|97:95|97:95|97:130,1,82.5,8|0,0:0|0:0,0:0:0:0:
157,262,39312,5,0,0:0:0:0:
259,132,39462,1,0,0:0:0:0:
259,132,39762,5,0,0:0:0:0:
368,256,39912,2,0,P|408:262|449:255,1,82.5
400,80,40212,2,0,P|359:73|318:79,1,82.5,8|0,0:0|0:0,0:0:0:0:
162,185,40512,6,0,P|166:269|232:334,1,165,6|8,0:0|0:0,0:0:0:0:
217,327,40887,1,0,0:0:0:0:
217,327,40962,1,0,0:0:0:0:
414,331,41112,2,0,P|376:300|333:286,1,82.5
258,177,41412,1,8,0:0:0:0:
258,177,41487,1,0,0:0:0:0:
258,177,41562,1,0,0:0:0:0:
335,60,41712,6,0,B|371:43|371:43|424:34,1,82.5
414,176,42012,2,0,B|378:193|378:193|335:200,1,82.5,8|0,0:0|0:0,0:0:0:0:
170,64,42312,2,0,B|209:61|209:61|262:71,1,82.5
188,280,42612,2,0,B|148:282|148:282|105:274,1,82.5,8|0,0:0|0:0,0:0:0:0:
326,159,42912,6,0,P|340:210|327:284,1,123.75
354,265,43212,2,0,P|392:254|445:268,1,82.5,8|0,0:0|0:0,0:0:0:0:
230,346,43512,2,0,P|192:357|139:343,1,82.5
170,134,43812,2,0,P|210:196|181:286,1,165,8|0,0:0|0:0,0:0:0:0:
47,290,44262,1,0,0:0:0:0:
106,83,44412,2,8,P|172:53|244:101,2,165,8|0|8,0:0|0:0|0:0,0:0:0:0:
50,193,45162,1,0,0:0:0:0:
154,320,45312,6,0,L|240:309,1,82.5,4|0,0:0|0:0,0:0:0:0:
322,220,45612,1,8,0:0:0:0:
218,92,45762,2,0,B|159:89|159:89|129:105,1,82.5
50,193,46062,1,0,0:0:0:0:
209,233,46212,6,0,B|271:235|271:235|303:218,1,82.5,8|0,0:0|0:0,0:0:0:0:
328,98,46512,1,0,0:0:0:0:
436,224,46662,2,0,P|442:264|433:304,1,82.5,0|8,0:0|0:0,0:0:0:0:
293,328,46962,1,0,0:0:0:0:
194,252,47112,5,0,0:0:0:0:
326,298,47262,1,0,0:0:0:0:
169,285,47412,1,8,0:0:0:0:
279,185,47562,1,0,0:0:0:0:
358,335,47712,6,0,P|326:351|262:351,1,82.5
169,285,48012,1,8,0:0:0:0:
221,118,48162,2,0,P|253:102|317:102,1,82.5
410,168,48462,1,0,0:0:0:0:
279,354,48612,6,0,P|259:318|265:254,1,82.5,8|0,0:0|0:0,0:0:0:0:
316,53,48912,2,0,P|336:89|330:153,1,82.5
169,285,49212,2,0,P|149:249|155:185,1,82.5,8|0,0:0|0:0,0:0:0:0:
199,41,49512,2,0,P|219:77|213:141,1,82.5
119,248,49812,2,0,B|73:248|73:248|37:239,1,82.5,8|0,0:0|0:0,0:0:0:0:
120,135,50112,5,4,0:0:0:0:
120,135,50187,1,0,0:0:0:0:
120,135,50262,1,0,0:0:0:0:
204,236,50412,1,8,0:0:0:0:
318,170,50562,1,0,0:0:0:0:
318,170,50637,1,0,0:0:0:0:
318,170,50712,1,0,0:0:0:0:
387,282,50862,1,0,0:0:0:0:
451,136,51012,6,0,B|478:75|478:75|479:50,1,82.5,8|0,0:0|0:0,0:0:0:0:
346,59,51312,1,0,0:0:0:0:
289,215,51462,2,0,B|355:210|355:210|378:199,1,82.5,0|8,0:0|0:0,0:0:0:0:
218,140,51762,1,0,0:0:0:0:
308,291,51912,6,0,B|321:332|321:332|317:371,1,82.5
187,311,52212,2,0,B|173:269|173:269|177:230,1,82.5,8|0,0:0|0:0,0:0:0:0:
238,101,52512,6,0,P|271:276|109:203,1,433.125016522408,2|0,0:0|0:0,0:0:0:0:
209,197,53712,5,0,0:0:0:0:
245,215,53787,1,0,0:0:0:0:
286,211,53862,1,0,0:0:0:0:
318,184,53937,1,0,0:0:0:0:
356,174,54012,1,8,0:0:0:0:
393,190,54087,1,0,0:0:0:0:
402,227,54162,1,0,0:0:0:0:
371,250,54237,1,0,0:0:0:0:
333,238,54312,5,0,0:0:0:0:
328,200,54387,1,0,0:0:0:0:
358,174,54462,1,0,0:0:0:0:
398,163,54537,1,0,0:0:0:0:
429,137,54612,1,8,0:0:0:0:
441,97,54687,1,0,0:0:0:0:
429,58,54762,1,0,0:0:0:0:
396,35,54837,1,0,0:0:0:0:
355,23,54912,6,0,P|309:20|266:36,1,82.5,4|0,0:0|0:0,0:0:0:0:
151,151,55212,2,0,B|152:197|152:197|189:296,1,123.75,8|0,0:0|0:0,0:0:0:0:
150,263,55512,2,0,P|111:258|68:263,1,82.5
250,364,55812,2,0,P|289:369|332:364,1,82.5,8|0,0:0|0:0,0:0:0:0:
358,202,56112,6,0,P|312:123|243:93,1,165,0|8,0:0|0:0,0:0:0:0:
247,93,56487,1,0,0:0:0:0:
247,93,56562,1,0,0:0:0:0:
161,297,56712,2,0,B|194:273|194:273|218:239,1,82.5
108,104,57012,2,0,B|76:131|76:131|51:163,1,82.5,8|0,0:0|0:0,0:0:0:0:
108,352,57312,6,0,P|187:368|237:295,1,165,0|8,0:0|0:0,0:0:0:0:
291,171,57762,2,0,P|333:162|379:172,1,82.5
496,249,58062,1,0,0:0:0:0:
377,338,58212,2,0,P|337:320|306:285,1,82.5,8|0,0:0|0:0,0:0:0:0:
401,99,58512,6,0,P|443:169|402:240,1,165,0|8,0:0|0:0,0:0:0:0:
291,171,58962,1,0,0:0:0:0:
157,127,59112,1,0,0:0:0:0:
132,129,59187,1,0,0:0:0:0:
105,132,59262,1,0,0:0:0:0:
24,246,59412,1,8,0:0:0:0:
47,244,59487,1,0,0:0:0:0:
72,240,59562,1,0,0:0:0:0:
230,326,59712,6,0,P|151:346|73:323,1,165,4|8,0:0|0:0,0:0:0:0:
123,176,60162,1,0,0:0:0:0:
257,89,60312,2,0,B|276:129|276:129|276:166,1,82.5
129,270,60612,2,0,B|109:229|109:229|109:192,1,82.5,8|0,0:0|0:0,0:0:0:0:
201,332,60912,6,0,P|130:365|50:326,1,165,0|8,0:0|0:0,0:0:0:0:
55,332,61287,1,0,0:0:0:0:
55,332,61362,1,0,0:0:0:0:
233,174,61512,2,0,B|247:219|212:262,1,82.5
100,128,61812,2,0,B|86:83|121:40,1,82.5,8|0,0:0|0:0,0:0:0:0:
266,95,62112,6,0,B|303:127|303:127|319:188|319:188|363:217,1,165,0|8,0:0|0:0,0:0:0:0:
197,250,62562,2,0,B|159:217|159:217|143:156|143:156|99:127,1,165
157,315,63012,2,0,P|196:326|235:315,1,82.5,8|0,0:0|0:0,0:0:0:0:
326,41,63312,5,0,0:0:0:0:
340,66,63387,1,0,0:0:0:0:
347,93,63462,1,0,0:0:0:0:
347,122,63537,1,0,0:0:0:0:
340,150,63612,1,8,0:0:0:0:
325,175,63687,1,0,0:0:0:0:
306,197,63762,2,0,P|279:207|254:205,1,41.25
175,142,63912,5,0,0:0:0:0:
161,167,63987,1,0,0:0:0:0:
154,194,64062,1,0,0:0:0:0:
154,223,64137,1,0,0:0:0:0:
161,251,64212,1,8,0:0:0:0:
176,276,64287,1,0,0:0:0:0:
195,298,64362,2,0,P|222:308|247:306,1,41.25
121,189,64512,6,0,P|81:180|36:189,1,82.5,4|0,0:0|0:0,0:0:0:0:
174,331,64812,2,0,P|215:341|260:332,1,82.5,8|0,0:0|0:0,0:0:0:0:
255,143,65112,2,0,P|215:134|170:143,1,82.5
308,285,65412,2,0,P|349:295|394:286,1,82.5,8|0,0:0|0:0,0:0:0:0:
70,150,65712,6,0,P|44:183|120:181,1,165,0|8,0:0|0:0,0:0:0:0:
148,122,66087,1,0,0:0:0:0:
147,122,66162,2,0,P|188:115|229:122,1,82.5
318,217,66462,1,0,0:0:0:0:
197,271,66612,2,0,P|187:232|194:174,1,82.5,8|0,0:0|0:0,0:0:0:0:
365,151,66912,6,0,P|398:216|337:297,1,165,0|8,0:0|0:0,0:0:0:0:
189,190,67362,2,0,P|156:125|217:44,1,165
329,69,67812,2,0,P|368:79|408:69,1,82.5,8|0,0:0|0:0,0:0:0:0:
269,20,68112,5,0,0:0:0:0:
269,20,68187,1,0,0:0:0:0:
269,20,68262,1,0,0:0:0:0:
148,106,68412,1,8,0:0:0:0:
273,201,68562,1,0,0:0:0:0:
273,201,68637,1,0,0:0:0:0:
273,200,68712,2,0,P|272:159|262:120,1,82.5
127,203,69012,2,0,P|128:244|138:283,1,82.5,8|0,0:0|0:0,0:0:0:0:
46,68,69312,6,0,P|36:154|46:240,1,165,4|8,0:0|0:0,0:0:0:0:
99,343,69762,1,0,0:0:0:0:
166,239,69912,1,0,0:0:0:0:
261,317,70062,1,0,0:0:0:0:
280,194,70212,2,0,P|326:161|351:93,1,123.75,8|0,0:0|0:0,0:0:0:0:
382,73,70512,6,0,B|398:111|398:111|375:180|400:244,1,165,0|8,0:0|0:0,0:0:0:0:
434,350,70962,1,0,0:0:0:0:
310,339,71112,2,0,B|268:329|268:329|230:304,1,82.5
205,162,71412,2,0,B|247:172|247:172|285:197,1,82.5,8|0,0:0|0:0,0:0:0:0:
307,218,71637,1,0,0:0:0:0:
332,244,71712,6,0,P|359:174|346:113,1,123.75
352,127,72012,1,8,0:0:0:0:
247,37,72162,2,0,P|117:39|78:71,1,165
35,189,72612,1,8,0:0:0:0:
35,189,72687,1,0,0:0:0:0:
35,189,72762,1,0,0:0:0:0:
187,254,72912,5,0,0:0:0:0:
164,230,72987,1,0,0:0:0:0:
132,225,73062,1,0,0:0:0:0:
102,240,73137,1,0,0:0:0:0:
91,280,73212,5,8,0:0:0:0:
107,316,73287,1,0,0:0:0:0:
145,328,73362,1,0,0:0:0:0:
179,306,73437,1,0,0:0:0:0:
187,254,73512,5,0,0:0:0:0:
162,211,73587,1,0,0:0:0:0:
153,163,73662,1,0,0:0:0:0:
162,114,73737,1,0,0:0:0:0:
180,58,73812,5,8,0:0:0:0:
225,23,73887,1,0,0:0:0:0:
282,14,73962,1,0,0:0:0:0:
336,32,74037,1,0,0:0:0:0:
372,76,74112,5,4,0:0:0:0:
334,227,74262,1,0,0:0:0:0:
453,133,74412,1,8,0:0:0:0:
300,138,74562,1,0,0:0:0:0:
430,227,74712,5,0,0:0:0:0:
303,317,74862,1,0,0:0:0:0:
455,322,75012,1,8,0:0:0:0:
334,227,75162,1,0,0:0:0:0:
200,200,75312,5,0,0:0:0:0:
200,200,75387,1,0,0:0:0:0:
200,200,75462,1,0,0:0:0:0:
104,303,75612,1,8,0:0:0:0:
104,303,75687,1,0,0:0:0:0:
104,303,75762,1,0,0:0:0:0:
41,186,75912,6,0,B|47:143|47:143|35:84,1,82.5
139,18,76212,1,8,0:0:0:0:
217,124,76362,1,0,0:0:0:0:
350,27,76512,6,0,P|392:101|369:172,1,165,0|8,0:0|0:0,0:0:0:0:
254,237,76962,1,0,0:0:0:0:
122,222,77112,1,0,0:0:0:0:
122,222,77187,1,0,0:0:0:0:
122,222,77262,1,0,0:0:0:0:
128,352,77412,2,0,B|171:348|171:348|215:330,1,82.5,8|0,0:0|0:0,0:0:0:0:
307,244,77712,5,0,0:0:0:0:
320,214,77787,1,0,0:0:0:0:
321,181,77862,1,0,0:0:0:0:
310,150,77937,1,0,0:0:0:0:
307,117,78012,1,8,0:0:0:0:
315,85,78087,1,0,0:0:0:0:
347,75,78162,5,0,0:0:0:0:
388,89,78237,1,0,0:0:0:0:
399,131,78312,1,0,0:0:0:0:
370,164,78387,1,0,0:0:0:0:
327,158,78462,1,0,0:0:0:0:
307,119,78537,1,0,0:0:0:0:
284,71,78612,5,8,0:0:0:0:
239,36,78687,1,0,0:0:0:0:
182,34,78762,1,0,0:0:0:0:
134,65,78837,1,0,0:0:0:0:
108,116,78912,5,4,0:0:0:0:
168,252,79062,1,0,0:0:0:0:
208,108,79212,1,8,0:0:0:0:
92,204,79362,1,0,0:0:0:0:
224,312,79512,5,0,0:0:0:0:
164,176,79662,1,0,0:0:0:0:
124,320,79812,1,8,0:0:0:0:
240,224,79962,1,0,0:0:0:0:
100,236,80112,5,0,0:0:0:0:
100,236,80187,1,0,0:0:0:0:
100,236,80262,1,0,0:0:0:0:
208,108,80412,1,8,0:0:0:0:
208,108,80487,1,0,0:0:0:0:
208,108,80562,1,0,0:0:0:0:
47,28,80712,6,0,B|32:66|32:66|22:116,1,82.5
164,176,81012,1,8,0:0:0:0:
192,23,81162,1,0,0:0:0:0:
343,51,81312,6,0,B|358:89|358:89|368:139,1,82.5
356,264,81612,1,8,0:0:0:0:
472,328,81762,1,0,0:0:0:0:
467,163,81912,2,0,B|459:122|459:122|445:83,1,82.5
372,44,82137,1,0,0:0:0:0:
343,51,82212,2,0,B|301:55|301:55|260:52,1,82.5,8|0,0:0|0:0,0:0:0:0:
97,70,82512,5,0,0:0:0:0:
78,97,82587,1,0,0:0:0:0:
77,129,82662,1,0,0:0:0:0:
91,158,82737,1,0,0:0:0:0:
99,190,82812,1,8,0:0:0:0:
89,221,82887,1,0,0:0:0:0:
66,255,82962,5,0,0:0:0:0:
47,218,83037,1,0,0:0:0:0:
55,177,83112,1,0,0:0:0:0:
91,158,83187,1,0,0:0:0:0:
131,163,83262,1,0,0:0:0:0:
168,179,83337,1,0,0:0:0:0:
215,193,83412,5,8,0:0:0:0:
264,195,83487,1,0,0:0:0:0:
310,179,83562,1,0,0:0:0:0:
339,139,83637,1,0,0:0:0:0:
343,90,83712,6,0,P|268:58|190:80,1,165,4|8,0:0|0:0,0:0:0:0:
261,178,84612,1,0,0:0:0:0:
300,297,84912,2,0,P|368:241|382:160,1,165,0|8,0:0|0:0,0:0:0:0:
456,61,85812,1,0,0:0:0:0:
310,31,86112,6,0,P|261:28|220:40,1,82.5
219,49,86512,1,0,0:0:0:0:
211,63,86612,1,0,0:0:0:0:
204,78,86712,2,0,P|200:120|173:157,1,82.5,8|0,0:0|0:0,0:0:0:0:
100,265,87312,6,0,P|94:245|96:220,1,41.25
184,251,87612,2,0,P|186:266|185:281,2,27.5
156,169,87912,1,8,0:0:0:0:
219,49,88212,1,0,0:0:0:0:
288,168,88512,6,0,P|334:165|367:146,1,82.5,4|0,0:0|0:0,0:0:0:0:
472,24,89112,2,0,P|480:64|476:105,1,82.5,8|0,0:0|0:0,0:0:0:0:
402,278,89712,2,0,P|330:318|262:280,1,165,0|8,0:0|0:0,0:0:0:0:
331,237,90612,1,0,0:0:0:0:
286,168,90912,6,0,L|335:243,1,82.5
240,92,91512,2,0,L|297:151,1,82.5,8|0,0:0|0:0,0:0:0:0:
168,28,92112,2,0,L|238:70,1,82.5
260,68,92512,1,0,0:0:0:0:
280,64,92612,1,0,0:0:0:0:
296,60,92712,2,0,P|299:38|296:16,1,41.25,8|0,0:0|0:0,0:0:0:0:
200,136,93012,2,0,P|196:158|200:180,1,41.25
396,184,93312,6,0,P|336:160|271:165,1,123.750004720688,4|0,0:0|0:0,0:0:0:0:
260,257,93762,1,0,0:0:0:0:
70,351,93912,2,0,B|94:361|94:361|191:347,1,123.750004720688,8|0,0:0|0:0,0:0:0:0:
244,271,94362,1,0,0:0:0:0:
195,98,94512,6,0,B|135:84|135:84|76:108,1,123.750004720688
142,175,94962,1,0,0:0:0:0:
357,34,95112,2,0,P|373:62|377:96,1,61.875002360344,8|0,0:0|0:0,0:0:0:0:
307,171,95412,2,0,P|312:202|328:228,1,61.875002360344
384,330,95712,6,0,P|316:345|259:322,1,123.750004720688
200,261,96162,1,0,0:0:0:0:
250,82,96312,2,0,P|307:61|364:82,1,123.750004720688,8|0,0:0|0:0,0:0:0:0:
308,157,96762,1,0,0:0:0:0:
162,40,96912,6,0,B|143:85|164:127|164:127|135:163,1,123.750004720688
73,215,97362,1,0,0:0:0:0:
30,133,97512,1,8,0:0:0:0:
136,336,97812,1,0,0:0:0:0:
207,276,97962,1,0,0:0:0:0:
291,314,98112,6,0,P|350:272|377:216,1,123.750004720688,4|0,0:0|0:0,0:0:0:0:
391,136,98562,1,0,0:0:0:0:
207,135,98712,2,0,B|223:164|223:164|264:179|287:227,1,123.750004720688,8|0,0:0|0:0,0:0:0:0:
291,314,99162,1,0,0:0:0:0:
81,324,99312,2,0,L|120:207,1,123.750004720688
88,118,99762,1,0,0:0:0:0:
278,211,99912,6,0,B|304:203|304:203|352:103,1,123.750004720688,8|0,0:0|0:0,0:0:0:0:
252,121,100362,1,0,0:0:0:0:
385,282,100512,2,0,P|433:247|450:185,1,123.750004720688
356,192,100962,1,0,0:0:0:0:
152,244,101112,2,0,B|172:300|172:300|232:344,1,123.750004720688,8|0,0:0|0:0,0:0:0:0:
304,292,101562,1,0,0:0:0:0:
290,82,101712,5,0,0:0:0:0:
268,69,101787,1,0,0:0:0:0:
244,73,101862,1,0,0:0:0:0:
228,91,101937,1,0,0:0:0:0:
228,116,102012,1,0,0:0:0:0:
243,135,102087,1,0,0:0:0:0:
264,160,102162,5,0,0:0:0:0:
282,184,102237,1,0,0:0:0:0:
289,214,102312,1,8,0:0:0:0:
283,244,102387,1,0,0:0:0:0:
266,270,102462,1,0,0:0:0:0:
240,286,102537,1,0,0:0:0:0:
204,292,102612,5,0,0:0:0:0:
168,281,102687,1,0,0:0:0:0:
139,258,102762,1,0,0:0:0:0:
122,226,102837,1,0,0:0:0:0:
116,187,102912,6,0,P|128:112|96:16,1,165,4|8,0:0|0:0,0:0:0:0:
15,168,103362,1,0,0:0:0:0:
139,258,103512,1,0,0:0:0:0:
210,109,103662,1,0,0:0:0:0:
395,136,103812,2,0,B|400:180|400:180|369:256,1,123.75,8|0,0:0|0:0,0:0:0:0:
298,320,104112,6,0,P|369:347|456:301,1,165,0|8,0:0|0:0,0:0:0:0:
480,182,104562,1,0,0:0:0:0:
427,60,104712,2,0,P|384:41|345:40,1,82.5
175,140,105012,2,0,P|218:158|257:160,1,82.5,8|0,0:0|0:0,0:0:0:0:
478,197,105312,6,0,P|434:258|328:261,1,165,0|8,0:0|0:0,0:0:0:0:
242,207,105762,1,0,0:0:0:0:
132,275,105912,2,0,P|155:303|221:328,1,82.5
357,124,106212,2,0,P|334:96|268:71,1,82.5,8|0,0:0|0:0,0:0:0:0:
171,52,106512,5,0,0:0:0:0:
55,96,106662,1,0,0:0:0:0:
201,171,106812,1,8,0:0:0:0:
201,171,106887,1,0,0:0:0:0:
201,171,106962,1,0,0:0:0:0:
55,235,107112,1,0,0:0:0:0:
171,277,107262,1,0,0:0:0:0:
285,158,107412,2,0,P|345:146|410:179,1,123.75,8|0,0:0|0:0,0:0:0:0:
481,228,107712,6,0,P|496:143|441:80,1,165,4|8,0:0|0:0,0:0:0:0:
315,43,108162,1,0,0:0:0:0:
400,170,108312,2,0,B|384:260,1,82.5
232,181,108612,2,0,B|248:91,1,82.5,8|0,0:0|0:0,0:0:0:0:
286,302,108912,6,0,B|247:311|224:292|224:292|199:291|199:291|172:261|131:266,1,165,0|8,0:0|0:0,0:0:0:0:
131,266,109287,1,0,0:0:0:0:
131,266,109362,1,0,0:0:0:0:
160,103,109512,2,0,L|145:9,1,82.5
25,134,109812,2,0,L|38:215,1,82.5,8|0,0:0|0:0,0:0:0:0:
232,181,110112,6,0,P|297:156|401:188,1,165,0|8,0:0|0:0,0:0:0:0:
311,296,110562,1,0,0:0:0:0:
131,266,110712,2,0,L|151:182,1,82.5
91,57,111012,1,8,0:0:0:0:
34,211,111162,1,0,0:0:0:0:
165,343,111312,5,0,0:0:0:0:
185,339,111387,1,0,0:0:0:0:
205,335,111462,1,0,0:0:0:0:
272,173,111612,1,8,0:0:0:0:
252,177,111687,1,0,0:0:0:0:
232,181,111762,1,0,0:0:0:0:
412,225,111912,2,0,L|401:143,1,82.5
232,181,112212,2,0,L|243:263,1,82.5,8|0,0:0|0:0,0:0:0:0:
328,73,112512,6,0,P|246:54|144:89,1,165,4|8,0:0|0:0,0:0:0:0:
169,73,112887,1,0,0:0:0:0:
169,73,112962,1,0,0:0:0:0:
117,229,113112,2,0,P|120:269|138:318,1,82.5
317,339,113412,2,0,P|314:299|296:250,1,82.5,8|0,0:0|0:0,0:0:0:0:
126,147,113712,6,0,P|90:76|127:5,1,165,0|8,0:0|0:0,0:0:0:0:
250,74,114162,1,0,0:0:0:0:
352,192,114312,2,0,P|352:240|336:288,1,82.5
304,96,114612,1,8,0:0:0:0:
446,250,114762,1,0,0:0:0:0:
240,305,114912,6,0,P|203:245|242:145,1,165,0|8,0:0|0:0,0:0:0:0:
360,59,115362,2,0,P|397:119|358:219,1,165
227,158,115812,1,8,0:0:0:0:
91,193,115962,1,0,0:0:0:0:
202,318,116112,5,0,0:0:0:0:
221,311,116187,1,0,0:0:0:0:
240,305,116262,1,0,0:0:0:0:
75,297,116412,2,0,P|69:341|85:389,1,82.5,8|0,0:0|0:0,0:0:0:0:
174,241,116712,1,0,0:0:0:0:
170,222,116787,1,0,0:0:0:0:
167,202,116862,1,0,0:0:0:0:
328,107,117012,2,0,P|352:137|363:220,1,123.75,8|0,0:0|0:0,0:0:0:0:
324,313,117312,6,0,P|415:307|465:230,1,165,4|8,0:0|0:0,0:0:0:0:
458,113,117762,1,0,0:0:0:0:
317,27,117912,2,0,P|276:29|239:47,1,82.5
244,238,118213,2,0,P|249:198|239:158,1,82.5,8|0,0:0|0:0,0:0:0:0:
45,222,118512,5,0,0:0:0:0:
54,241,118587,1,0,0:0:0:0:
62,259,118662,1,0,0:0:0:0:
172,201,118812,1,8,0:0:0:0:
78,119,118962,1,0,0:0:0:0:
144,269,119112,2,0,P|194:269|236:238,1,82.5
335,187,119412,2,0,P|357:224|366:294,1,82.5,8|0,0:0|0:0,0:0:0:0:
243,150,119712,6,0,P|283:104|358:94,1,123.75
380,99,120012,2,0,B|398:57|398:57|391:9,1,82.5,8|0,0:0|0:0,0:0:0:0:
244,35,120312,1,0,0:0:0:0:
244,35,120387,1,0,0:0:0:0:
244,35,120462,1,0,0:0:0:0:
113,118,120612,2,0,B|95:160|95:160|102:208,1,82.5,8|0,0:0|0:0,0:0:0:0:
266,284,120912,6,0,L|306:338,3,41.25
153,130,121212,2,0,L|93:113,3,41.25,8|0|0|0,0:0|0:0|0:0|0:0,0:0:0:0:
339,188,121512,2,0,L|393:173,3,41.25
153,246,121812,2,0,L|116:288,3,41.25,8|0|0|0,0:0|0:0|0:0|0:0,0:0:0:0:
279,96,122112,5,4,0:0:0:0:
158,157,122262,1,0,0:0:0:0:
167,18,122412,1,8,0:0:0:0:
279,96,122562,1,0,0:0:0:0:
364,212,122712,5,0,0:0:0:0:
463,323,122862,1,0,0:0:0:0:
507,177,123012,1,8,0:0:0:0:
364,212,123162,1,0,0:0:0:0:
272,356,123312,5,0,0:0:0:0:
106,351,123462,1,0,0:0:0:0:
194,208,123612,1,8,0:0:0:0:
272,356,123762,1,0,0:0:0:0:
439,247,123912,5,0,0:0:0:0:
473,67,124062,1,0,0:0:0:0:
298,126,124212,1,8,0:0:0:0:
439,247,124362,1,0,0:0:0:0:
363,34,124512,5,4,0:0:0:0:
293,47,126912,5,4,0:0:0:0:
144,84,128712,5,0,0:0:0:0:
164,88,128787,1,0,0:0:0:0:
184,92,128862,2,0,L|232:104,1,41.25
344,168,129012,5,0,0:0:0:0:
324,172,129087,1,0,0:0:0:0:
304,176,129162,2,0,L|256:188,1,41.25
144,208,129312,5,4,0:0:0:0:
104,224,131712,5,4,0:0:0:0:
419,242,132912,6,0,L|455:266,3,41.25
338,267,133212,2,0,L|303:244,3,41.25
445,338,133512,1,4,0:0:0:0:
445,338,134112,6,0,P|348:362|287:319,1,165,4|8,0:0|0:0,0:0:0:0:
374,179,134562,2,0,P|382:217|374:261,1,82.5
260,211,134862,1,0,0:0:0:0:
328,88,135012,1,8,0:0:0:0:
347,87,135087,1,0,0:0:0:0:
367,87,135162,1,0,0:0:0:0:
224,120,135312,6,0,P|161:93|124:48,1,123.75
116,32,135612,1,8,0:0:0:0:
128,160,135762,2,0,P|134:196|128:252,1,82.5
33,333,136062,2,0,P|29:292|36:252,1,82.5,0|8,0:0|0:0,0:0:0:0:
205,188,136362,1,0,0:0:0:0:
328,320,136512,6,0,B|247:336|247:336|165:330,1,165,0|8,0:0|0:0,0:0:0:0:
244,236,136962,1,0,0:0:0:0:
368,232,137112,2,0,P|386:153|354:78,1,165,0|8,0:0|0:0,0:0:0:0:
248,16,137562,1,0,0:0:0:0:
156,100,137712,1,0,0:0:0:0:
264,164,137862,1,0,0:0:0:0:
416,57,138012,2,0,B|444:75|444:75|472:115,1,82.5,8|0,0:0|0:0,0:0:0:0:
480,236,138312,5,0,0:0:0:0:
473,255,138387,1,0,0:0:0:0:
465,274,138462,1,0,0:0:0:0:
335,153,138612,1,8,0:0:0:0:
343,134,138687,1,0,0:0:0:0:
350,115,138762,1,0,0:0:0:0:
382,312,138912,6,0,B|296:300|296:300|228:320,1,123.75,4|0,0:0|0:0,0:0:0:0:
236,324,139212,2,0,P|182:332|128:320,1,82.5,8|0,0:0|0:0,0:0:0:0:
36,272,139512,1,0,0:0:0:0:
132,184,139662,1,0,0:0:0:0:
236,252,139812,1,8,0:0:0:0:
236,252,139887,1,0,0:0:0:0:
236,252,139962,1,0,0:0:0:0:
335,153,140112,6,0,P|291:86|240:52,1,123.75
232,48,140412,1,8,0:0:0:0:
100,64,140562,2,0,P|52:86|12:124,1,82.5
116,240,140862,2,0,P|163:217|204:180,1,82.5,0|8,0:0|0:0,0:0:0:0:
260,88,141162,1,0,0:0:0:0:
392,68,141312,6,0,P|440:128|440:216,1,165,0|8,0:0|0:0,0:0:0:0:
369,317,141762,2,0,P|319:253|320:172,1,165
432,32,142212,2,0,B|392:24|392:24|350:29,1,82.5,8|0,0:0|0:0,0:0:0:0:
201,121,142512,5,0,0:0:0:0:
166,142,142587,1,0,0:0:0:0:
149,179,142662,1,0,0:0:0:0:
154,220,142737,1,0,0:0:0:0:
180,251,142812,1,8,0:0:0:0:
219,263,142887,1,0,0:0:0:0:
258,253,142962,1,0,0:0:0:0:
286,224,143037,1,0,0:0:0:0:
270,186,143112,5,0,0:0:0:0:
258,238,143187,1,0,0:0:0:0:
276,288,143262,1,0,0:0:0:0:
317,320,143337,1,0,0:0:0:0:
370,325,143412,1,8,0:0:0:0:
417,301,143487,1,0,0:0:0:0:
444,256,143562,1,0,0:0:0:0:
442,203,143637,1,0,0:0:0:0:
430,152,143712,6,0,P|414:108|382:68,1,82.5,4|0,0:0|0:0,0:0:0:0:
233,113,144012,2,0,P|249:157|281:197,1,82.5,8|0,0:0|0:0,0:0:0:0:
417,301,144312,2,0,P|401:257|369:217,1,82.5
222,274,144612,2,0,P|238:318|270:358,1,82.5,8|0,0:0|0:0,0:0:0:0:
324,116,144912,6,0,B|244:116|244:116|168:92,1,123.75
172,92,145212,2,0,P|137:118|124:164,1,82.5,8|0,0:0|0:0,0:0:0:0:
132,280,145512,1,0,0:0:0:0:
132,280,145587,1,0,0:0:0:0:
132,280,145662,1,0,0:0:0:0:
52,184,145812,1,8,0:0:0:0:
80,64,145962,1,0,0:0:0:0:
244,56,146112,6,0,P|281:51|348:26,1,82.5
348,28,146337,1,0,0:0:0:0:
373,20,146412,2,0,B|366:63|366:63|376:130,1,82.5,8|0,0:0|0:0,0:0:0:0:
407,220,146712,1,0,0:0:0:0:
453,351,146862,2,0,B|412:362|412:362|353:352,1,82.5,0|8,0:0|0:0,0:0:0:0:
260,302,147162,1,0,0:0:0:0:
316,173,147312,5,0,0:0:0:0:
316,173,147387,1,0,0:0:0:0:
316,173,147462,1,0,0:0:0:0:
188,115,147612,1,8,0:0:0:0:
67,186,147762,1,0,0:0:0:0:
67,186,147837,1,0,0:0:0:0:
67,186,147912,2,0,B|70:228|70:228|84:280,1,82.5
260,302,148212,2,0,B|257:260|257:260|243:208,1,82.5,8|0,0:0|0:0,0:0:0:0:
261,53,148512,6,0,P|191:19|109:59,1,165,4|8,0:0|0:0,0:0:0:0:
41,211,148962,1,0,0:0:0:0:
174,254,149112,1,0,0:0:0:0:
188,115,149262,1,0,0:0:0:0:
321,158,149412,2,0,B|364:115|364:115|392:57,1,123.75,8|0,0:0|0:0,0:0:0:0:
364,60,149712,6,0,B|380:98|380:98|357:167|392:232,1,165,0|8,0:0|0:0,0:0:0:0:
428,344,150162,1,0,0:0:0:0:
260,351,150312,2,0,B|218:341|218:341|180:316,1,82.5
140,169,150612,2,0,B|182:179|182:179|220:204,1,82.5,8|0,0:0|0:0,0:0:0:0:
241,226,150837,1,0,0:0:0:0:
254,260,150912,6,0,P|303:199|281:131,1,123.75
298,157,151212,1,8,0:0:0:0:
196,65,151362,2,0,P|269:22|350:30,1,165
481,20,151812,1,8,0:0:0:0:
481,20,151887,1,0,0:0:0:0:
481,20,151962,1,0,0:0:0:0:
375,97,152112,5,0,0:0:0:0:
357,125,152187,1,0,0:0:0:0:
374,154,152262,1,0,0:0:0:0:
407,155,152337,1,0,0:0:0:0:
440,130,152412,5,8,0:0:0:0:
447,89,152487,1,0,0:0:0:0:
431,52,152562,1,0,0:0:0:0:
398,28,152637,1,0,0:0:0:0:
348,28,152712,5,0,0:0:0:0:
310,59,152787,1,0,0:0:0:0:
290,104,152862,1,0,0:0:0:0:
291,153,152937,1,0,0:0:0:0:
321,202,153012,5,8,0:0:0:0:
331,258,153087,1,0,0:0:0:0:
306,309,153162,1,0,0:0:0:0:
256,335,153237,1,0,0:0:0:0:
206,336,153312,5,0,0:0:0:0:
48,261,153462,1,0,0:0:0:0:
217,230,153612,1,8,0:0:0:0:
100,355,153762,1,0,0:0:0:0:
121,183,153912,5,0,0:0:0:0:
36,30,154062,1,0,0:0:0:0:
194,105,154212,1,8,0:0:0:0:
25,136,154362,1,0,0:0:0:0:
142,11,154512,5,0,0:0:0:0:
162,15,154587,1,0,0:0:0:0:
181,20,154662,1,0,0:0:0:0:
275,158,154812,1,8,0:0:0:0:
255,162,154887,1,0,0:0:0:0:
236,167,154962,1,0,0:0:0:0:
46,283,155112,2,0,P|77:306|133:309,1,82.5
261,237,155412,1,8,0:0:0:0:
108,232,155562,1,0,0:0:0:0:
276,341,155712,6,0,P|360:272|352:200,1,165,0|8,0:0|0:0,0:0:0:0:
324,88,156162,1,0,0:0:0:0:
188,128,156312,2,0,B|97:129,1,82.5
82,111,156537,1,0,0:0:0:0:
60,91,156612,2,0,B|112:91|112:91|153:77,1,82.5,8|0,0:0|0:0,0:0:0:0:
297,114,156912,5,0,0:0:0:0:
336,126,156987,1,0,0:0:0:0:
377,123,157062,1,0,0:0:0:0:
415,108,157137,1,0,0:0:0:0:
439,74,157212,1,8,0:0:0:0:
450,34,157287,1,0,0:0:0:0:
411,47,157362,5,0,0:0:0:0:
389,82,157437,1,0,0:0:0:0:
377,123,157512,1,0,0:0:0:0:
383,163,157587,1,0,0:0:0:0:
401,200,157662,1,0,0:0:0:0:
426,232,157737,1,0,0:0:0:0:
446,267,157812,5,8,0:0:0:0:
453,307,157887,1,0,0:0:0:0:
441,346,157962,1,0,0:0:0:0:
404,365,158037,1,0,0:0:0:0:
362,366,158112,5,4,0:0:0:0:
298,213,158262,1,0,0:0:0:0:
285,334,158412,1,8,0:0:0:0:
198,194,158562,1,0,0:0:0:0:
111,317,158712,5,0,0:0:0:0:
194,118,158862,1,0,0:0:0:0:
211,275,159012,1,8,0:0:0:0:
324,93,159162,1,0,0:0:0:0:
292,268,159312,5,0,0:0:0:0:
287,288,159387,1,0,0:0:0:0:
283,308,159462,1,0,0:0:0:0:
169,146,159612,1,8,0:0:0:0:
174,126,159687,1,0,0:0:0:0:
178,106,159762,1,0,0:0:0:0:
159,285,159912,2,0,B|121:299|121:299|67:299,1,82.5
22,169,160212,1,8,0:0:0:0:
41,30,160362,1,0,0:0:0:0:
178,106,160512,6,0,P|221:104|266:88,1,82.5
284,79,160737,1,0,0:0:0:0:
309,65,160812,2,0,P|316:112|310:165,1,82.5,8|0,0:0|0:0,0:0:0:0:
247,271,161112,1,0,0:0:0:0:
372,336,161262,1,0,0:0:0:0:
462,228,161412,2,0,B|432:208|432:208|388:197,1,82.5,8|0,0:0|0:0,0:0:0:0:
266,158,161712,5,0,0:0:0:0:
231,180,161787,1,0,0:0:0:0:
191,190,161862,1,0,0:0:0:0:
150,185,161937,1,0,0:0:0:0:
113,168,162012,1,8,0:0:0:0:
84,139,162087,1,0,0:0:0:0:
67,102,162162,1,0,0:0:0:0:
63,61,162237,1,0,0:0:0:0:
85,21,162312,5,0,0:0:0:0:
113,50,162387,1,0,0:0:0:0:
128,88,162462,1,0,0:0:0:0:
128,129,162537,1,0,0:0:0:0:
113,168,162612,1,8,0:0:0:0:
94,204,162687,1,0,0:0:0:0:
89,245,162762,1,0,0:0:0:0:
100,284,162837,1,0,0:0:0:0:
124,317,162912,6,0,P|200:344|277:319,1,165,4|8,0:0|0:0,0:0:0:0:
203,217,163812,1,0,0:0:0:0:
129,117,164112,2,0,B|174:88|222:93|222:93|249:53|285:43,1,165,0|8,0:0|0:0,0:0:0:0:
330,156,165012,1,0,0:0:0:0:
210,187,165312,6,0,L|189:267,1,82.5
200,285,165712,1,0,0:0:0:0:
212,303,165812,1,0,0:0:0:0:
227,318,165912,2,0,P|178:328|138:317,1,82.5,8|0,0:0|0:0,0:0:0:0:
44,204,166512,6,0,P|41:225|44:253,1,41.25
128,172,166812,2,0,P|129:160|128:145,2,27.5
124,260,167112,1,8,0:0:0:0:
216,156,167412,1,0,0:0:0:0:
151,35,167712,6,0,B|190:14|190:14|229:12,1,82.5,4|0,0:0|0:0,0:0:0:0:
377,83,168312,2,0,L|294:83,1,82.5,8|0,0:0|0:0,0:0:0:0:
148,138,168912,2,0,P|139:268|157:281,1,165,0|8,0:0|0:0,0:0:0:0:
260,338,169812,1,0,0:0:0:0:
326,233,170112,6,0,L|318:145,1,82.5
371,21,170712,2,0,L|379:109,1,82.5,8|0,0:0|0:0,0:0:0:0:
452,229,171312,2,0,L|444:141,1,82.5
448,132,171712,1,0,0:0:0:0:
452,116,171812,1,0,0:0:0:0:
456,100,171912,2,0,P|460:73|456:48,1,41.25,8|0,0:0|0:0,0:0:0:0:
298,31,172212,2,0,P|293:57|298:83,1,41.25
290,235,172512,6,0,B|202:224|202:224|171:203,1,123.750004720688,4|0,0:0|0:0,0:0:0:0:
245,145,172962,1,0,0:0:0:0:
377,280,173112,2,0,B|340:308|340:308|263:324,1,123.750004720688,8|0,0:0|0:0,0:0:0:0:
176,292,173562,1,0,0:0:0:0:
178,105,173712,6,0,P|227:68|296:89,1,123.750004720688
363,128,174162,1,0,0:0:0:0:
265,286,174312,2,0,B|261:248|261:248|265:206,1,61.875002360344,8|0,0:0|0:0,0:0:0:0:
437,291,174612,2,0,B|441:329|441:329|437:371,1,61.875002360344
327,193,174912,6,0,P|347:141|412:120,1,123.750004720688
495,148,175362,1,0,0:0:0:0:
357,274,175512,2,0,P|289:272|246:222,1,123.750004720688,8|0,0:0|0:0,0:0:0:0:
231,144,175962,1,0,0:0:0:0:
58,211,176112,6,0,P|113:187|170:208,1,123.750004720688
115,283,176562,1,0,0:0:0:0:
22,283,176712,1,8,0:0:0:0:
198,64,177012,1,0,0:0:0:0:
291,64,177162,1,0,0:0:0:0:
358,127,177312,6,0,P|415:147|470:124,1,123.750004720688,4|0,0:0|0:0,0:0:0:0:
413,50,177762,1,0,0:0:0:0:
248,134,177912,2,0,B|261:259,1,123.750004720688,8|0,0:0|0:0,0:0:0:0:
315,332,178362,1,0,0:0:0:0:
149,246,178512,6,0,P|91:225|36:248,1,123.750004720688
95,320,178962,1,0,0:0:0:0:
164,149,179112,2,0,P|152:80|109:21,1,123.750004720688,8|0,0:0|0:0,0:0:0:0:
78,116,179562,1,0,0:0:0:0:
237,215,179712,6,0,P|301:218|379:186,1,123.750004720688
432,146,180162,1,0,0:0:0:0:
306,12,180312,2,0,P|289:72|295:158,1,123.750004720688,8|0,0:0|0:0,0:0:0:0:
357,199,180762,1,0,0:0:0:0:
191,124,180912,5,0,0:0:0:0:
166,145,180987,1,0,0:0:0:0:
161,178,181062,1,0,0:0:0:0:
176,206,181137,1,0,0:0:0:0:
205,221,181212,1,0,0:0:0:0:
237,215,181287,1,0,0:0:0:0:
264,201,181362,5,0,0:0:0:0:
282,168,181437,1,0,0:0:0:0:
278,131,181512,1,8,0:0:0:0:
258,98,181587,1,0,0:0:0:0:
229,75,181662,1,0,0:0:0:0:
192,67,181737,1,0,0:0:0:0:
150,81,181812,5,0,0:0:0:0:
114,106,181887,1,0,0:0:0:0:
96,145,181962,1,0,0:0:0:0:
94,188,182037,1,0,0:0:0:0:
103,228,182112,6,0,P|122:149|104:69,1,165,4|8,0:0|0:0,0:0:0:0:
19,180,182562,1,0,0:0:0:0:
62,313,182712,1,0,0:0:0:0:
62,313,182787,1,0,0:0:0:0:
62,313,182862,1,0,0:0:0:0:
200,291,183012,2,0,P|221:233|213:159,1,123.75,8|0,0:0|0:0,0:0:0:0:
174,89,183312,6,0,P|213:92|270:78,1,82.5
383,21,183612,1,8,0:0:0:0:
383,21,183687,1,0,0:0:0:0:
383,21,183762,1,0,0:0:0:0:
425,148,183912,2,0,B|398:185|398:185|348:202,1,82.5
205,173,184212,2,0,B|232:136|232:136|267:124,1,82.5,8|0,0:0|0:0,0:0:0:0:
438,80,184512,6,0,P|480:106|435:217,1,165,0|8,0:0|0:0,0:0:0:0:
378,252,184887,1,0,0:0:0:0:
359,259,184962,2,0,B|287:290|272:207|187:260,1,165
111,359,185412,2,0,B|156:359|156:359|206:341,1,82.5,8|0,0:0|0:0,0:0:0:0:
124,222,185712,1,0,0:0:0:0:
38,332,185862,1,0,0:0:0:0:
215,224,186012,5,8,0:0:0:0:
210,198,186087,1,0,0:0:0:0:
205,173,186162,1,0,0:0:0:0:
107,72,186312,1,0,0:0:0:0:
45,197,186462,1,0,0:0:0:0:
183,308,186612,2,0,P|241:307|295:267,1,123.75,8|0,0:0|0:0,0:0:0:0:
348,195,186912,6,0,P|385:263|329:356,1,165,4|8,0:0|0:0,0:0:0:0:
196,291,187362,1,0,0:0:0:0:
285,152,187512,2,0,B|309:115|369:119,1,82.5
457,250,187812,2,0,B|433:287|373:283,1,82.5,8|0,0:0|0:0,0:0:0:0:
210,172,188112,6,0,P|234:93|317:83,1,165,0|8,0:0|0:0,0:0:0:0:
307,79,188487,1,0,0:0:0:0:
307,79,188562,1,0,0:0:0:0:
416,200,188712,2,0,B|422:235|422:235|416:282,1,82.5
284,233,189012,2,0,B|279:199|279:199|285:152,1,82.5,8|0,0:0|0:0,0:0:0:0:
486,324,189312,6,0,P|419:363|336:307,1,165,0|8,0:0|0:0,0:0:0:0:
269,181,189762,1,0,0:0:0:0:
108,74,189912,2,0,B|84:112|84:112|79:149,1,82.5
181,303,190212,2,0,B|204:264|204:264|209:227,1,82.5,8|0,0:0|0:0,0:0:0:0:
128,70,190512,5,0,0:0:0:0:
108,74,190587,1,0,0:0:0:0:
88,78,190662,1,0,0:0:0:0:
229,222,190812,1,8,0:0:0:0:
249,218,190887,1,0,0:0:0:0:
269,214,190962,1,0,0:0:0:0:
424,125,191112,2,0,B|424:83|424:83|412:44,1,82.5
237,137,191412,2,0,B|237:178|237:178|249:217,1,82.5,8|0,0:0|0:0,0:0:0:0:
311,43,191712,6,0,P|231:15|148:57,1,165,4|8,0:0|0:0,0:0:0:0:
160,44,192087,1,0,0:0:0:0:
160,44,192162,1,0,0:0:0:0:
34,159,192312,2,0,B|69:160|69:160|114:147,1,82.5
269,214,192612,2,0,B|233:212|233:212|188:225,1,82.5,8|0,0:0|0:0,0:0:0:0:
40,310,192912,6,0,P|87:347|156:334,1,123.75
172,324,193212,2,0,P|203:314|250:327,1,82.5,8|0,0:0|0:0,0:0:0:0:
412,345,193512,2,0,P|381:355|334:342,1,82.5
253,248,193812,1,8,0:0:0:0:
350,324,193962,1,0,0:0:0:0:
239,268,194112,6,0,P|202:258|166:209,2,82.5,0|0|8,0:0|0:0|0:0,0:0:0:0:
351,217,194562,2,0,B|392:220|424:191|424:191|463:178|509:202,1,165
483,338,195012,2,0,B|461:287|461:287|459:251,1,82.5,8|0,0:0|0:0,0:0:0:0:
449,119,195312,5,0,0:0:0:0:
456,100,195387,1,0,0:0:0:0:
463,81,195462,1,0,0:0:0:0:
332,31,195612,2,0,P|286:38|242:30,1,82.5,8|0,0:0|0:0,0:0:0:0:
109,29,195912,5,0,0:0:0:0:
102,48,195987,1,0,0:0:0:0:
95,67,196062,1,0,0:0:0:0:
124,204,196212,2,0,P|153:243|191:193,1,123.75,8|0,0:0|0:0,0:0:0:0:
189,106,196512,6,0,B|271:67|348:113,1,165,4|8,0:0|0:0,0:0:0:0:
462,191,196962,1,0,0:0:0:0:
352,301,197112,2,0,P|315:319|274:322,1,82.5
193,199,197412,2,0,P|230:181|271:179,1,82.5,8|0,0:0|0:0,0:0:0:0:
211,298,197712,5,0,0:0:0:0:
211,298,197787,1,0,0:0:0:0:
211,298,197862,1,0,0:0:0:0:
121,190,198012,1,8,0:0:0:0:
55,314,198162,1,0,0:0:0:0:
211,298,198312,2,0,P|251:280|286:218,1,82.5
320,117,198612,2,0,P|385:163|399:233,1,123.75,8|0,0:0|0:0,0:0:0:0:
428,290,198912,6,0,P|490:217|457:128,1,165,0|8,0:0|0:0,0:0:0:0:
381,54,199362,1,0,0:0:0:0:
265,135,199512,1,0,0:0:0:0:
265,135,199587,1,0,0:0:0:0:
265,135,199662,1,0,0:0:0:0:
133,86,199812,2,0,B|160:48|160:48|190:28,1,82.5,8|0,0:0|0:0,0:0:0:0:
304,193,200112,5,0,0:0:0:0:
269,215,200187,1,0,0:0:0:0:
229,225,200262,1,0,0:0:0:0:
188,220,200337,1,0,0:0:0:0:
151,203,200412,1,8,0:0:0:0:
122,174,200487,1,0,0:0:0:0:
105,137,200562,1,0,0:0:0:0:
101,96,200637,1,0,0:0:0:0:
123,56,200712,5,0,0:0:0:0:
151,85,200787,1,0,0:0:0:0:
166,123,200862,1,0,0:0:0:0:
166,164,200937,1,0,0:0:0:0:
151,203,201012,1,8,0:0:0:0:
132,239,201087,1,0,0:0:0:0:
127,280,201162,1,0,0:0:0:0:
138,319,201237,1,0,0:0:0:0:
163,351,201312,6,0,P|181:301|180:263,1,82.5,4|0,0:0|0:0,0:0:0:0:
101,96,201612,2,0,P|82:145|84:184,1,82.5,8|0,0:0|0:0,0:0:0:0:
181,272,201912,2,0,P|233:280|270:271,1,82.5
352,188,202212,1,8,0:0:0:0:
376,66,202362,2,0,P|323:57|286:66,1,82.5
118,185,202662,5,0,0:0:0:0:
199,54,202812,1,8,0:0:0:0:
94,78,202962,1,0,0:0:0:0:
226,161,203112,1,0,0:0:0:0:
162,286,203262,5,0,0:0:0:0:
162,120,203412,1,8,0:0:0:0:
304,203,203562,1,0,0:0:0:0:
376,66,203712,6,0,P|395:99|409:147,1,82.5
336,278,204012,2,0,P|316:244|303:197,1,82.5,8|0,0:0|0:0,0:0:0:0:
251,27,204312,2,0,P|230:62|218:102,1,82.5
262,218,204612,1,8,0:0:0:0:
276,340,204762,2,0,B|236:347|236:347|195:339,1,82.5
153,224,205062,5,0,0:0:0:0:
53,87,205212,1,8,0:0:0:0:
214,137,205362,1,0,0:0:0:0:
53,190,205512,1,0,0:0:0:0:
153,52,205662,5,0,0:0:0:0:
162,236,205812,1,8,0:0:0:0:
42,78,205962,1,0,0:0:0:0:
229,142,206112,6,0,B|270:153|270:153|315:153,1,82.5,4|0,0:0|0:0,0:0:0:0:
448,57,206412,2,0,B|407:46|407:46|366:46,1,82.5,8|0,0:0|0:0,0:0:0:0:
189,101,206712,2,0,B|184:139|184:139|188:193,1,82.5
302,232,207012,1,8,0:0:0:0:
359,341,207162,2,0,B|325:346|325:346|277:340,1,82.5
151,276,207462,5,0,0:0:0:0:
316,203,207612,1,8,0:0:0:0:
149,138,207762,1,0,0:0:0:0:
220,302,207912,1,0,0:0:0:0:
286,135,208062,1,0,0:0:0:0:
121,206,208212,1,8,0:0:0:0:
288,273,208362,1,0,0:0:0:0:
217,107,208512,6,0,P|169:98|123:97,1,82.5
367,147,208812,2,0,P|408:144|448:136,1,82.5,8|0,0:0|0:0,0:0:0:0:
224,193,209112,2,0,P|176:184|130:183,1,82.5
367,231,209412,2,0,P|408:228|448:220,1,82.5,8|0,0:0|0:0,0:0:0:0:
143,183,209712,5,0,0:0:0:0:
102,189,209787,1,0,0:0:0:0:
74,217,209862,1,0,0:0:0:0:
68,258,209937,1,0,0:0:0:0:
87,293,210012,1,8,0:0:0:0:
124,311,210087,1,0,0:0:0:0:
163,303,210162,1,0,0:0:0:0:
191,273,210237,1,0,0:0:0:0:
210,241,210312,5,0,0:0:0:0:
378,183,210462,1,0,0:0:0:0:
276,329,210612,1,8,0:0:0:0:
272,151,210762,1,0,0:0:0:0:
380,293,210912,6,0,B|426:291|426:291|464:268,1,82.5,6|0,0:0|0:0,0:0:0:0:
402,160,211212,1,8,0:0:0:0:
283,44,211362,2,0,P|209:76|170:161,1,165,2|0,0:0|0:0,0:0:0:0:
297,171,211812,1,8,0:0:0:0:
409,291,211962,2,0,B|303:307|303:307|235:287,1,165,2|0,0:0|0:0,0:0:0:0:
158,204,212412,1,8,0:0:0:0:
47,326,212562,2,0,L|124:363,1,82.5,2|0,0:0|0:0,0:0:0:0:
235,242,212862,2,0,P|245:198|231:159,2,82.5,2|10|2,0:0|0:0|0:0,0:0:0:0:
142,105,213312,6,0,P|130:65|140:26,1,82.5,2|2,0:0|0:0,0:0:0:0:
256,71,213612,1,8,0:0:0:0:
140,188,213762,2,0,L|126:375,1,165,2|0,0:0|0:0,0:0:0:0:
252,348,214212,1,8,0:0:0:0:
390,254,214362,2,0,P|311:224|213:256,1,165,2|0,0:0|0:0,0:0:0:0:
332,317,214812,1,8,0:0:0:0:
443,195,214962,2,0,P|470:114|449:23,1,165,2|0,0:0|0:0,0:0:0:0:
332,31,215412,1,8,0:0:0:0:
206,100,215562,1,0,0:0:0:0:
268,252,215712,6,0,L|285:166,1,82.5,6|0,0:0|0:0,0:0:0:0:
259,49,216012,1,8,0:0:0:0:
360,179,216162,2,0,L|328:340,1,165,2|0,0:0|0:0,0:0:0:0:
205,357,216612,1,8,0:0:0:0:
54,288,216762,2,0,P|132:265|211:283,1,165,2|0,0:0|0:0,0:0:0:0:
332,317,217212,1,8,0:0:0:0:
232,185,217362,2,0,B|396:172,1,165,2|0,0:0|0:0,0:0:0:0:
217,111,217812,2,0,L|307:104,1,82.5,10|0,0:0|0:0,0:0:0:0:
380,249,218112,6,0,L|462:242,2,82.5,6|0|8,0:0|0:0|0:0,0:0:0:0:
229,316,218562,2,0,P|167:283|67:293,1,165,2|0,0:0|0:0,0:0:0:0:
12,181,219012,1,8,0:0:0:0:
175,156,219162,5,2,0:0:0:0:
69,46,219912,5,0,0:0:0:0:
39,349,220512,5,4,0:0:0:0:
412,146,225312,6,0,P|354:159|273:132,1,123.750004720688,0|2,0:0|0:0,0:0:0:0:
236,69,225762,1,0,0:0:0:0:
154,114,225912,2,0,P|169:178|144:248,1,123.750004720688
80,175,226362,1,0,0:0:0:0:
62,83,226512,2,0,P|109:34|180:24,1,123.750004720688,0|2,0:0|0:0,0:0:0:0:
251,45,226962,1,0,0:0:0:0:
311,115,227112,2,0,P|344:121|386:107,1,61.875002360344
460,47,227412,2,0,P|427:40|385:55,1,61.875002360344
296,138,227712,6,0,P|284:203|327:266,1,123.750004720688,0|2,0:0|0:0,0:0:0:0:
378,185,228162,1,0,0:0:0:0:
403,274,228312,2,0,P|358:336|288:344,1,123.750004720688
309,252,228762,1,0,0:0:0:0:
234,298,228912,2,0,P|184:258|119:261,1,123.750004720688,0|2,0:0|0:0,0:0:0:0:
155,347,229362,1,0,0:0:0:0:
229,269,229512,2,0,B|231:232|231:232|223:195,1,61.875002360344
122,166,229812,2,0,B|119:202|119:202|128:240,1,61.875002360344
204,112,230112,6,0,P|273:109|326:78,1,123.750004720688,0|2,0:0|0:0,0:0:0:0:
389,21,230562,1,0,0:0:0:0:
462,77,230712,2,0,P|443:137|468:207,1,123.750004720688
414,276,231162,1,0,0:0:0:0:
373,192,231312,2,0,P|316:173|259:193,1,123.750004720688,0|2,0:0|0:0,0:0:0:0:
182,247,231762,1,0,0:0:0:0:
123,170,231912,2,0,P|154:176|184:171,1,61.875002360344
245,79,232212,2,0,P|214:72|184:77,1,61.875002360344
71,90,232512,6,0,P|34:139|42:216,1,123.750004720688,0|2,0:0|0:0,0:0:0:0:
87,276,232962,1,0,0:0:0:0:
179,265,233112,2,0,P|236:248|297:268,1,123.750004720688
366,328,233562,1,0,0:0:0:0:
395,239,233712,2,0,P|382:181|403:117,1,123.750004720688,0|2,0:0|0:0,0:0:0:0:
361,36,234162,1,0,0:0:0:0:
308,134,234312,2,0,P|277:138|246:133,1,61.875002360344
173,50,234612,2,0,P|203:45|234:50,1,61.875002360344
123,136,234912,6,0,P|142:209|116:276,1,123.750004720688,0|2,0:0|0:0,0:0:0:0:
52,202,235362,1,0,0:0:0:0:
33,111,235512,2,0,P|78:55|149:49,1,123.750004720688
210,83,235962,1,0,0:0:0:0:
265,157,236112,2,0,P|313:178|386:151,1,123.750004720688,0|2,0:0|0:0,0:0:0:0:
322,83,236562,1,0,0:0:0:0:
239,158,236712,2,0,B|232:190|232:190|238:238,1,61.875002360344
306,306,237012,2,0,B|312:273|312:273|307:226,1,61.875002360344
215,349,237312,6,0,B|123:347|123:347|73:328,1,123.750004720688,0|2,0:0|0:0,0:0:0:0:
53,252,237762,1,0,0:0:0:0:
131,201,237912,2,0,P|153:138|116:73,1,123.750004720688
57,143,238362,1,0,0:0:0:0:
131,201,238512,2,0,B|201:201|201:201|259:168,1,123.750004720688,0|2,0:0|0:0,0:0:0:0:
303,100,238962,1,0,0:0:0:0:
277,208,239112,2,0,P|269:241|278:272,1,61.875002360344
365,335,239412,2,0,P|372:301|364:271,1,61.875002360344
280,347,239712,6,0,B|227:346|227:346|201:338,1,70.1250013375282,4|0,0:0|0:0,0:0:0:0:
365,275,240012,2,0,B|418:276|418:276|444:284,1,70.1250013375282,8|0,0:0|0:0,0:0:0:0:
277,208,240312,2,0,B|224:207|224:207|198:199,1,70.1250013375282
362,136,240612,2,0,B|415:137|415:137|441:145,1,70.1250013375282,8|0,0:0|0:0,0:0:0:0:
268,60,240912,5,0,0:0:0:0:
180,129,241062,1,0,0:0:0:0:
295,85,241212,1,8,0:0:0:0:
147,102,241362,1,0,0:0:0:0:
192,223,241512,5,0,0:0:0:0:
121,136,241662,1,0,0:0:0:0:
167,250,241812,1,8,0:0:0:0:
147,102,241962,1,0,0:0:0:0:
136,277,242112,6,0,B|149:362,1,70.1250013375282
276,336,242412,2,0,B|265:266,1,70.1250013375282,8|0,0:0|0:0,0:0:0:0:
64,234,242712,6,0,B|53:164,1,70.1250013375282
181,153,243012,2,0,B|191:222,1,70.1250013375282,8|0,0:0|0:0,0:0:0:0:
123,336,243312,5,0,0:0:0:0:
219,294,243462,1,0,0:0:0:0:
314,337,243612,1,8,0:0:0:0:
210,317,243762,1,0,0:0:0:0:
338,260,243912,5,0,0:0:0:0:
430,309,244062,1,0,0:0:0:0:
325,299,244212,1,8,0:0:0:0:
456,313,244362,1,0,0:0:0:0:
381,194,244512,6,0,P|371:155|389:107,1,70.1250013375282,4|0,0:0|0:0,0:0:0:0:
469,21,244812,2,0,P|479:60|461:108,1,70.1250013375282,8|0,0:0|0:0,0:0:0:0:
335,60,245112,6,0,P|297:53|260:61,1,70.1250013375282
226,194,245412,2,0,P|264:201|301:193,1,70.1250013375282,8|0,0:0|0:0,0:0:0:0:
132,165,245712,5,0,0:0:0:0:
197,288,245862,1,0,0:0:0:0:
101,259,246012,1,8,0:0:0:0:
226,194,246162,1,0,0:0:0:0:
102,187,246312,5,0,0:0:0:0:
197,288,246462,1,0,0:0:0:0:
96,284,246612,1,8,0:0:0:0:
200,191,246762,1,0,0:0:0:0:
98,310,246912,6,0,P|59:315|3:298,1,70.1250013375282
197,288,247212,2,0,P|236:283|292:300,1,70.1250013375282,8|0,0:0|0:0,0:0:0:0:
101,213,247512,2,0,P|62:218|6:201,1,70.1250013375282
200,191,247812,2,0,P|239:186|295:203,1,70.1250013375282,8|0,0:0|0:0,0:0:0:0:
390,228,248112,5,0,0:0:0:0:
393,101,248262,1,0,0:0:0:0:
498,193,248412,1,8,0:0:0:0:
390,228,248562,1,0,0:0:0:0:
474,115,248712,5,0,0:0:0:0:
387,23,248862,1,0,0:0:0:0:
296,89,249012,1,8,0:0:0:0:
393,101,249162,1,0,0:0:0:0:
239,32,249312,6,0,B|178:36,3,46.7500008916855,4|0|0|8,0:0|0:0|0:0|0:0,0:0:0:0:
258,226,249912,5,0,0:0:0:0:
231,199,250012,1,0,0:0:0:0:
204,172,250112,1,0,0:0:0:0:
176,145,250212,1,8,0:0:0:0:
86,253,250362,1,2,0:0:0:0:
203,329,250512,1,0,0:0:0:0:
241,329,250612,1,0,0:0:0:0:
279,329,250712,1,0,0:0:0:0:
318,329,250812,1,8,0:0:0:0:
490,247,251112,5,0,0:0:0:0:
451,247,251212,1,0,0:0:0:0:
413,247,251312,1,0,0:0:0:0:
374,247,251412,1,8,0:0:0:0:
291,133,251562,1,2,0:0:0:0:
344,3,251712,1,0,0:0:0:0:
371,30,251812,1,0,0:0:0:0:
398,58,251912,1,0,0:0:0:0:
426,85,252012,1,8,0:0:0:0:
490,247,252312,5,0,0:0:0:0:
462,219,252412,1,0,0:0:0:0:
435,192,252512,1,0,0:0:0:0:
408,165,252612,1,8,0:0:0:0:
371,30,252762,1,2,0:0:0:0:
238,74,252912,1,0,0:0:0:0:
199,74,253012,1,0,0:0:0:0:
161,74,253112,1,0,0:0:0:0:
123,74,253212,1,8,0:0:0:0:
120,268,253512,5,0,0:0:0:0:
147,240,253612,1,0,0:0:0:0:
174,213,253712,1,0,0:0:0:0:
201,186,253812,1,8,0:0:0:0:
73,127,253962,1,2,0:0:0:0:
211,279,254112,6,0,P|258:286|303:275,1,82.5,6|0,0:0|0:0,0:0:0:0:
392,196,254412,1,8,0:0:0:0:
492,328,254562,2,0,P|456:353|404:359,1,82.5,2|0,0:0|0:0,0:0:0:0:
290,326,254862,1,0,0:0:0:0:
147,240,255012,2,0,B|125:274|125:274|113:330,1,82.5,10|0,0:0|0:0,0:0:0:0:
256,208,255312,6,0,L|256:112,1,82.5,2|0,0:0|0:0,0:0:0:0:
156,37,255612,1,8,0:0:0:0:
32,140,255762,2,0,P|74:143|136:123,1,82.5,2|0,0:0|0:0,0:0:0:0:
224,60,256062,1,0,0:0:0:0:
376,124,256212,2,0,L|416:210,1,82.5,10|0,0:0|0:0,0:0:0:0:
290,326,256512,6,0,L|250:240,1,82.5,2|0,0:0|0:0,0:0:0:0:
256,112,256812,1,8,0:0:0:0:
128,216,256962,2,0,B|123:258|123:258|136:310,1,82.5,2|0,0:0|0:0,0:0:0:0:
256,344,257262,1,0,0:0:0:0:
404,268,257412,2,0,B|409:226|409:226|399:186,1,82.5,10|0,0:0|0:0,0:0:0:0:
303,93,257712,5,0,0:0:0:0:
262,92,257787,1,0,0:0:0:0:
227,112,257862,1,0,0:0:0:0:
208,148,257937,1,0,0:0:0:0:
202,189,258012,6,0,P|250:177|279:144,1,82.5,10|0,0:0|0:0,0:0:0:0:
289,23,258312,1,2,0:0:0:0:
357,145,258462,1,0,0:0:0:0:
388,8,258612,1,10,0:0:0:0:
496,97,258762,1,0,0:0:0:0:
415,212,258912,6,0,P|386:228|330:228,1,82.5,6|0,0:0|0:0,0:0:0:0:
357,145,259212,1,8,0:0:0:0:
479,254,259362,2,0,P|403:302|300:293,1,165,2|0,0:0|0:0,0:0:0:0:
242,250,259812,1,8,0:0:0:0:
108,152,259962,2,0,B|31:226|89:324,1,165,2|0,0:0|0:0,0:0:0:0:
158,243,260412,1,8,0:0:0:0:
297,331,260562,2,0,B|357:320|357:320|450:326,1,123.75,2|0,0:0|0:0,0:0:0:0:
448,327,260862,2,0,P|460:289|450:243,2,82.5,2|10|0,0:0|0:0|0:0,0:0:0:0:
296,247,261312,6,0,P|288:206|300:167,1,82.5,6|0,0:0|0:0,0:0:0:0:
359,88,261612,1,8,0:0:0:0:
366,252,261762,2,0,P|301:318|231:274,1,165,2|0,0:0|0:0,0:0:0:0:
164,352,262212,1,8,0:0:0:0:
145,188,262362,2,0,P|80:144|12:184,1,165,2|0,0:0|0:0,0:0:0:0:
24,284,262812,1,8,0:0:0:0:
191,274,262962,2,0,P|238:211|206:111,1,165,2|0,0:0|0:0,0:0:0:0:
147,66,263412,1,8,0:0:0:0:
282,27,263562,1,0,0:0:0:0:
327,185,263712,6,0,L|343:97,1,82.5,6|0,0:0|0:0,0:0:0:0:
434,69,264012,1,8,0:0:0:0:
393,229,264162,2,0,P|321:264|251:208,1,165,2|0,0:0|0:0,0:0:0:0:
197,139,264612,1,8,0:0:0:0:
33,160,264762,2,0,L|52:325,1,165,2|0,0:0|0:0,0:0:0:0:
146,352,265212,1,8,0:0:0:0:
235,213,265362,2,0,P|268:272|241:370,1,165,2|0,0:0|0:0,0:0:0:0:
328,218,265812,2,0,P|310:175|314:129,1,82.5,10|0,0:0|0:0,0:0:0:0:
385,11,266112,6,0,P|403:54|399:100,2,82.5,6|2|10,0:0|0:0|0:0,0:0:0:0:
231,80,266562,2,0,P|155:117|72:70,1,165,2|0,0:0|0:0,0:0:0:0:
155,17,267012,1,8,0:0:0:0:
307,38,267162,1,0,0:0:0:0:
363,195,267312,6,0,P|363:233|337:271,2,82.5,2|2|10,0:0|0:0|0:0,0:0:0:0:
264,328,267762,2,0,P|342:356|421:323,1,165,2|0,0:0|0:0,0:0:0:0:
363,195,268212,1,8,0:0:0:0:
219,232,268362,1,0,0:0:0:0:
66,169,268512,6,0,P|53:212|54:257,2,82.5,2|2|10,0:0|0:0|0:0,0:0:0:0:
220,99,268962,2,0,P|250:150|229:217,1,123.75,2|0,0:0|0:0,0:0:0:0:
219,232,269262,1,0,0:0:0:0:
123,118,269412,1,8,0:0:0:0:
261,28,269562,6,0,P|342:23|420:59,1,165,2|0,0:0|0:0,0:0:0:0:
510,172,270012,1,8,0:0:0:0:
351,173,270162,2,0,P|429:152|512:173,1,165,2|0,0:0|0:0,0:0:0:0:
432,298,270612,1,8,0:0:0:0:
299,231,270762,1,0,0:0:0:0:
375,84,270912,6,0,P|415:76|482:85,2,82.5,2|2|10,0:0|0:0|0:0,0:0:0:0:
215,131,271362,2,0,P|141:94|112:16,1,165,2|0,0:0|0:0,0:0:0:0:
231,13,271812,1,8,0:0:0:0:
375,84,271962,2,0,P|436:147|411:240,1,165,2|0,0:0|0:0,0:0:0:0:
270,307,272412,5,8,0:0:0:0:
142,275,272562,1,2,0:0:0:0:
285,265,272712,1,0,0:0:0:0:
125,313,272862,1,2,0:0:0:0:
301,297,273012,1,8,0:0:0:0:
62,267,273162,1,2,0:0:0:0:
271,353,273312,5,4,0:0:0:0:
306,352,273387,1,0,0:0:0:0:
339,336,273462,1,0,0:0:0:0:
361,308,273537,1,0,0:0:0:0:
370,273,273612,1,8,0:0:0:0:
363,238,273687,1,0,0:0:0:0:
342,209,273762,1,0,0:0:0:0:
311,192,273837,1,0,0:0:0:0:
341,171,273912,5,0,0:0:0:0:
359,138,273987,1,0,0:0:0:0:
366,97,274062,1,0,0:0:0:0:
355,60,274137,1,0,0:0:0:0:
328,29,274212,1,8,0:0:0:0:
292,13,274287,1,0,0:0:0:0:
254,14,274362,1,0,0:0:0:0:
217,31,274437,1,0,0:0:0:0:
191,57,274512,5,0,0:0:0:0:
176,95,274587,1,0,0:0:0:0:
147,124,274662,1,0,0:0:0:0:
108,132,274737,1,0,0:0:0:0:
79,106,274812,1,8,0:0:0:0:
92,69,274887,1,0,0:0:0:0:
131,64,274962,1,0,0:0:0:0:
160,92,275037,1,0,0:0:0:0:
168,132,275112,5,0,0:0:0:0:
154,170,275187,1,0,0:0:0:0:
122,196,275262,1,0,0:0:0:0:
84,212,275337,1,0,0:0:0:0:
47,230,275412,1,8,0:0:0:0:
20,260,275487,1,0,0:0:0:0:
14,300,275562,1,0,0:0:0:0:
34,335,275637,1,0,0:0:0:0:
72,360,275712,6,0,P|112:368|152:359,1,82.5,6|0,0:0|0:0,0:0:0:0:
242,251,276012,1,8,0:0:0:0:
168,132,276162,1,0,0:0:0:0:
187,297,276312,2,0,P|266:318|312:241,1,165,2|8,0:0|0:0,0:0:0:0:
322,119,276762,1,0,0:0:0:0:
439,235,276912,6,0,B|436:277|436:277|422:315,1,82.5,2|0,0:0|0:0,0:0:0:0:
279,154,277212,2,0,B|281:111|281:111|295:73,1,82.5,10|0,0:0|0:0,0:0:0:0:
420,140,277512,1,2,0:0:0:0:
323,273,277662,1,0,0:0:0:0:
323,273,277737,1,0,0:0:0:0:
323,273,277812,2,0,P|273:281|236:272,1,82.5,10|0,0:0|0:0,0:0:0:0:
106,181,278112,6,0,P|65:174|25:182,1,82.5,2|0,0:0|0:0,0:0:0:0:
71,315,278412,1,8,0:0:0:0:
209,292,278562,1,0,0:0:0:0:
178,155,278712,2,0,P|167:110|175:31,1,123.75,2|0,0:0|0:0,0:0:0:0:
201,22,279012,6,0,L|296:13,1,82.5,10|0,0:0|0:0,0:0:0:0:
441,59,279312,1,2,0:0:0:0:
326,177,279462,2,0,P|329:223|350:269,1,82.5,2|8,0:0|0:0,0:0:0:0:
492,184,279762,1,2,0:0:0:0:
314,79,279912,2,0,P|268:95|244:125,1,82.5,2|0,0:0|0:0,0:0:0:0:
342,256,280212,1,8,0:0:0:0:
342,256,280287,1,0,0:0:0:0:
342,256,280362,1,0,0:0:0:0:
146,317,280512,6,0,P|130:257|144:198,1,123.75,6|0,0:0|0:0,0:0:0:0:
144,198,280812,1,10,0:0:0:0:
252,257,280962,1,2,0:0:0:0:
405,317,281112,2,0,P|420:257|406:198,1,123.75,2|0,0:0|0:0,0:0:0:0:
406,198,281412,1,10,0:0:0:0:
284,119,281562,1,0,0:0:0:0:
284,119,281637,1,0,0:0:0:0:
284,119,281712,6,0,P|273:73|290:23,1,82.5,2|0,0:0|0:0,0:0:0:0:
341,166,282012,1,10,0:0:0:0:
183,216,282162,2,0,P|172:262|189:312,1,82.5,2|0,0:0|0:0,0:0:0:0:
405,317,282462,2,0,P|420:257|406:198,1,123.75,2|0,0:0|0:0,0:0:0:0:
341,166,282762,1,2,0:0:0:0:
183,216,282912,6,0,L|91:198,1,82.5,2|0,0:0|0:0,0:0:0:0:
37,46,283212,2,0,L|117:62,1,82.5,10|0,0:0|0:0,0:0:0:0:
248,136,283512,1,2,0:0:0:0:
341,8,283662,1,2,0:0:0:0:
341,166,283812,1,10,0:0:0:0:
248,38,283962,1,2,0:0:0:0:
401,124,284112,5,0,0:0:0:0:
413,140,284187,1,0,0:0:0:0:
418,160,284262,1,0,0:0:0:0:
416,180,284337,1,0,0:0:0:0:
406,198,284412,1,10,0:0:0:0:
268,224,284562,1,2,0:0:0:0:
133,128,284712,5,0,0:0:0:0:
161,116,284787,1,0,0:0:0:0:
191,112,284862,1,0,0:0:0:0:
220,121,284937,1,0,0:0:0:0:
248,136,285012,1,10,0:0:0:0:
277,145,285087,1,0,0:0:0:0:
307,141,285162,1,2,0:0:0:0:
336,128,285237,1,0,0:0:0:0:
355,108,285312,6,0,P|367:71|350:12,1,82.5,6|0,0:0|0:0,0:0:0:0:
277,145,285612,1,10,0:0:0:0:
322,277,285762,1,0,0:0:0:0:
322,277,285837,1,0,0:0:0:0:
322,277,285912,1,0,0:0:0:0:
190,325,286062,1,2,0:0:0:0:
191,191,286212,1,8,0:0:0:0:
191,191,286287,1,0,0:0:0:0:
191,191,286362,1,0,0:0:0:0:
40,257,286512,6,0,B|59:268|59:268|120:264,1,82.5,2|0,0:0|0:0,0:0:0:0:
256,231,286812,1,8,0:0:0:0:
214,60,286962,2,0,B|170:32|170:32|128:25,1,82.5,2|0,0:0|0:0,0:0:0:0:
83,155,287262,1,0,0:0:0:0:
245,126,287412,2,0,P|302:126|366:167,1,123.75,10|2,0:0|0:0,0:0:0:0:
373,175,287712,6,0,B|392:187|392:187|455:183,1,82.5,2|0,0:0|0:0,0:0:0:0:
408,49,288012,1,8,0:0:0:0:
279,104,288162,1,2,0:0:0:0:
279,104,288237,1,0,0:0:0:0:
279,104,288312,1,0,0:0:0:0:
247,240,288462,1,0,0:0:0:0:
373,175,288612,1,10,0:0:0:0:
373,175,288687,1,0,0:0:0:0:
373,175,288762,1,0,0:0:0:0:
205,62,288912,6,0,P|187:99|187:155,1,82.5,2|0,0:0|0:0,0:0:0:0:
245,266,289212,1,8,0:0:0:0:
279,104,289362,2,0,P|282:145|309:193,1,82.5,2|0,0:0|0:0,0:0:0:0:
423,262,289662,1,0,0:0:0:0:
275,335,289812,2,0,P|211:336|169:261,1,123.75,10|2,0:0|0:0,0:0:0:0:
167,266,290112,6,0,B|161:256|161:256|79:228,1,82.5,6|0,0:0|0:0,0:0:0:0:
117,371,290412,1,8,0:0:0:0:
245,266,290562,2,0,B|250:256|250:256|237:170,1,82.5,2|0,0:0|0:0,0:0:0:0:
121,108,290862,1,0,0:0:0:0:
85,269,291012,2,0,P|129:273|184:258,1,82.5,10|0,0:0|0:0,0:0:0:0:
304,171,291312,6,0,P|316:111|304:51,2,123.75,2|2|2,0:0|0:0|0:0,0:0:0:0:
120,107,291912,2,0,P|108:167|121:228,2,123.75,2|2|2,0:0|0:0|0:0,0:0:0:0:
283,184,292512,5,0,0:0:0:0:
251,203,292587,1,0,0:0:0:0:
215,212,292662,1,0,0:0:0:0:
178,208,292737,1,0,0:0:0:0:
145,193,292812,1,8,0:0:0:0:
119,166,292887,1,0,0:0:0:0:
103,133,292962,1,0,0:0:0:0:
100,96,293037,1,0,0:0:0:0:
120,60,293112,5,0,0:0:0:0:
145,86,293187,1,0,0:0:0:0:
158,121,293262,1,0,0:0:0:0:
158,157,293337,1,0,0:0:0:0:
145,193,293412,1,8,0:0:0:0:
128,225,293487,1,0,0:0:0:0:
123,262,293562,1,0,0:0:0:0:
133,297,293637,1,0,0:0:0:0:
153,328,293712,5,0,0:0:0:0:
181,351,293787,1,0,0:0:0:0:
218,354,293862,1,0,0:0:0:0:
249,337,293937,1,0,0:0:0:0:
265,303,294012,1,8,0:0:0:0:
269,266,294087,1,0,0:0:0:0:
284,233,294162,1,0,0:0:0:0:
319,231,294237,1,0,0:0:0:0:
338,262,294312,5,0,0:0:0:0:
323,293,294387,1,0,0:0:0:0:
288,293,294462,1,0,0:0:0:0:
266,265,294537,1,0,0:0:0:0:
269,228,294612,1,8,0:0:0:0:
286,194,294687,1,0,0:0:0:0:
287,159,294762,1,0,0:0:0:0:
275,123,294837,1,0,0:0:0:0:
251,94,294912,6,0,B|240:50|240:50|251:10,1,82.5,6|0,0:0|0:0,0:0:0:0:
354,53,295212,1,8,0:0:0:0:
286,194,295362,2,0,B|243:194|243:194|205:183,1,82.5,2|0,0:0|0:0,0:0:0:0:
119,118,295662,1,0,0:0:0:0:
162,268,295812,1,10,0:0:0:0:
42,166,295962,1,0,0:0:0:0:
189,114,296112,6,0,B|230:107|230:107|266:84,1,82.5,2|0,0:0|0:0,0:0:0:0:
172,31,296412,1,8,0:0:0:0:
287,159,296562,2,0,B|314:188|314:188|336:231,1,82.5,2|0,0:0|0:0,0:0:0:0:
228,205,296862,1,0,0:0:0:0:
339,94,297012,2,0,P|379:85|419:90,1,82.5,10|2,0:0|0:0,0:0:0:0:
439,98,297237,1,2,0:0:0:0:
455,109,297312,6,0,B|468:65|447:15,1,82.5,2|0,0:0|0:0,0:0:0:0:
389,169,297612,2,0,B|376:213|397:263,1,82.5,10|0,0:0|0:0,0:0:0:0:
472,178,297912,1,0,0:0:0:0:
339,94,298062,2,0,P|291:88|232:106,1,82.5,2|8,0:0|0:0,0:0:0:0:
164,150,298362,1,0,0:0:0:0:
246,283,298512,6,0,P|279:259|304:226,1,82.5,2|0,0:0|0:0,0:0:0:0:
336,124,298812,1,8,0:0:0:0:
407,263,298962,2,0,B|412:288|412:288|404:354,1,82.5,2|0,0:0|0:0,0:0:0:0:
478,243,299262,1,0,0:0:0:0:
307,115,299412,2,0,B|277:105|277:105|226:106,1,82.5,10|0,0:0|0:0,0:0:0:0:
365,161,299712,5,4,0:0:0:0:
374,148,299787,1,0,0:0:0:0:
381,133,299862,1,0,0:0:0:0:
383,117,299937,1,0,0:0:0:0:
383,100,300012,1,8,0:0:0:0:
378,84,300087,1,0,0:0:0:0:
370,70,300162,1,0,0:0:0:0:
359,58,300237,1,0,0:0:0:0:
346,47,300312,5,0,0:0:0:0:
330,49,300387,1,0,0:0:0:0:
314,49,300462,1,0,0:0:0:0:
297,47,300537,1,0,0:0:0:0:
281,43,300612,1,8,0:0:0:0:
266,37,300687,1,0,0:0:0:0:
251,30,300762,1,0,0:0:0:0:
237,20,300837,1,0,0:0:0:0:
200,12,300912,6,0,P|164:12|132:20,1,61.875002360344,2|0,0:0|0:0,0:0:0:0:
48,148,301212,1,8,0:0:0:0:
168,248,301362,2,0,L|153:177,1,61.875002360344,2|0,0:0|0:0,0:0:0:0:
33,353,301662,5,0,0:0:0:0:
231,301,301812,1,8,0:0:0:0:
140,117,301962,1,0,0:0:0:0:
265,279,302112,5,6,0:0:0:0:
290,296,302187,1,0,0:0:0:0:
323,297,302262,1,0,0:0:0:0:
351,280,302337,1,0,0:0:0:0:
366,252,302412,1,8,0:0:0:0:
363,219,302487,1,0,0:0:0:0:
344,194,302562,1,0,0:0:0:0:
313,183,302637,1,0,0:0:0:0:
332,154,302712,5,0,0:0:0:0:
341,121,302787,1,0,0:0:0:0:
332,88,302862,1,0,0:0:0:0:
307,67,302937,1,0,0:0:0:0:
273,61,303012,1,8,0:0:0:0:
242,75,303087,1,0,0:0:0:0:
224,103,303162,1,0,0:0:0:0:
223,137,303237,1,0,0:0:0:0:
235,171,303312,5,0,0:0:0:0:
244,206,303387,1,0,0:0:0:0:
242,243,303462,1,0,0:0:0:0:
227,277,303537,1,0,0:0:0:0:
198,304,303612,5,8,0:0:0:0:
157,307,303687,1,0,0:0:0:0:
119,293,303762,1,0,0:0:0:0:
96,255,303837,1,0,0:0:0:0:
91,211,303912,5,0,0:0:0:0:
101,168,303987,1,0,0:0:0:0:
133,138,304062,1,0,0:0:0:0:
176,133,304137,1,0,0:0:0:0:
223,137,304212,5,8,0:0:0:0:
259,165,304287,1,0,0:0:0:0:
302,180,304362,1,0,0:0:0:0:
348,180,304437,1,0,0:0:0:0:
388,163,304512,6,0,P|425:26|308:122,1,371.249988670349,6|0,0:0|0:0,0:0:0:0:
345,290,305412,1,2,0:0:0:0:
378,87,305562,1,2,0:0:0:0:
130,127,305712,6,0,P|87:205|133:282,1,165,2|2,0:0|0:0,0:0:0:0:
306,178,306162,2,0,P|348:99|303:23,1,165,2|2,0:0|0:0,0:0:0:0:
222,157,306612,2,0,P|223:211|260:251,1,82.5,2|2,0:0|0:0,0:0:0:0:
350,106,306912,2,0,P|271:96|222:158,1,165,2|2,0:0|0:0,0:0:0:0:
253,261,307362,6,0,P|189:325|157:133,1,412.5,2|0,0:0|0:0,0:0:0:0:
302,180,308262,5,0,0:0:0:0:
337,190,308337,1,0,0:0:0:0:
372,200,308412,2,0,P|382:160|372:110,1,82.5,2|0,0:0|0:0,0:0:0:0:
159,231,308712,5,0,0:0:0:0:
125,267,308787,1,0,0:0:0:0:
89,300,308862,2,0,P|57:222|76:133,1,165,2|0,0:0|0:0,0:0:0:0:
162,53,309237,1,0,0:0:0:0:
189,43,309312,6,0,B|241:44|285:85|280:134|280:134|276:180|301:223|359:233|407:215|416:148|408:121|365:97,1,412.5,2|2,0:0|0:0,0:0:0:0:
191,135,310212,1,2,0:0:0:0:
308,278,310362,1,2,0:0:0:0:
115,32,310512,6,0,P|65:114|84:201,1,165,2|2,0:0|0:0,0:0:0:0:
308,278,310962,2,0,P|357:195|338:108,1,165,2|2,0:0|0:0,0:0:0:0:
223,202,311412,1,2,0:0:0:0:
223,202,311712,6,0,L|225:309,1,82.5,2|2,0:0|0:0,0:0:0:0:
116,147,312012,1,2,0:0:0:0:
296,64,312162,2,0,L|417:49,1,82.5,2|2,0:0|0:0,0:0:0:0:
213,27,312462,1,2,0:0:0:0:
60,88,312612,2,0,L|181:73,1,82.5,2|2,0:0|0:0,0:0:0:0:
219,207,312912,6,0,P|172:318|97:225,1,288.75,2|2,0:0|0:0,0:0:0:0:
278,169,313512,6,0,P|299:213|301:269,1,82.5,2|2,0:0|0:0,0:0:0:0:
47,327,313812,2,0,P|26:283|23:226,1,82.5,2|2,0:0|0:0,0:0:0:0:
98,30,314112,6,0,P|123:71|120:128,1,107.249995090485,2|2,0:0|0:0,0:0:0:0:
107,266,314562,1,0,0:0:0:0:
230,326,314712,2,0,P|270:334|321:318,1,80.4374963178636,2|2,0:0|0:0,0:0:0:0:
381,257,315012,2,0,P|403:251|427:251,1,35.7499983634949,2|2,0:0|0:0,0:0:0:0:
416,250,315312,6,0,P|462:191|416:132,1,160.874992635727,2|2,0:0|0:0,0:0:0:0:
293,188,315837,1,0,0:0:0:0:
267,173,315912,2,0,B|226:161|182:174|182:174|130:187|95:163,1,160.874992635727,2|2,0:0|0:0,0:0:0:0:
225,248,316512,6,0,P|266:263|296:294,1,80.4374963178636,2|2,0:0|0:0,0:0:0:0:
325,330,316812,2,0,P|342:331|360:331,3,35.7499983634949,2|2|2|2,0:0|0:0|0:0|0:0,0:0:0:0:
215,356,317262,1,0,0:0:0:0:
215,356,317337,1,0,0:0:0:0:
215,356,317412,6,0,L|147:336,1,53.6249975452424,2|2,0:0|0:0,0:0:0:0:
80,243,317712,2,0,B|76:275|76:275|80:306,1,53.6249975452424,2|0,0:0|0:0,0:0:0:0:
154,219,318012,2,0,L|174:186,2,35.7499983634949,2|2|2,0:0|0:0|0:0,0:0:0:0:
95,163,318312,6,0,P|39:113|113:108,1,187.687491408348,2|2,0:0|0:0,0:0:0:0:
226,186,318912,5,6,0:0:0:0:
327,56,319062,1,0,0:0:0:0:
170,46,319212,1,10,0:0:0:0:
323,153,319362,1,0,0:0:0:0:
323,153,319437,1,0,0:0:0:0:
323,153,319512,1,2,0:0:0:0:
230,289,319662,1,2,0:0:0:0:
393,313,319812,2,0,B|418:290|418:290|440:247,1,82.5,10|2,0:0|0:0,0:0:0:0:
457,102,320112,6,0,L|432:167,3,55,2|0|0|10,0:0|0:0|0:0|0:0,0:0:0:0:
352,20,320562,1,2,0:0:0:0:
222,107,320712,2,0,B|227:47|227:47|243:5,1,82.5,2|2,0:0|0:0,0:0:0:0:
264,192,321012,2,0,B|203:192|203:192|160:179,1,82.5,10|2,0:0|0:0,0:0:0:0:
61,161,321312,5,2,0:0:0:0:
39,125,321387,1,0,0:0:0:0:
40,84,321462,1,0,0:0:0:0:
63,51,321537,1,0,0:0:0:0:
100,35,321612,1,8,0:0:0:0:
140,41,321687,1,0,0:0:0:0:
170,68,321762,1,0,0:0:0:0:
182,107,321837,1,0,0:0:0:0:
175,147,321912,5,0,0:0:0:0:
146,170,321987,1,0,0:0:0:0:
115,189,322062,1,0,0:0:0:0:
85,212,322137,1,0,0:0:0:0:
76,247,322212,1,8,0:0:0:0:
87,282,322287,1,0,0:0:0:0:
117,303,322362,1,0,0:0:0:0:
153,305,322437,1,0,0:0:0:0:
185,298,322512,5,0,0:0:0:0:
210,277,322587,1,0,0:0:0:0:
239,264,322662,1,0,0:0:0:0:
273,266,322737,1,0,0:0:0:0:
303,276,322812,1,8,0:0:0:0:
291,245,322887,1,0,0:0:0:0:
287,212,322962,1,0,0:0:0:0:
292,179,323037,1,0,0:0:0:0:
304,152,323112,6,0,P|324:112|360:216,1,259.874992069245,2|2,0:0|0:0,0:0:0:0:
378,213,323712,5,6,0:0:0:0:
232,132,323862,1,2,0:0:0:0:
148,276,324012,1,10,0:0:0:0:
312,296,324162,6,0,P|308:248|292:208,2,82.5,2|2|2,0:0|0:0|0:0,0:0:0:0:
180,196,324612,1,10,0:0:0:0:
304,88,324762,1,2,0:0:0:0:
448,168,324912,2,0,P|455:220|445:273,1,82.5,2|2,0:0|0:0,0:0:0:0:
310,170,325212,5,10,0:0:0:0:
322,171,325287,1,0,0:0:0:0:
333,175,325362,1,0,0:0:0:0:
343,181,325437,1,0,0:0:0:0:
352,189,325512,2,0,P|359:137|349:84,1,82.5,2|0,0:0|0:0,0:0:0:0:
451,249,325812,2,0,P|444:301|454:354,1,82.5,10|0,0:0|0:0,0:0:0:0:
492,152,326112,5,2,0:0:0:0:
356,30,326262,2,0,L|453:16,1,82.5,2|10,0:0|0:0,0:0:0:0:
289,94,326562,1,2,0:0:0:0:
214,241,326712,2,0,L|194:151,1,82.5,2|2,0:0|0:0,0:0:0:0:
45,89,327012,2,0,L|65:179,1,82.5,10|2,0:0|0:0,0:0:0:0:
44,333,327312,5,2,0:0:0:0:
192,136,327537,1,2,0:0:0:0:
413,242,327762,1,2,0:0:0:0:
402,54,327912,6,0,B|282:147|217:0|109:90,1,288.75,2|2,0:0|0:0,0:1:0:0:
93,100,328512,5,6,0:0:0:0:
60,125,328587,1,0,0:0:0:0:
39,160,328662,1,0,0:0:0:0:
33,200,328737,1,0,0:0:0:0:
43,240,328812,1,8,0:0:0:0:
67,274,328887,1,0,0:0:0:0:
102,296,328962,1,0,0:0:0:0:
142,303,329037,1,0,0:0:0:0:
183,301,329112,5,0,0:0:0:0:
218,280,329187,1,0,0:0:0:0:
258,271,329262,1,0,0:0:0:0:
299,278,329337,1,0,0:0:0:0:
339,287,329412,1,8,0:0:0:0:
380,283,329487,1,0,0:0:0:0:
417,266,329562,1,0,0:0:0:0:
450,241,329637,1,0,0:0:0:0:
472,206,329712,5,0,0:0:0:0:
482,166,329787,1,0,0:0:0:0:
473,126,329862,1,0,0:0:0:0:
448,94,329937,1,0,0:0:0:0:
411,76,330012,1,8,0:0:0:0:
371,76,330087,1,0,0:0:0:0:
334,95,330162,1,0,0:0:0:0:
310,128,330237,1,0,0:0:0:0:
290,164,330312,5,0,0:0:0:0:
258,190,330387,1,0,0:0:0:0:
218,193,330462,1,0,0:0:0:0:
183,172,330537,1,0,0:0:0:0:
166,135,330612,1,10,0:0:0:0:
166,135,330912,5,2,0:0:0:0:
186,170,330987,1,0,0:0:0:0:
193,210,331062,1,0,0:0:0:0:
187,251,331137,1,0,0:0:0:0:
167,288,331212,1,8,0:0:0:0:
137,315,331287,1,0,0:0:0:0:
99,330,331362,1,0,0:0:0:0:
57,331,331437,1,0,0:0:0:0:
20,307,331512,5,0,0:0:0:0:
50,281,331587,1,0,0:0:0:0:
88,269,331662,1,0,0:0:0:0:
129,271,331737,1,0,0:0:0:0:
167,288,331812,1,8,0:0:0:0:
202,308,331887,1,0,0:0:0:0:
243,315,331962,1,0,0:0:0:0:
283,306,332037,1,0,0:0:0:0:
320,289,332112,5,0,0:0:0:0:
347,270,332187,1,0,0:0:0:0:
360,241,332262,1,0,0:0:0:0:
357,209,332337,1,0,0:0:0:0:
361,176,332412,1,8,0:0:0:0:
382,151,332487,1,0,0:0:0:0:
422,130,332562,5,0,0:0:0:0:
423,170,332637,1,0,0:0:0:0:
397,202,332712,1,0,0:0:0:0:
357,209,332787,1,0,0:0:0:0:
322,189,332862,1,0,0:0:0:0:
301,153,332937,1,0,0:0:0:0:
260,112,333012,5,8,0:0:0:0:
206,90,333087,1,0,0:0:0:0:
148,93,333162,1,0,0:0:0:0:
93,112,333237,1,0,0:0:0:0:
61,160,333312,6,4,P|126:324|192:160,1,453.75,6|4,0:0|0:0,0:0:0:0:
127,228,334212,6,0,P|126:259|137:307,1,51.5625,2|0,0:0|0:0,0:0:0:0:
230,343,334362,2,0,P|231:312|220:264,1,51.5625,2|0,0:0|0:0,0:0:0:0:
192,160,334512,6,0,P|298:189|396:148,1,206.25,2|2,0:0|0:0,0:0:0:0:
440,71,334962,2,0,P|481:183|417:253,1,206.25,2|2,0:0|0:0,0:0:0:0:
344,180,335412,2,0,P|320:123|334:64,1,123.75,2|2,0:0|0:0,0:0:0:0:
292,139,335712,6,0,P|208:192|122:139,1,206.25,2|2,0:0|0:0,0:0:0:0:
80,48,336162,2,0,P|31:96|58:224,1,206.25,2|2,0:0|0:0,0:0:0:0:
129,289,336612,2,0,P|73:321|9:311,1,123.75,2|2,0:0|0:0,0:0:0:0:
147,169,336912,6,0,P|248:128|360:320,1,363,2|2,0:0|0:0,0:0:0:0:
279,336,337812,6,0,L|229:350,1,51.5625,2|0,0:0|0:0,0:0:0:0:
129,288,337962,2,0,L|178:273,1,51.5625,2|0,0:0|0:0,0:0:0:0:
88,350,338112,6,0,P|53:288|90:226,1,123.75,6|2,0:0|0:0,0:0:0:0:
147,169,338412,1,2,0:0:0:0:
279,336,338562,1,2,0:0:0:0:
291,347,338862,5,2,0:0:0:0:
330,140,339012,1,2,0:0:0:0:
111,106,339162,2,0,P|76:148|100:224,1,123.75,2|2,0:0|0:0,0:0:0:0:
129,304,339462,1,2,0:0:0:0:
202,140,339612,5,0,0:0:0:0:
202,140,339687,1,0,0:0:0:0:
202,140,339762,2,0,L|203:94,1,41.25,2|0,0:0|0:0,0:0:0:0:
266,204,339912,1,0,0:0:0:0:
266,204,339987,1,0,0:0:0:0:
266,204,340062,2,0,L|264:266,1,41.25,2|0,0:0|0:0,0:0:0:0:
330,140,340212,1,0,0:0:0:0:
330,140,340287,1,0,0:0:0:0:
330,140,340362,2,0,L|331:93,1,41.25,2|0,0:0|0:0,0:0:0:0:
475,83,340512,5,0,0:0:0:0:
483,124,340587,1,0,0:0:0:0:
481,165,340662,1,0,0:0:0:0:
469,204,340737,1,0,0:0:0:0:
447,239,340812,1,8,0:0:0:0:
429,276,340887,1,0,0:0:0:0:
427,317,340962,1,0,0:0:0:0:
440,356,341037,1,0,0:0:0:0:
480,379,341112,5,0,0:0:0:0:
478,339,341187,1,0,0:0:0:0:
459,304,341262,1,0,0:0:0:0:
429,276,341337,1,0,0:0:0:0:
390,261,341412,1,8,0:0:0:0:
351,251,341487,1,0,0:0:0:0:
317,227,341562,1,0,0:0:0:0:
292,199,341637,1,0,0:0:0:0:
272,160,341712,5,0,0:0:0:0:
242,43,341862,1,2,0:0:0:0:
240,272,342012,5,8,0:0:0:0:
357,242,342162,1,2,0:0:0:0:
126,242,342312,5,0,0:0:0:0:
39,326,342462,1,2,0:0:0:0:
158,128,342612,5,8,0:0:0:0:
59,58,342762,1,2,0:0:0:0:
199,200,342912,5,4,0:0:0:0:
319,151,343062,1,2,0:0:0:0:
196,207,343212,5,8,0:0:0:0:
340,173,343362,1,2,0:0:0:0:
193,214,343512,5,0,0:0:0:0:
362,198,343662,1,2,0:0:0:0:
190,221,343812,5,8,0:0:0:0:
383,221,343962,1,2,0:0:0:0:
242,43,344112,5,2,0:0:0:0:
242,43,344412,5,10,0:0:0:0:
94,214,344562,1,2,0:0:0:0:
94,214,344862,6,0,B|106:184|106:184|130:145,1,51.5625,2|2,0:0|0:0,0:0:0:0:
214,88,345012,2,0,B|202:118|202:118|178:157,1,51.5625,10|2,0:0|0:0,0:0:0:0:
167,267,345162,2,0,B|179:237|179:237|203:198,1,51.5625,2|2,0:0|0:0,0:0:0:0:
292,98,345312,5,2,0:0:0:0:
325,301,345462,1,2,0:0:0:0:
436,127,345612,1,10,0:0:0:0:
452,115,345912,5,2,0:0:0:0:
318,323,346062,1,2,0:0:0:0:
279,80,346212,1,10,0:0:0:0:
265,58,346512,5,2,0:0:0:0:
283,94,346587,1,0,0:0:0:0:
284,131,346662,1,0,0:0:0:0:
271,165,346737,1,0,0:0:0:0:
249,190,346812,1,8,0:0:0:0:
219,204,346887,1,0,0:0:0:0:
190,208,346962,1,0,0:0:0:0:
161,202,347037,1,0,0:0:0:0:
139,190,347112,5,0,0:0:0:0:
121,172,347187,1,0,0:0:0:0:
110,154,347262,1,0,0:0:0:0:
104,134,347337,1,0,0:0:0:0:
102,117,347412,1,8,0:0:0:0:
104,101,347487,1,0,0:0:0:0:
107,89,347562,1,0,0:0:0:0:
113,78,347637,1,0,0:0:0:0:
139,48,347712,5,4,0:0:0:0:
179,49,347787,1,0,0:0:0:0:
203,81,347862,1,0,0:0:0:0:
194,120,347937,1,0,0:0:0:0:
167,148,348012,5,8,0:0:0:0:
157,187,348087,1,0,0:0:0:0:
181,220,348162,1,0,0:0:0:0:
221,220,348237,1,0,0:0:0:0:
249,190,348312,5,2,0:0:0:0:
249,206,348387,1,2,0:0:0:0:
252,220,348462,2,0,P|255:245|252:270,1,51.5625,2|2,0:0|0:0,0:0:0:0:
336,212,348612,1,10,0:0:0:0:
336,196,348687,1,2,0:0:0:0:
332,180,348762,2,0,P|329:155|332:130,1,51.5625,2|2,0:0|0:0,0:0:0:0:
416,68,348912,5,0,0:0:0:0:
440,100,348987,1,0,0:0:0:0:
452,140,349062,1,0,0:0:0:0:
447,180,349137,1,0,0:0:0:0:
431,218,349212,5,8,0:0:0:0:
418,257,349287,1,0,0:0:0:0:
416,298,349362,1,0,0:0:0:0:
429,337,349437,1,0,0:0:0:0:
406,336,349512,5,2,0:0:0:0:
386,336,349587,1,2,0:0:0:0:
364,340,349662,2,0,P|339:343|312:340,1,51.5625,2|0,0:0|0:0,0:0:0:0:
254,232,349812,1,10,0:0:0:0:
274,232,349887,1,2,0:0:0:0:
296,228,349962,2,0,P|320:224|348:228,1,51.5625,2|0,0:0|0:0,0:0:0:0:
242,316,350112,5,4,0:0:0:0:
207,337,350187,1,0,0:0:0:0:
166,344,350262,1,0,0:0:0:0:
127,334,350337,1,0,0:0:0:0:
94,309,350412,1,8,0:0:0:0:
74,273,350487,1,0,0:0:0:0:
70,232,350562,1,0,0:0:0:0:
82,193,350637,1,0,0:0:0:0:
115,157,350712,5,0,0:0:0:0:
153,126,350787,1,0,0:0:0:0:
201,116,350862,1,0,0:0:0:0:
250,127,350937,1,0,0:0:0:0:
297,142,351012,1,8,0:0:0:0:
345,150,351087,1,0,0:0:0:0:
392,137,351162,1,0,0:0:0:0:
431,106,351237,1,0,0:0:0:0:
447,51,351312,5,0,0:0:0:0:
391,39,351387,1,0,0:0:0:0:
334,47,351462,1,0,0:0:0:0:
287,79,351537,1,0,0:0:0:0:
250,127,351612,5,8,0:0:0:0:
243,185,351687,1,0,0:0:0:0:
252,243,351762,1,0,0:0:0:0:
286,291,351837,1,0,0:0:0:0:
341,324,351912,5,0,0:0:0:0:
342,259,351987,1,0,0:0:0:0:
325,196,352062,1,0,0:0:0:0:
297,142,352137,1,0,0:0:0:0:
233,110,352212,5,8,0:0:0:0:
163,98,352287,1,0,0:0:0:0:
95,118,352362,1,0,0:0:0:0:
46,169,352437,1,0,0:0:0:0:
37,243,352512,5,6,0:0:0:0:
258,168,357312,6,0,P|176:198|99:165,1,165,4|8,0:0|0:0,0:0:0:0:
184,70,357762,1,0,0:0:0:0:
312,232,357912,2,0,B|318:273|318:273|312:326,1,82.5
108,253,358212,2,0,B|102:212|102:212|108:159,1,82.5,8|0,0:0|0:0,0:0:0:0:
205,47,358512,6,0,B|236:36|272:49|272:49|279:37|279:37|320:59|360:44,1,165,0|8,0:0|0:0,0:0:0:0:
358,44,358887,1,0,0:0:0:0:
358,44,358962,1,0,0:0:0:0:
312,232,359112,2,0,B|283:211|283:211|254:173,1,82.5
205,47,359412,1,8,0:0:0:0:
143,175,359562,1,0,0:0:0:0:
67,42,359712,6,0,P|42:115|65:203,1,165,0|8,0:0|0:0,0:0:0:0:
170,309,360162,1,0,0:0:0:0:
172,100,360312,2,0,B|148:138|148:138|143:175,1,82.5
312,232,360612,2,0,B|335:193|335:193|340:156,1,82.5,8|0,0:0|0:0,0:0:0:0:
207,46,360912,5,0,0:0:0:0:
187,50,360987,1,0,0:0:0:0:
167,54,361062,1,0,0:0:0:0:
272,240,361212,1,8,0:0:0:0:
292,236,361287,1,0,0:0:0:0:
312,232,361362,1,0,0:0:0:0:
142,175,361512,2,0,B|116:214|143:258,1,82.5
343,125,361812,2,0,B|369:86|342:42,1,82.5,8|0,0:0|0:0,0:0:0:0:
228,298,362112,6,0,P|308:319|375:263,1,165,4|8,0:0|0:0,0:0:0:0:
370,274,362487,1,0,0:0:0:0:
370,274,362562,1,0,0:0:0:0:
436,62,362712,2,0,B|434:151,1,82.5
272,240,363012,2,0,B|274:151,1,82.5,8|0,0:0|0:0,0:0:0:0:
449,294,363312,6,0,B|415:301|392:319|392:319|352:304|313:308,1,123.75
314,306,363612,2,0,P|267:305|224:318,1,82.5,8|0,0:0|0:0,0:0:0:0:
128,162,363912,2,0,P|175:163|218:150,1,82.5
290,40,364212,1,8,0:0:0:0:
150,24,364362,1,0,0:0:0:0:
128,162,364512,6,0,P|113:201|115:242,2,82.5,0|0|8,0:0|0:0|0:0,0:0:0:0:
188,282,364962,2,0,P|119:323|48:288,1,165
262,181,365412,2,0,B|298:208|308:254,1,82.5,8|0,0:0|0:0,0:0:0:0:
387,365,365712,5,0,0:0:0:0:
394,346,365787,1,0,0:0:0:0:
401,327,365862,1,0,0:0:0:0:
437,164,366012,2,0,B|444:205|444:205|438:247,1,82.5,8|0,0:0|0:0,0:0:0:0:
317,105,366312,5,0,0:0:0:0:
304,86,366387,1,0,0:0:0:0:
287,75,366462,1,0,0:0:0:0:
267,71,366537,1,0,0:0:0:0:
248,75,366612,1,8,0:0:0:0:
231,87,366687,1,0,0:0:0:0:
220,103,366762,1,0,0:0:0:0:
216,124,366837,1,0,0:0:0:0:
221,144,366912,6,0,P|197:214|126:192,1,165,4|8,0:0|0:0,0:0:0:0:
142,43,367362,1,0,0:0:0:0:
317,105,367512,2,0,P|326:166|320:198,1,82.5
132,273,367812,2,0,P|123:212|129:180,1,82.5,8|0,0:0|0:0,0:0:0:0:
258,336,368112,5,0,0:0:0:0:
258,336,368187,1,0,0:0:0:0:
258,336,368262,1,0,0:0:0:0:
391,269,368412,1,8,0:0:0:0:
325,135,368562,1,0,0:0:0:0:
185,182,368712,2,0,P|142:173|105:130,1,82.5
292,71,369012,2,0,P|369:79|397:138,1,123.75,8|0,0:0|0:0,0:0:0:0:
394,135,369312,6,0,B|366:220|448:206|369:324,1,165,0|8,0:1|0:0,0:0:0:0:
485,169,369762,1,0,0:0:0:0:
311,247,369912,1,0,0:0:0:0:
311,247,369987,1,0,0:0:0:0:
311,247,370062,1,0,0:0:0:0:
228,122,370212,2,0,B|256:90|256:90|296:71,1,82.5,8|0,0:0|0:0,0:0:0:0:
402,222,370512,6,0,P|312:248|218:226,1,165,0|8,0:0|0:0,0:0:0:0:
104,181,370962,1,0,0:0:0:0:
169,314,371112,2,0,L|168:219,1,82.5
37,302,371412,1,8,0:0:0:0:
37,302,371487,1,0,0:0:0:0:
37,302,371562,1,0,0:0:0:0:
193,354,371712,6,0,P|263:361|359:347,1,165,4|8,0:0|0:0,0:0:0:0:
494,267,372162,1,0,0:0:0:0:
367,189,372312,1,0,0:0:0:0:
478,90,372462,1,0,0:0:0:0:
411,257,372612,2,0,P|350:267|296:232,1,123.75,8|0,0:0|0:0,0:0:0:0:
290,218,372912,6,0,P|241:161|156:140,1,165,0|8,0:0|0:0,0:0:0:0:
165,287,373362,1,0,0:0:0:0:
287,158,373512,2,0,P|295:115|285:73,1,82.5
165,287,373812,2,0,P|207:295|250:285,1,82.5,8|0,0:0|0:0,0:0:0:0:
195,117,374112,6,0,P|118:93|38:109,1,165,0|8,0:0|0:0,0:0:0:0:
108,265,374562,2,0,P|185:289|265:273,1,165
436,166,375012,2,0,B|445:208|445:208|437:261,1,82.5,8|0,0:0|0:0,0:0:0:0:
324,342,375312,5,0,0:0:0:0:
275,201,375462,1,0,0:0:0:0:
150,282,375612,1,8,0:0:0:0:
150,282,375687,1,0,0:0:0:0:
150,282,375762,1,0,0:0:0:0:
201,134,375912,5,0,0:0:0:0:
58,83,376062,1,0,0:0:0:0:
43,232,376212,1,8,0:0:0:0:
43,232,376287,1,0,0:0:0:0:
43,232,376362,1,0,0:0:0:0:
134,94,376512,6,0,P|216:59|277:123,1,165,4|8,0:0|0:0,0:0:0:0:
296,247,376962,1,0,0:0:0:0:
382,126,377112,2,0,L|463:113,1,82.5
281,175,377412,2,0,L|199:162,1,82.5,8|0,0:0|0:0,0:0:0:0:
430,197,377712,6,0,P|440:238|433:308,1,82.5
434,302,377937,1,0,0:0:0:0:
425,325,378012,2,0,P|375:316|325:320,1,82.5,8|0,0:0|0:0,0:0:0:0:
149,342,378312,2,0,P|198:350|249:347,1,82.5
108,176,378612,2,0,P|56:203|108:229,1,142.312502714396,8|0,0:0|0:0,0:0:0:0:
204,213,378912,5,0,0:0:0:0:
204,213,378987,1,0,0:0:0:0:
204,213,379062,1,0,0:0:0:0:
204,213,379137,1,0,0:0:0:0:
204,213,379212,2,0,L|206:152,1,49.4999984893799
296,247,379362,5,0,0:0:0:0:
296,247,379437,1,0,0:0:0:0:
296,247,379512,1,0,0:0:0:0:
296,247,379587,1,0,0:0:0:0:
296,247,379662,2,0,L|297:303,1,49.4999984893799
350,160,379812,5,8,0:0:0:0:
350,160,379887,1,0,0:0:0:0:
350,160,379962,1,0,0:0:0:0:
350,160,380037,1,0,0:0:0:0:
350,160,380112,5,0,0:0:0:0:
372,180,380187,1,0,0:0:0:0:
402,187,380262,1,0,0:0:0:0:
430,176,380337,1,0,0:0:0:0:
449,152,380412,1,8,0:0:0:0:
453,122,380487,1,0,0:0:0:0:
440,94,380562,1,0,0:0:0:0:
414,77,380637,1,0,0:0:0:0:
374,70,380712,5,0,0:0:0:0:
333,72,380787,1,0,0:0:0:0:
295,89,380862,1,0,0:0:0:0:
261,112,380937,1,0,0:0:0:0:
226,134,381012,1,8,0:0:0:0:
187,146,381087,1,0,0:0:0:0:
146,144,381162,1,0,0:0:0:0:
108,129,381237,1,0,0:0:0:0:
73,107,381312,6,0,L|87:231,1,123.75,4|0,0:0|0:0,0:0:0:0:
98,325,381978,1,8,0:0:0:0:
207,201,382312,2,0,P|224:184|232:160,1,41.25
260,93,382645,6,0,L|261:216,1,123.75
338,124,383312,1,8,0:0:0:0:
195,41,383645,2,0,L|127:33,1,61.875
41,92,383978,6,0,B|136:105,1,82.5
172,169,384478,1,0,0:0:0:0:
239,120,384645,2,0,P|252:156|242:210,1,82.5,8|0,0:0|0:0,0:0:0:0:
124,309,385312,2,0,P|110:272|121:219,1,82.5
192,261,385812,1,0,0:0:0:0:
278,317,385978,2,0,P|309:310|344:310,1,61.875,8|0,0:0|0:0,0:0:0:0:
420,332,386312,1,0,0:0:0:0:
434,348,386645,6,0,P|440:303|427:266,1,82.5,4|0,0:0|0:0,0:0:0:0:
357,217,387145,1,0,0:0:0:0:
404,73,387312,2,0,P|416:112|410:153,1,82.5,8|0,0:0|0:0,0:0:0:0:
334,119,387812,1,0,0:0:0:0:
212,94,387978,2,0,P|145:85|111:88,1,82.5
150,208,388478,2,0,L|166:162,1,41.25,0|8,0:0|0:0,0:0:0:0:
45,52,388978,1,0,0:0:0:0:
71,58,389312,6,0,B|88:60|88:60|152:51,1,82.5
228,17,389812,1,0,0:0:0:0:
307,83,389978,2,0,P|318:129|312:168,1,82.5,8|0,0:0|0:0,0:0:0:0:
254,274,390478,5,0,0:0:0:0:
115,234,390645,1,0,0:0:0:0:
299,312,391145,6,0,L|257:301,1,41.25,0|8,0:0|0:0,0:0:0:0:
119,261,391478,5,0,0:0:0:0:
222,131,391645,1,0,0:0:0:0:
327,321,391978,6,0,P|380:305|452:323,1,123.75,4|0,0:0|0:0,0:0:0:0:
502,379,392645,1,8,0:0:0:0:
482,215,392978,1,0,0:0:0:0:
377,86,393312,2,0,P|373:130|385:182,1,82.5
404,246,393812,1,0,0:0:0:0:
325,222,393978,2,0,L|280:222,1,41.25,8|0,0:0|0:0,0:0:0:0:
208,187,394312,1,0,0:0:0:0:
289,94,394478,1,0,0:0:0:0:
404,246,394645,6,0,P|417:291|403:340,1,82.5
333,295,395145,1,0,0:0:0:0:
377,157,395312,1,8,0:0:0:0:
293,14,395645,5,0,0:0:0:0:
204,152,395978,2,0,P|193:188|208:241,1,82.5
289,121,396645,6,0,L|289:94,2,27.5,8|0|0,0:0|0:0|0:0,0:0:0:0:
310,194,396978,1,0,0:0:0:0:
328,233,397089,1,0,0:0:0:0:
346,272,397200,1,0,0:0:0:0:
363,312,397312,6,0,P|326:305|288:305,1,61.875,4|0,0:0|0:0,0:0:0:0:
274,323,397645,5,0,0:0:0:0:
253,323,397729,1,0,0:0:0:0:
233,323,397812,1,0,0:0:0:0:
211,323,397895,1,0,0:0:0:0:
192,323,397978,1,8,0:0:0:0:
328,233,398312,1,0,0:0:0:0:
163,233,398645,6,0,L|244:223,1,82.5
156,137,399145,1,0,0:0:0:0:
48,262,399312,1,8,0:0:0:0:
253,323,399645,1,0,0:0:0:0:
438,246,399978,6,0,P|396:243|377:246,1,61.875
346,274,400312,1,0,0:0:0:0:
344,253,400395,1,0,0:0:0:0:
342,233,400478,1,0,0:0:0:0:
339,212,400562,1,0,0:0:0:0:
337,192,400645,1,8,0:0:0:0:
199,100,400978,1,0,0:0:0:0:
104,329,401312,5,0,0:0:0:0:
124,327,401395,1,0,0:0:0:0:
145,326,401478,1,0,0:0:0:0:
166,325,401562,1,0,0:0:0:0:
186,323,401645,1,0,0:0:0:0:
250,271,401812,1,0,0:0:0:0:
330,335,401978,6,0,L|341:371,2,27.5,8|0|0,0:0|0:0|0:0,0:0:0:0:
344,253,402312,2,0,L|335:226,2,27.5
450,341,402645,6,0,L|421:252,1,82.5,4|0,0:0|0:0,0:0:0:0:
439,56,403312,2,0,L|468:145,1,82.5,8|0,0:0|0:0,0:0:0:0:
398,183,403812,1,0,0:0:0:0:
321,153,403978,2,0,P|256:144|225:146,1,82.5
163,176,404478,5,0,0:0:0:0:
217,237,404645,1,8,0:0:0:0:
299,232,404812,1,0,0:0:0:0:
321,153,404978,1,0,0:0:0:0:
398,183,405145,1,0,0:0:0:0:
388,286,405312,5,0,0:0:0:0:
217,237,405645,2,0,L|229:210,4,20.625,0|0|0|0|8,0:0|0:0|0:0|0:0|0:0,0:0:0:0:
135,252,406145,1,0,0:0:0:0:
78,191,406312,2,0,L|30:187,1,41.25
136,113,406645,5,0,0:0:0:0:
235,141,406812,2,0,L|284:129,1,41.25
257,246,407145,2,0,L|208:234,1,41.25,0|8,0:0|0:0,0:0:0:0:
312,196,407478,1,0,0:0:0:0:
382,238,407645,1,0,0:0:0:0:
346,312,407812,1,0,0:0:0:0:
216,236,407978,6,0,P|201:193|209:150,1,82.5,4|0,0:0|0:0,0:0:0:0:
275,131,408478,2,0,L|295:130,3,13.75,0|0|0|8,0:0|0:0|0:0|0:0,0:0:0:0:
128,170,408978,1,0,0:0:0:0:
192,322,409312,2,0,P|235:320|280:306,1,82.5
335,253,409812,1,0,0:0:0:0:
492,266,409978,2,0,P|444:269|411:281,1,82.5,8|0,0:0|0:0,0:0:0:0:
350,336,410478,1,0,0:0:0:0:
192,322,410645,6,0,P|181:258|196:197,1,123.75
201,189,411228,1,0,0:0:0:0:
209,177,411312,1,8,0:0:0:0:
323,129,411478,1,0,0:0:0:0:
335,253,411645,1,0,0:0:0:0:
192,322,411978,6,0,L|207:295,2,27.5
130,233,412312,2,0,L|115:260,2,27.5
201,189,412645,5,8,0:0:0:0:
183,169,412756,1,0,0:0:0:0:
159,155,412867,1,0,0:0:0:0:
132,150,412978,1,0,0:0:0:0:
105,154,413089,1,0,0:0:0:0:
81,167,413200,1,0,0:0:0:0:
62,186,413312,6,0,P|51:241|63:274,1,82.5,4|0,0:0|0:0,0:0:0:0:
104,333,413812,1,0,0:0:0:0:
259,317,413978,2,0,P|219:304|179:300,1,82.5,8|0,0:0|0:0,0:0:0:0:
130,233,414478,1,0,0:0:0:0:
60,104,414645,2,0,P|53:144|61:185,1,82.5
155,139,415145,6,0,L|129:147,2,20.625,0|0|8,0:0|0:0|0:0,0:0:0:0:
230,171,415478,1,0,0:0:0:0:
306,139,415645,1,0,0:0:0:0:
381,171,415812,1,0,0:0:0:0:
498,131,415978,6,0,P|465:78|398:48,1,123.75,4|0,0:0|0:0,0:0:0:0:
309,58,416645,1,8,0:0:0:0:
155,139,416978,2,0,L|145:190,1,41.25
188,251,417312,5,0,0:0:0:0:
276,323,417478,2,0,L|262:285,1,41.25
118,305,417812,2,0,L|136:353,1,41.25,0|8,0:0|0:0,0:0:0:0:
209,374,418145,1,0,0:0:0:0:
353,359,418312,1,0,0:0:0:0:
374,352,418645,6,0,P|380:288|374:254,1,82.5,4|0,0:0|0:0,0:0:0:0:
281,88,419312,2,0,P|275:152|281:186,1,82.5,8|0,0:0|0:0,0:0:0:0:
300,248,419812,1,0,0:0:0:0:
200,268,419978,2,0,P|155:256|115:254,1,82.5
41,284,420478,1,0,0:0:0:0:
82,178,420645,2,0,L|94:131,1,41.25,8|0,0:0|0:0,0:0:0:0:
53,64,420978,1,0,0:0:0:0:
11,208,421145,1,0,0:0:0:0:
187,295,421312,6,0,P|231:298|276:290,1,82.5,4|0,0:0|0:0,0:0:0:0:
336,242,421812,1,0,0:0:0:0:
432,319,421978,1,8,0:0:0:0:
505,170,422312,1,0,0:0:0:0:
385,141,422645,5,0,0:0:0:0:
388,143,422728,1,0,0:0:0:0:
390,146,422812,1,0,0:0:0:0:
393,149,422895,1,0,0:0:0:0:
396,152,422978,1,2,0:0:0:0:
244,218,423312,5,0,0:0:0:0:
241,216,423395,1,0,0:0:0:0:
239,213,423479,1,0,0:0:0:0:
236,210,423562,1,0,0:0:0:0:
233,207,423645,1,2,0:0:0:0:
291,149,423978,6,0,L|343:215,1,82.5,4|0,0:0|0:0,0:0:0:0:
207,309,424645,2,0,L|155:244,1,82.5,8|0,0:0|0:0,0:0:0:0:
167,162,425145,1,0,0:0:0:0:
291,149,425312,2,0,P|337:138|367:117,1,82.5
397,33,425812,5,8,0:0:0:0:
218,21,425978,1,0,0:0:0:0:
305,62,426145,1,0,0:0:0:0:
154,78,426312,1,0,0:0:0:0:
230,156,426478,1,0,0:0:0:0:
69,220,426645,6,0,P|60:178|68:121,1,82.5
209,214,427312,2,0,P|218:256|210:313,1,82.5,8|0,0:0|0:0,0:0:0:0:
140,260,427812,1,0,0:0:0:0:
212,135,427978,2,0,L|206:51,1,82.5
127,26,428478,1,0,0:0:0:0:
43,119,428645,6,0,L|18:131,2,27.5,8|0|0,0:0|0:0|0:0,0:0:0:0:
120,173,428978,2,0,L|96:185,2,27.5
206,243,429312,6,0,P|260:230|300:234,1,82.5,4|0,0:0|0:0,0:0:0:0:
481,163,429978,2,0,P|427:150|387:154,1,82.5,8|0,0:0|0:0,0:0:0:0:
318,163,430478,1,0,0:0:0:0:
395,66,430645,2,0,L|302:65,1,82.5
236,32,431145,1,0,0:0:0:0:
195,171,431312,2,0,L|205:211,1,41.25,8|0,0:0|0:0,0:0:0:0:
101,312,431645,2,0,L|90:259,1,41.25
318,163,432042,6,0,P|378:152|443:162,1,123.75,4|0,0:0|0:0,0:0:0:0:
194,221,432866,6,0,P|134:232|69:222,1,123.75,4|0,0:0|0:0,0:0:0:0:
271,66,433668,6,0,L|402:65,1,123.75,4|0,0:0|0:0,0:0:0:0:
241,318,434553,6,0,L|110:319,1,123.75,4|0,0:0|0:0,0:0:0:0:
445,250,435711,5,4,0:0:0:0:
256,192,435774,12,4,447945,0:0:0:0:
