osu file format v5

[General]
AudioFilename: Dragon Ball Z Budokai 3 - Opening.mp3
AudioLeadIn: 0
PreviewTime: -1
Countdown: 1
SampleSet: Soft
StackLeniency: 0.7
Mode: 0
LetterboxInBreaks: 1
EditorBookmarks: 31007,43580,46869

[Metadata]
Title:Dragonball Z Budokai 3 Opening
Artist:
Creator:dark707
Version:Easy
Source:Dragonball Z Budokai 3
Tags:

[Difficulty]
HPDrainRate:2
CircleSize:2
OverallDifficulty:2
SliderMultiplier:1.5
SliderTickRate:1

[Events]
//Background and Video events
0,0,"dragon_ball_z_budokai_3.jpg"
1,0,"DBZ Budokai 3.avi"
//Break Periods
//Storyboard Layer 0 (Background)
//Storyboard Layer 1 (Failing)
//Storyboard Layer 2 (Passing)
//Storyboard Layer 3 (Foreground)
//Storyboard Sound Samples
//Background Colour Transformations
3,100,163,162,255

[TimingPoints]
0,322.58064516129,4,2,0,100,1

[HitObjects]
160,128,3702,1,0
224,128,4025,1,0
320,192,4670,1,0
224,256,5315,1,0
96,256,5960,1,0
64,128,6605,1,0
192,128,7250,1,0
288,160,7896,1,0
320,192,9186,6,0,B|256:32|32:128|96:320,1,300
94,198,10476,2,0,B|384:256|320:192|384:224,1,150
128,128,11767,5,0
256,128,12412,1,0
352,192,13057,1,0
288,288,13702,2,0,B|64:288|96:96|96:64,1,300
352,256,16284,5,0
384,32,17575,1,0
416,160,18221,1,0
352,256,18867,1,0
224,256,19512,1,0
192,128,20158,1,0
288,64,20803,1,0
128,96,22740,6,0,B|256:256|448:128|320:352|256:320|192:320,1,300
224,128,25322,5,0
320,224,25968,1,0
416,128,26613,1,0
448,256,27259,1,0
352,320,27904,1,0
224,320,28550,1,0
160,256,28875,2,0,B|160:416|128:320,7,75
256,192,34259,5,0
128,160,34914,1,0
64,256,35570,1,0
160,192,36225,1,0
224,160,36553,1,0
288,224,39175,5,0
128,128,40159,1,0
192,96,40486,1,0
256,64,42453,5,0
352,160,43109,1,0
384,288,43764,1,0
256,320,44552,2,0,B|192:224,4,75
128,224,49841,5,0
192,192,50176,1,0
288,128,50845,1,0
256,192,51849,12,0,56869
288,256,60053,6,0,B|160:64,3,225
320,192,62752,2,0,B|128:192|128:64|288:32|416:96,2,375
160,256,66402,1,0
288,128,68252,5,0
160,256,69143,1,0
128,128,69737,1,0
256,96,70331,1,0
320,96,70628,1,0
352,224,71223,1,0
224,256,71817,2,0,B|192:96|160:32,1,225
256,128,73358,5,0
192,160,73678,1,0
96,224,74318,1,0
192,288,74958,1,0
320,256,75598,1,0
384,256,75918,1,0
416,192,76238,1,0
256,192,79438,12,0,83277
256,256,83917,6,0,B|256:64,7,150
224,128,88633,1,0
224,192,88950,1,0
224,320,89584,1,0
160,288,89901,1,0
128,256,90218,1,0
96,192,90535,1,0
96,128,90853,1,0
128,96,91170,1,0
192,96,91487,1,0
256,96,91804,1,0
320,96,92121,1,0
