osu file format v5

[General]
AudioFilename: Dragon Ball GT-ending.mp3
AudioLeadIn: 0
PreviewTime: -1
Countdown: 1
SampleSet: Normal
StackLeniency: 0.7
Mode: 0
LetterboxInBreaks: 1

[Metadata]
Title:Dragon Ball GT-ending
Artist:Dragon Ball
Creator:apprentice88
Version:Easy
Source:
Tags:

[Difficulty]
HPDrainRate:5
CircleSize:5
OverallDifficulty:5
SliderMultiplier:1.4
SliderTickRate:1

[Events]
//Background and Video events
0,0,"galeria_dragon_ball_gt__64_.jpg"
//Break Periods
//Storyboard Layer 0 (Background)
//Storyboard Layer 1 (Failing)
//Storyboard Layer 2 (Passing)
//Storyboard Layer 3 (Foreground)
//Storyboard Sound Samples
//Background Colour Transformations
3,100,163,162,255

[TimingPoints]
0,1000,4,1,0,100,1

[HitObjects]
128,192,2000,1,0
256,96,3000,1,0
160,224,4000,1,0
160,128,5000,1,0
384,96,6000,1,0
384,64,7000,1,0
160,224,8000,1,0
416,96,10000,1,0
128,256,11000,1,0
448,128,12000,1,0
128,128,13000,1,0
384,288,14000,1,0
192,160,15000,1,0
96,96,16000,1,0
192,288,17000,1,0
448,128,18000,1,0
128,64,19000,1,0
96,224,20000,1,0
320,288,21000,1,0
448,96,22000,1,0
160,224,23000,1,0
64,96,24000,1,0
288,96,25000,1,0
288,288,26000,1,0
192,96,27000,1,0
128,256,28000,1,0
416,128,29000,1,0
64,128,30000,1,0
384,288,31000,1,0
448,64,32000,1,0
96,64,33000,1,0
352,224,34000,1,0
320,64,35000,1,0
64,256,36000,1,0
128,96,37000,1,0
288,256,38000,1,0
416,256,39000,1,0
32,64,40000,1,0
384,224,41000,1,0
96,96,42000,1,0
352,256,43000,1,0
96,128,44000,1,0
416,224,45000,1,0
96,64,46000,1,0
96,320,47000,1,0
64,64,48000,1,0
288,96,49000,1,0
224,192,50000,1,0
352,288,51000,1,0
96,160,52000,1,0
448,64,53000,1,0
384,288,54000,1,0
96,64,55000,1,0
448,96,56000,1,0
256,192,57000,1,0
384,64,58000,1,0
320,256,59000,1,0
128,96,60000,1,0
384,64,61000,1,0
128,192,62000,1,0
352,64,63000,1,0
192,224,64000,1,0
416,64,65000,1,0
96,192,66000,1,0
64,64,67000,1,0
352,64,68000,1,0
416,224,69000,1,0
416,64,70000,1,0
64,32,71000,1,0
224,288,72000,1,0
96,64,73000,1,0
320,288,74000,1,0
320,96,75000,1,0
96,96,76000,1,0
416,160,77000,1,0
224,32,78000,1,0
128,288,79000,1,0
448,288,80000,1,0
384,64,85000,1,0
32,32,82000,2,0,B|416:256,1,420
128,128,87000,1,0
384,96,88000,1,0
96,224,89000,1,0
416,288,90000,1,0
416,64,91000,1,0
288,256,92000,1,0
480,224,93000,1,0
160,96,94000,1,0
384,256,95000,1,0
64,96,96000,1,0
384,96,97000,1,0
256,256,98000,1,0
288,96,99000,1,0
64,320,100000,1,0
448,128,101000,1,0
192,256,102000,1,0
64,64,103000,1,0
416,64,104000,1,0
352,224,105000,1,0
128,288,106000,1,0
448,32,107000,1,0
128,288,109000,1,0
32,32,110000,1,0
352,256,111000,1,0
224,128,112000,1,0
384,256,113000,1,0
128,128,114000,1,0
256,320,115000,1,0
416,96,116000,1,0
96,256,117000,1,0
416,96,118000,1,0
128,64,119000,1,0
352,288,120000,1,0
64,288,121000,1,0
416,192,122000,1,0
352,64,123000,1,0
352,192,124000,1,0
352,96,125000,1,0
96,224,127000,1,0
352,288,128000,1,0
192,64,129000,1,0
64,320,130000,1,0
256,320,131000,1,0
224,96,132000,1,0
96,288,133000,1,0
384,256,134000,1,0
416,128,135000,1,0
128,96,136000,1,0
224,288,137000,1,0
64,288,138000,1,0
288,128,139000,5,0
96,320,140000,1,0
480,96,141000,1,0
96,288,142000,1,0
64,64,143000,1,0
224,256,144000,1,0
64,256,145000,1,0
288,288,146000,1,0
288,96,147000,1,0
64,128,148000,1,0
224,64,149000,1,0
96,96,150000,1,0
384,256,151000,1,0
64,288,152000,1,0
320,96,153000,1,0
0,0,154000,2,0,B|448:352,1,560
416,32,158000,1,0
64,128,159000,1,0
64,288,160000,1,0
416,64,161000,1,0
96,64,162000,1,0
352,256,163000,1,0
416,32,164000,1,0
96,288,165000,1,0
352,256,166000,1,0
448,96,167000,1,0
128,32,168000,1,0
96,288,169000,1,0
352,96,170000,1,0
96,64,171000,1,0
64,288,172000,1,0
192,288,173000,1,0
448,128,174000,1,0
192,64,175000,1,0
448,320,176000,1,0
448,64,177000,1,0
96,256,178000,1,0
352,320,179000,1,0
448,128,180000,1,0
64,192,181000,1,0
160,320,182000,1,0
384,288,183000,1,0
320,64,184000,1,0
128,96,185000,1,0
96,288,186000,1,0
416,64,187000,1,0
192,288,188000,1,0
320,224,189000,1,0
192,64,190000,1,0
288,320,191000,1,0
128,64,192000,1,0
64,256,193000,1,0
352,256,194000,1,0
288,64,195000,1,0
96,320,196000,1,0
192,96,198000,1,0
64,256,199000,1,0
320,224,200000,1,0
320,64,201000,1,0
416,224,202000,1,0
32,256,203000,1,0
64,224,204000,1,0
32,128,205000,1,0
224,64,206000,1,0
32,64,207000,2,0,B|384:320,1,420
384,64,210000,1,0
96,256,211000,1,0
352,256,212000,1,0
160,128,213000,1,0
96,256,214000,1,0
64,160,215000,1,0
416,96,217000,1,0
96,128,218000,1,0
448,96,219000,1,0
96,128,220000,1,0
384,288,221000,1,0
64,320,223000,1,0
32,32,224000,2,0,B|480:384,1,560
352,64,228000,1,0
64,288,229000,1,0
416,64,230000,1,0
64,256,231000,1,0
352,160,232000,1,0
448,128,233000,1,0
160,288,234000,1,0
256,192,235000,1,0
