osu file format v5

[General]
AudioFilename: library background music.mp3
AudioLeadIn: 0
PreviewTime: -1
Countdown: 1
SampleSet: Soft
StackLeniency: 0.7
Mode: 0
LetterboxInBreaks: 1

[Metadata]
Title:library background music
Artist:Dracula X ~Nocturne in the Moonlight
Creator:dipsy
Version:Dracula
Source:
Tags:

[Difficulty]
HPDrainRate:3
CircleSize:6
OverallDifficulty:7
SliderMultiplier:2.1
SliderTickRate:2

[Events]
//Background and Video events
//Break Periods
2,24534,26875
2,89423,91558
2,119128,121411
//Storyboard Layer 0 (Background)
//Storyboard Layer 1 (Failing)
//Storyboard Layer 2 (Passing)
//Storyboard Layer 3 (Foreground)
//Storyboard Sound Samples
//Background Colour Transformations
3,100,0,0,0

[TimingPoints]
3287,588.73529411765,4,2,0,60,1
27775,588.235294117653,4,2,0,60,1
30716,294.117647058824,4,2,0,60,1
32901,588.235294117647,4,2,0,60,1
87165,294.117647058824,4,2,0,60,1
89223,588.235294117647,4,2,0,60,1
122287,587.735294117649,4,2,0,60,1

[Colours]
Combo1 : 128,128,255
Combo2 : 255,255,128
Combo3 : 255,128,255
Combo4 : 255,255,255

[HitObjects]
88,64,3274,1,0
120,90,3434,1,0
153,115,3581,1,0
185,141,3728,1,0
219,164,3875,1,0
251,190,4022,1,0
292,191,4170,1,0
334,191,4317,1,0
370,211,4464,2,2,C|478:265|369:326,1,210
323,329,5347,2,2,C|263:370|197:337,1,105
196,339,5789,1,0
153,333,5936,5,0
112,320,6083,1,0
76,298,6230,1,0
61,258,6377,1,0
55,216,6525,1,0
48,174,6672,1,0
61,134,6819,1,0
104,64,7113,5,0
112,80,7187,5,0
120,96,7260,5,0
128,112,7334,5,0
136,128,7408,5,0
144,144,7481,5,0
152,160,7555,5,0
160,176,7628,5,0
168,192,7702,5,0
176,208,7776,5,0
184,224,7849,5,0
192,240,7923,5,0
200,256,7996,5,0
208,272,8070,5,0
216,288,8144,5,0
272,288,8364,5,0
280,272,8438,5,0
288,256,8512,5,0
296,240,8585,5,0
304,224,8659,5,0
312,208,8732,5,0
320,192,8806,5,0
328,176,8879,5,0
336,160,8953,5,0
344,144,9027,5,0
352,128,9100,5,0
360,112,9174,5,0
368,96,9247,5,0
376,80,9321,5,0
384,64,9395,5,0
320,56,9615,5,0
296,56,9689,5,0
272,56,9763,5,0
248,56,9836,5,0
224,56,9910,5,0
200,56,9983,5,0
176,56,10057,5,0
152,56,10131,5,0
128,56,10204,5,0
104,56,10278,5,0
80,56,10351,5,0
56,56,10425,5,0
32,56,10499,5,0
8,56,10572,5,0
32,56,10646,5,0
32,120,10866,5,0
48,128,10940,5,0
64,136,11014,5,0
80,144,11087,5,0
96,152,11161,5,0
112,160,11234,5,0
128,168,11308,5,0
144,176,11382,5,0
160,184,11455,5,0
176,192,11529,5,0
192,200,11602,5,0
208,208,11676,5,0
224,216,11750,5,0
240,224,11823,5,0
256,232,11897,5,0
256,296,12118,6,4,B|312:320|384:312|440:288|464:232,1,210
448,214,12853,1,0
405,214,13001,1,0
382,178,13148,1,0
406,144,13295,1,0
447,142,13442,1,0
468,178,13589,1,0
426,175,13737,1,0
426,175,13884,1,0
426,175,14031,1,0
426,175,14178,1,0
426,175,14325,1,0
426,175,14472,1,0
342,181,14767,1,4
298,108,15061,1,4
255,35,15356,5,0
213,33,15503,1,0
171,39,15650,1,0
134,60,15797,1,0
98,82,15944,1,0
78,119,16091,1,0
80,160,16239,1,0
106,192,16386,1,0
138,219,16533,1,0
174,239,16680,1,0
211,258,16827,1,0
250,272,16975,1,0
287,290,17122,2,4,B|379:301|428:299|471:261|487:196,1,210
467,148,18005,6,0,B|399:147,1,52.5
414,147,18299,1,0
414,147,18446,2,0,B|345:147,1,52.5
361,147,18741,1,0
361,147,18888,2,0,B|273:148,1,52.5
308,147,19182,1,0
266,147,19330,1,0
224,148,19477,1,0
181,148,19624,1,0
256,192,19918,12,2,20212
256,192,20507,12,2,20801
256,192,21096,12,2,21390
256,192,21684,12,2,21978
268,231,22273,5,2
268,231,22347,5,2
268,231,22420,5,2
268,231,22494,5,2
268,231,22568,5,2
184,228,22862,5,2
184,228,22936,5,2
184,228,23009,5,2
184,228,23083,5,2
184,228,23156,5,2
184,143,23451,5,2
184,143,23524,5,2
184,143,23598,5,2
184,143,23671,5,2
184,143,23745,5,2
267,145,24039,5,2
267,145,24113,5,2
267,145,24187,5,2
267,145,24260,5,2
267,145,24334,5,2
222,302,27775,5,0
184,283,27922,1,0
150,257,28069,1,0
119,228,28216,1,0
109,187,28363,1,0
110,145,28510,1,0
116,103,28657,1,0
141,69,28804,1,0
181,58,28951,2,4,B|252:37|295:69,2,105
256,192,29833,12,0,30422
97,98,30716,6,0,B|319:100,1,210
306,99,31304,2,0,B|308:332,1,210
307,308,31892,2,0,B|72:304,1,210
97,304,32407,2,0,B|100:84,1,210
154,62,32901,5,0
193,49,33048,1,0
234,47,33195,1,0
272,62,33342,1,0
310,78,33489,1,0
338,109,33636,2,0,B|404:178|412:242,2,105
256,192,34371,12,4,34959
165,181,35253,5,0
193,149,35401,1,0
233,139,35548,1,0
274,135,35695,1,0
315,140,35842,1,0
350,162,35989,2,0,B|404:224|412:276,5,105
388,288,37606,5,0
365,323,37753,1,0
326,340,37901,1,0
284,345,38048,1,0
242,347,38195,1,0
200,337,38342,2,0,B|150:306|132:246,5,105
120,217,39959,5,0
117,175,40106,1,0
140,140,40253,1,0
172,112,40401,1,0
205,86,40548,1,0
246,78,40695,1,0
286,90,40842,1,0
322,111,40989,5,0
339,122,41062,5,0
353,136,41136,5,0
364,153,41209,5,0
372,172,41283,5,0
375,192,41356,5,0
378,212,41430,5,0
378,232,41503,5,0
376,253,41577,5,0
373,274,41651,5,0
372,294,41724,5,0
360,311,41798,5,0
346,326,41871,5,0
327,335,41945,5,0
308,345,42018,5,0
287,348,42092,5,0
266,349,42165,5,0
224,345,42312,5,0
187,323,42459,1,0
152,299,42606,1,0
131,262,42753,1,0
114,223,42901,1,0
98,183,43048,2,0,B|92:114|125:83,1,105
160,64,43489,1,0
201,62,43636,1,0
256,192,44077,12,0,44959
234,142,45548,5,0
194,152,45695,1,0
154,167,45842,2,0,B|107:218|103:270,1,105
101,299,46283,2,0,B|155:362,1,52.5
176,344,46577,2,0,B|244:352,1,52.5
270,353,46871,1,0
311,345,47018,1,0
350,330,47165,1,0
387,310,47312,1,0
416,280,47459,1,0
431,241,47606,1,0
440,200,47753,1,0
436,157,47901,1,0
419,118,48048,2,4,B|352:77|294:81,1,105
322,249,48930,5,0
313,230,49003,5,0
303,210,49077,5,0
293,190,49151,5,0
284,171,49224,5,0
275,151,49298,5,0
263,133,49371,5,0
254,113,49445,5,0
241,95,49518,5,0
230,76,49592,5,0
219,58,49665,5,0
203,43,49739,5,0
182,41,49812,5,0
160,40,49886,5,0
139,40,49959,5,0
118,45,50033,5,0
99,54,50106,5,0
83,68,50180,5,0
68,83,50253,5,0
53,98,50327,5,0
39,113,50401,5,0
28,131,50474,5,0
21,151,50548,5,0
19,171,50621,5,0
19,192,50695,5,0
22,212,50768,5,0
26,232,50842,5,0
33,251,50915,5,0
41,270,50989,5,0
54,285,51062,5,0
70,297,51136,5,0
87,308,51209,5,0
106,316,51283,5,0
125,324,51356,5,0
145,329,51430,5,0
165,333,51503,5,0
186,334,51577,5,0
207,332,51651,5,0
227,330,51724,5,0
247,327,51798,5,0
266,320,51871,5,0
286,313,51945,5,0
302,300,52018,5,0
316,284,52092,5,0
329,268,52165,5,0
338,248,52239,5,0
345,228,52312,5,0
349,207,52386,5,0
352,186,52459,5,0
354,164,52533,5,0
354,143,52606,5,0
341,103,52753,5,4
264,67,53048,2,0,B|207:54|154:67,1,105
99,124,53636,2,0,B|78:198|89:241,1,105
90,269,54077,1,0
111,305,54224,1,0
140,334,54371,1,0
177,353,54518,1,0
217,364,54665,1,0
258,364,54812,2,0,B|332:339|358:308,3,105
382,288,55842,1,0
399,249,55989,1,0
413,209,56136,1,0
416,167,56283,5,2
416,167,56356,1,2
416,167,56430,1,2
409,125,56577,1,2
409,125,56651,1,2
409,125,56724,1,2
396,84,56871,1,0
363,57,57018,1,0
337,90,57165,2,0,B|310:147|255:163,5,105
235,192,58783,5,0
218,230,58930,1,0
237,267,59077,1,0
278,267,59224,1,0
318,279,59371,1,0
359,286,59518,2,0,B|420:268|442:217,3,105
443,181,60548,2,0,B|368:94|255:74,1,210
223,78,61283,1,0
183,91,61430,1,0
149,116,61577,1,0
125,151,61724,1,0
115,191,61871,2,0,B|88:296|215:356,4,210
141,158,64371,5,0
181,145,64518,1,0
222,145,64665,1,0
263,149,64812,2,2,B|330:152|368:189,1,105
385,216,65253,1,0
389,257,65400,5,0
384,299,65548,1,0
371,339,65695,1,0
336,362,65842,1,0
294,363,65989,2,2,B|215:365|179:347,1,105
167,316,66430,1,0
134,289,66577,5,0
108,255,66724,1,0
83,220,66871,1,0
68,180,67018,1,0
53,140,67165,2,2,B|28:84|57:32,1,105
95,33,67606,1,0
136,36,67753,5,0
178,38,67901,1,0
219,38,68048,1,0
260,36,68195,1,0
301,36,68342,2,2,B|361:54|387:108,1,105
397,137,68783,1,0
411,176,68930,5,0
378,202,69077,1,0
347,231,69224,1,0
321,264,69371,1,0
291,294,69518,2,2,B|250:341|189:334,1,105
156,337,69959,1,0
114,336,70106,5,0
80,311,70253,1,0
61,272,70401,1,0
59,230,70548,1,0
67,188,70695,2,2,B|88:138|141:113,1,105
179,108,71136,1,0
220,108,71283,5,0
253,83,71430,1,0
283,111,71577,1,0
313,81,71724,1,0
340,112,71871,1,0
372,85,72018,1,0
401,115,72165,1,0
429,84,72312,1,0
456,115,72459,1,0
431,148,72606,1,0
457,180,72753,1,0
430,212,72901,1,0
455,245,73048,1,0
432,280,73195,1,0
456,313,73342,1,0
428,344,73489,1,0
386,336,73636,6,0,B|333:303|280:344,2,105
386,336,74371,1,2
386,336,74518,1,2
386,336,74665,1,2
384,294,74812,6,0,B|331:261|278:302,2,105
384,294,75548,1,2
384,294,75695,1,2
384,294,75842,1,2
384,252,75989,6,0,B|331:219|278:260,2,105
384,252,76725,1,2
384,252,76872,1,2
384,252,77019,1,2
384,210,77165,6,0,B|331:177|278:218,2,105
384,210,77901,1,2
384,210,78048,1,2
384,210,78195,1,2
384,168,78342,6,0,B|331:135|278:176,2,105
384,168,79078,1,2
384,168,79225,1,2
384,168,79372,1,2
384,126,79518,6,0,B|331:93|278:134,2,105
384,126,80254,1,2
384,126,80401,1,2
384,126,80548,1,2
381,84,80695,5,0
356,49,80842,1,0
315,37,80989,1,0
231,32,81283,5,0
192,48,81430,1,0
161,77,81577,1,0
123,151,81871,5,0
148,184,82018,1,0
181,209,82165,1,0
264,212,82459,5,0
302,196,82606,1,0
338,176,82753,1,0
370,98,83048,5,0
359,79,83121,1,0
347,61,83195,1,0
306,49,83342,2,0,B|215:42|175:79,3,105
177,95,84371,2,0,B|132:149,1,52.5
134,176,84665,2,0,B|140:242,1,52.5
146,269,84959,2,0,B|191:321,1,52.5
216,330,85253,1,0
258,334,85401,2,0,B|336:321|383:287,3,105
379,266,86430,5,0
356,230,86577,1,0
380,195,86724,1,0
353,162,86871,1,0
381,130,87018,1,0
307,88,87165,6,0,B|68:88,3,210
92,255,88341,6,0,B|328:257,3,210
151,125,92458,6,2,B|213:89|269:101,4,105
159,208,93928,5,0
138,244,94075,1,0
163,278,94223,1,0
204,279,94370,1,0
227,244,94517,1,0
206,207,94664,1,0
279,165,94811,2,2,B|344:225|345:278,4,105
318,91,96281,5,0
291,58,96428,1,0
266,91,96575,1,0
240,57,96723,1,0
216,91,96870,1,0
191,57,97017,1,0
107,62,97311,5,0
107,82,97384,5,0
107,103,97458,5,0
107,123,97531,5,0
106,144,97605,5,0
106,164,97678,5,0
106,185,97752,5,0
106,205,97825,5,0
106,226,97899,5,0
105,247,97973,5,0
106,267,98046,5,0
112,287,98120,5,0
121,305,98193,5,0
132,322,98267,5,0
144,338,98340,5,0
144,338,98414,5,0
163,346,98487,5,0
184,346,98561,5,0
204,343,98634,5,0
244,331,98781,5,0
276,304,98928,2,0,B|323:264|324:208,1,105
321,171,99370,1,0
314,129,99517,2,0,B|288:58|220:33,1,105
208,43,99958,1,0
166,49,100105,2,0,B|89:91|65:135,5,105
67,194,101870,6,0,B|125:193,2,52.5
93,273,102458,2,0,B|142:325|191:338,2,105
160,223,103340,6,0,B|203:172,1,52.5
193,182,103634,2,0,B|241:232,1,52.5
229,219,103928,2,0,B|283:170,1,52.5
267,183,104223,2,0,B|327:236,1,52.5
347,209,104517,2,0,B|405:170|395:107,1,105
337,61,105105,1,4
260,27,105399,5,0
238,27,105473,5,0
217,27,105546,5,0
195,27,105620,5,0
174,27,105693,5,0
152,27,105767,5,0
132,35,105840,5,0
114,47,105914,5,0
96,57,105987,5,0
83,73,106061,5,0
71,90,106134,5,0
62,109,106208,5,0
53,127,106281,5,0
48,147,106355,5,0
47,167,106428,5,0
47,188,106502,5,0
47,208,106575,5,0
47,229,106649,5,0
48,250,106723,5,0
51,270,106796,5,0
57,290,106870,5,0
70,305,106943,5,0
87,316,107017,5,0
107,320,107090,5,0
128,321,107164,5,0
148,320,107237,5,0
169,317,107311,5,0
189,313,107384,5,0
209,308,107458,5,0
229,302,107531,5,0
247,292,107605,5,0
264,281,107678,5,0
280,267,107752,5,0
296,253,107825,5,0
312,239,107899,5,0
326,223,107973,5,0
335,204,108046,5,0
340,183,108120,5,0
344,162,108193,5,0
342,140,108267,5,0
333,120,108340,5,0
321,102,108414,5,0
306,86,108487,5,0
288,74,108561,5,0
270,63,108634,5,0
250,54,108708,5,0
230,47,108781,5,0
209,42,108855,5,0
188,42,108928,5,0
109,72,109223,6,0,B|44:127|38:164,1,105
37,235,109811,2,0,B|68:311|124:348,1,105
177,322,110399,2,0,B|237:269|256:216,1,105
260,159,110987,2,0,B|251:90|212:63,1,105
295,37,111575,1,0
373,67,111870,2,0,B|447:177|427:302|274:297,1,315
249,300,112899,1,0
207,298,113046,1,0
165,292,113193,1,0
129,268,113340,1,0
102,235,113487,1,0
84,196,113634,2,2,B|64:136|82:68,4,105
145,138,115105,5,0
159,177,115252,1,0
178,214,115399,1,0
219,212,115546,1,0
237,174,115693,1,0
254,135,115840,1,0
294,122,115987,2,2,B|352:89|396:123,6,105
300,163,117899,1,0
319,200,118046,1,0
313,241,118193,1,0
301,281,118340,2,0,B|260:324|209:332|160:329|122:308|102:284,1,210
145,85,122287,5,0
113,112,122433,1,0
86,144,122580,1,0
77,185,122727,1,0
90,224,122874,1,0
114,257,123021,1,0
150,276,123168,2,2,B|220:305|266:292,5,105
291,279,124784,1,0
327,257,124931,1,0
348,220,125078,1,0
364,181,125225,1,0
382,143,125372,1,0
387,101,125519,2,0,B|334:60|286:49|228:58|171:71,2,210
313,142,126988,5,0
327,181,127135,1,0
314,221,127282,1,0
268,291,127576,2,0,B|202:290|164:243,1,105
173,253,128164,2,0,B|122:190|122:152,3,105
171,93,129339,5,0
171,93,129486,1,0
171,93,129633,1,0
171,93,129780,1,0
171,93,129927,1,0
171,93,130074,1,0
171,93,130221,2,2,B|234:140|251:176,3,105
245,166,131396,5,0
245,166,131543,1,0
245,166,131690,2,0,B|287:208,1,52.5
282,203,131984,1,0
282,203,132131,1,0
282,203,132278,2,0,B|334:257,1,52.5
297,277,132572,1,0
272,310,132719,1,0
243,340,132866,2,0,B|181:347|127:314|96:264|87:213|86:161|87:112,1,315
100,74,133894,1,0
140,62,134041,1,0
181,54,134188,1,0
222,59,134335,1,0
259,78,134482,1,0
291,104,134629,1,0
322,131,134776,1,0
339,169,134923,2,2,B|377:232|377:284,5,105
375,308,136539,5,0
342,334,136686,1,0
300,337,136833,1,0
258,334,136980,1,0
216,326,137127,1,0
176,312,137274,1,0
98,279,137568,1,4
59,204,137861,5,0
51,184,137935,5,0
48,163,138008,5,0
54,143,138082,5,0
67,127,138155,5,0
85,115,138229,5,0
105,109,138302,5,0
125,105,138376,5,0
145,105,138449,5,0
165,110,138523,5,0
184,116,138596,5,0
199,130,138670,5,0
214,143,138743,5,0
230,155,138817,5,0
241,172,138890,5,0
251,189,138963,5,0
259,208,139037,5,0
266,227,139110,5,0
270,247,139184,5,0
268,267,139257,5,0
263,287,139331,5,0
256,306,139404,5,0
243,323,139478,5,0
225,334,139551,5,0
203,332,139625,5,4
