osu file format v5

[General]
AudioFilename: Dra bodyu numm.mp3
AudioLeadIn: 0
PreviewTime: -1
Countdown: 1
SampleSet: Soft
StackLeniency: 0.7
Mode: 0
LetterboxInBreaks: 1

[Metadata]
Title:Dra Bodyu numm
Artist:Dra
Creator:CanisSkye
Version:Easy
Source:
Tags:

[Difficulty]
HPDrainRate:5
CircleSize:4
OverallDifficulty:4
SliderMultiplier:2.3
SliderTickRate:4

[Events]
//Background and Video events
//Break Periods
//Storyboard Layer 0 (Background)
//Storyboard Layer 1 (Failing)
//Storyboard Layer 2 (Passing)
//Storyboard Layer 3 (Foreground)
//Storyboard Sound Samples
//Background Colour Transformations
3,100,0,0,128

[TimingPoints]
35491.6567282402,490.196078431373,4,2,0,100,1

[HitObjects]
256,192,1014,12,0,17844
59,158,24053,5,0
266,157,25687,1,0
411,164,27158,1,0
66,277,28465,1,0
174,282,28955,1,0
256,278,29445,1,0
361,283,29936,1,0
435,282,30426,1,0
401,171,31896,5,0
286,170,32387,1,0
133,132,33367,5,0
210,87,33857,1,0
348,152,34347,1,0
153,250,35328,1,0
324,257,35981,1,0
247,184,36472,1,0
129,119,37452,5,0
279,114,37942,1,0
400,172,38432,1,0
137,226,39576,5,0
176,163,39903,1,0
248,216,40393,1,0
409,151,41374,5,0
321,127,41864,1,0
181,131,42354,1,0
93,183,43171,5,0
219,189,43661,1,0
322,191,44151,1,0
404,161,45295,5,0
304,119,45622,1,0
208,122,46112,1,0
91,129,47256,5,0
152,129,47746,1,0
267,136,48236,1,0
413,160,49217,5,0
343,159,49707,1,0
260,162,50197,1,0
106,154,51177,5,0
182,155,51668,1,0
264,158,52158,1,0
396,153,53138,5,0
336,158,53628,1,0
255,156,54119,1,0
57,104,56243,2,0,B|302:108|308:119|305:117,12,230
86,236,63596,2,0,B|356:240,4,230
99,72,66700,2,0,B|338:74,2,230
186,180,68661,2,0,B|377:176,3,153.333333333333
65,144,70622,2,0,B|291:145,3,153.333333333333
256,192,76668,12,0,82550
