osu file format v5

[General]
AudioFilename: Canon.mp3
AudioLeadIn: 1007
PreviewTime: -1
Countdown: 1
SampleSet: Soft
StackLeniency: 0.7
Mode: 0
LetterboxInBreaks: 1

[Metadata]
Title:Canon (O2 version)+
Artist:Dr.Flowershirts
Creator:osu_CN_yaya
Version:Hard
Source:o2jam
Tags:o2jam

[Difficulty]
HPDrainRate:2
CircleSize:4
OverallDifficulty:6
SliderMultiplier:1.6
SliderTickRate:1

[Events]
//Background and Video events
0,0,"1055.jpg"
//Break Periods
2,24833,29359
//Storyboard Layer 0 (Background)
//Storyboard Layer 1 (Failing)
//Storyboard Layer 2 (Passing)
//Storyboard Layer 3 (Foreground)
//Storyboard Sound Samples
//Background Colour Transformations
3,100,163,162,255

[TimingPoints]
930,370.37037037037,4,2,0,100,1
12781,-100,4,1,0,69,0
30559,-100,4,2,0,100,0
49818,-100,4,1,0,70,0
85374,-100,4,2,0,70,0
97226,-100,4,1,0,70,0

[Colours]
Combo1 : 0,0,0
Combo2 : 255,255,255
Combo3 : 196,0,196
Combo4 : 125,0,63

[HitObjects]
72,80,930,1,0
184,80,1300,2,2,C|184:168|184:232|184:232,1,160
296,232,2041,1,0
408,208,2411,2,2,C|336:160|336:160,1,80
312,208,2781,2,0,C|256:272|256:272,1,80
216,232,3152,2,2,C|144:160|144:160,1,80
128,216,3522,2,0,C|56:288|56:288,1,80
104,320,3892,5,2
216,320,4263,2,0,C|320:320|320:320,1,80
352,320,4633,1,2
448,256,5004,2,0,C|448:160,1,80
392,176,5374,1,2
392,120,5559,2,2,C|296:120|296:120,1,80
312,176,5929,1,0
256,168,6115,2,0,C|256:248|256:248,1,80
256,304,6485,1,2
200,304,6670,2,2,C|128:304|128:304,1,80
120,192,7226,6,2,C|120:104,2,80,2|2|8
120,304,7967,2,0,C|136:288|152:304|168:288|184:304|200:288|216:304|232:288|248:304|248:304,1,160,0|8
344,288,8707,1,0
456,288,9078,2,0,C|480:256|456:224|480:176|456:144|456:144,1,160,8|0
352,152,9818,5,8
240,152,10189,2,0,C|152:152,2,80,0|0|8
248,264,10929,2,0,C|360:264|360:264,1,80
384,264,11300,1,2
448,176,11670,1,2
376,88,12041,1,8
336,120,12226,1,8
296,160,12411,2,0,C|240:160,4,40
248,256,13152,5,8
208,216,13337,1,0
168,256,13522,1,0
96,168,13892,5,8
136,128,14078,1,0
176,168,14263,2,0,C|264:168|264:168|264:168,1,80
280,216,14633,2,0,C|352:288,1,80,8|0
392,272,15004,2,0,C|408:256|392:240|408:224|392:208|408:192|392:176|408:160|408:160,1,160,0|8
360,120,15559,1,0
320,160,15744,1,0
264,64,16115,5,8
224,24,16300,1,0
184,64,16485,1,0
80,104,16855,1,8
128,136,17041,1,0
160,184,17226,2,0,C|104:240|104:240,1,80
160,248,17596,2,0,C|160:320|160:320,1,80,8|0
208,296,17967,2,0,C|272:360,1,80
296,304,18337,2,0,C|376:304,2,80,8|0|0
344,200,19078,5,8
304,160,19263,1,0
264,200,19448,1,0
152,200,19818,1,8
120,248,20004,1,0
152,296,20189,2,0,C|184:328|216:296|248:328|280:296|280:296,1,160,0|8
320,320,20744,1,0
368,296,20929,2,0,C|400:264|368:232|400:200|368:168|368:168,1,160,0|8
288,136,21670,5,0
176,136,22041,2,0,C|176:304|176:304,1,160,8|0
288,296,22781,2,0,C|288:208|288:208,1,80,8|0
288,160,23152,1,0
280,48,23522,1,8
192,120,23892,1,0
160,168,24078,1,0
128,216,24263,2,2,C|88:184,4,40
168,64,30559,6,2,C|376:64|280:96|280:328|192:288|192:288,1,640
152,200,32411,1,0
80,112,32781,2,0,C|40:192|96:264|96:264,1,160
192,280,33522,6,2,L|270:57|343:277|321:215|212:213,1,640
272,304,35374,1,0
384,304,35744,2,0,B|344:360|208:336|208:336,1,160
152,256,36485,6,2,C|162:67|256:144|338:64|361:247|361:247,1,640
472,288,38337,1,0
376,232,38707,2,0,B|456:184|416:80|416:80,1,160
312,64,39448,6,2,L|205:64|205:64|205:192|290:193|204:192|204:310|330:310|330:310,1,640
400,312,41300,1,0
456,216,41670,1,0
440,104,42041,1,0
335,95,42411,6,2,C|198:113|337:267|208:304|208:304,1,480
120,256,43892,2,0,C|56:100|56:100|58:102,1,160
168,104,44633,2,0,C|320:56|336:48|336:48,1,160
328,168,45374,5,2
216,168,45744,1,2
168,272,46115,1,2
280,344,46485,1,2
384,272,46855,1,2
272,80,47596,5,2
160,272,48337,5,0
272,272,48707,1,0
384,272,49078,1,0
344,232,49263,1,0
384,192,49448,2,2,C|432:192,4,40,2|2|2|2|0
384,80,50189,5,8
424,120,50374,1,0
384,160,50559,1,0
392,272,50929,1,8
432,304,51115,1,0
392,344,51300,2,0,B|304:360|240:304|240:304,1,160,0|8
168,224,52041,1,0
200,176,52226,1,0
224,224,52411,1,8
256,176,52596,1,0
280,224,52781,6,0,B|320:144|376:304|440:192|440:192,2,160,0|8|0
328,328,53892,1,8
272,328,54078,1,0
216,328,54263,2,0,B|144:240|136:376|40:296|40:296,1,160,0|8
40,264,54818,1,0
72,216,55004,2,0,B|136:248|152:160|152:160,1,80
104,152,55374,2,0,C|208:152,2,80,8|0|0
104,40,56115,6,0,B|240:40|240:104|240:104,1,160,8|0
248,208,56855,1,8
288,248,57041,1,0
328,208,57226,2,0,B|408:184|424:328|336:312|336:312,1,160,0|8
240,304,57967,1,0
200,344,58152,1,0
160,304,58337,2,0,C|160:224,2,80,8|0|0
56,248,59078,6,2,C|56:344,2,80
56,136,59818,2,2,C|56:24,2,80
152,192,60559,1,0
264,192,60929,1,0
320,192,61115,1,0
264,192,61300,1,0
208,192,61485,1,0
152,192,61670,5,8
232,264,62041,2,0,C|288:328|288:328,2,80,0|0|8
320,192,62781,2,0,C|320:120|320:120|320:120,1,80
376,120,63152,2,0,C|464:120,1,80,8|0
448,176,63522,2,0,C|448:272,1,80
392,248,63892,2,0,C|320:248|320:248,1,80,8|0
320,192,64263,2,0,C|232:192,1,80
184,192,64633,6,0,B|88:248|272:296|168:344|168:344,2,160,8|0|8
112,104,65744,2,0,C|152:40|152:40,1,80
184,80,66115,2,0,C|256:40,1,80,8|0
264,96,66485,2,0,C|344:80,1,80
336,136,66855,6,0,B|248:200|448:168|368:256|368:256,2,160,8|0|8
272,232,67967,1,0
312,272,68152,1,0
272,312,68337,1,8
160,312,68707,1,0
128,264,68892,1,0
168,224,69078,2,0,B|96:176|240:160|152:72|152:72,1,160,8|0
216,80,69633,5,0
272,80,69818,1,8
328,80,70004,1,0
384,80,70189,2,2,C|384:240|384:240,1,160
304,160,70929,2,2,C|472:160|472:160,1,160
400,248,71670,5,8
360,288,71855,1,0
320,248,72041,2,0,L|312:240|304:248|296:240|288:248|280:240|272:248|264:240|256:248|248:240|240:248|232:240|224:248|216:240|208:248|200:240|200:240,1,160,0|8
152,248,72596,1,0
112,208,72781,1,0
152,168,72967,1,0
112,128,73152,2,2,C|112:80,4,40
224,144,73892,5,8
280,144,74078,1,0
280,88,74263,2,0,L|336:64|440:96|440:96,1,160,0|8
440,208,75004,5,0
360,288,75374,5,8
304,288,75559,1,0
304,232,75744,2,0,L|240:288|152:288|152:288,1,160,0|8
88,200,76485,5,0
144,104,76855,5,8
200,104,77041,1,0
200,160,77226,2,0,L|272:112|352:112|352:112,1,160,0|8
360,224,77967,5,0
448,288,78337,6,2,C|512:336,4,80
336,296,79448,5,0
229,269,79818,5,8
176,232,80004,1,0
201,175,80189,1,0
261,176,80374,1,0
282,235,80559,1,8
243,129,80929,5,0
352,105,81300,6,0,C|456:105,1,80,8|0
435,160,81670,2,0,C|435:248,1,80
436,296,82041,1,8
339,238,82411,5,0
227,224,82781,5,8
181,191,82967,1,0
231,166,83152,1,0
187,130,83337,2,0,C|187:48|187:48,1,80,0|8
298,52,83892,5,0
406,79,84263,6,0,C|406:167,1,80,8|0
406,214,84633,1,0
358,185,84818,1,0
315,221,85004,1,8
359,323,85374,5,0
247,323,85744,1,0
191,323,85929,1,0
220,275,86115,2,2,C|220:186,2,80
220,163,86855,1,0
220,50,87226,1,0
220,105,87411,1,0
264,80,87596,2,2,C|368:80|368:56|368:112|368:112,1,160
440,168,88337,5,0
376,256,88707,1,2
328,224,88892,1,2
280,256,89078,1,2
328,152,89448,1,0
216,152,89818,5,0
104,152,90189,2,2,C|104:256,1,80
104,288,90559,2,2,C|104:328|120:312|120:344|136:328|136:360|152:344|152:344,1,160
200,256,91300,5,0
320,296,91670,1,8
354,252,91855,1,0
321,206,92041,1,0
267,221,92226,1,0
271,276,92411,1,8
265,164,92781,5,0
424,96,93152,2,0,C|328:54,1,80,8|0
341,119,93522,2,0,C|253:103|253:103,1,80,0|0
227,148,93892,1,8
144,208,94263,5,0
194,307,94633,1,8
245,285,94818,1,0
296,306,95004,2,0,C|296:218,2,80,0|0|8
326,198,95744,5,4
225,139,96115,1,4
156,227,96485,1,4
260,298,96855,1,4
364,257,97226,5,0
445,193,97596,2,0,C|365:193|365:193,1,80,8|0
361,138,97967,1,0
260,187,98337,1,0
204,187,98522,1,0
148,184,98707,2,0,C|172:88,1,80,8|0
218,128,99078,2,0,C|282:80,1,80
317,123,99448,2,0,C|405:115,1,80,8|0
396,171,99818,2,0,C|476:219,1,80
426,253,100189,1,8
333,315,100559,6,0,C|245:355|245:355,1,80
276,294,100929,1,8
223,195,101300,2,0,C|172:119|172:119,1,80
243,122,101670,1,8
298,123,101855,1,0
353,129,102041,2,0,C|310:199|310:199,1,80
294,250,102411,1,8
238,250,102596,1,0
185,283,102781,6,0,C|353:283|353:283,2,160,0|8|0
101,208,103892,1,8
183,131,104263,2,0,C|343:131|343:131|351:131,2,160,0|8|0
181,243,105374,1,8
236,243,105559,1,0
291,244,105744,1,0
346,244,105929,1,0
392,208,106115,6,0,C|424:176|392:144|416:120|392:96|392:96,1,160,8|0
280,96,106855,1,8
168,88,107226,2,0,C|136:184,1,80,0|0
120,216,107596,1,8
160,320,107967,1,0
256,280,108337,5,8
168,192,108522,1,8
256,104,108707,1,8
344,192,108892,1,8
256,192,109078,1,4
