osu file format v5

[General]
AudioFilename: Canon.mp3
AudioLeadIn: 1007
PreviewTime: -1
Countdown: 1
SampleSet: Soft
StackLeniency: 0.7
Mode: 0
LetterboxInBreaks: 1
EditorBookmarks: 18420

[Metadata]
Title:Canon (O2 version)+
Artist:Dr.Flowershirts
Creator:osu_CN_yaya
Version:Easy
Source:o2jam
Tags:o2jam

[Difficulty]
HPDrainRate:2
CircleSize:3
OverallDifficulty:4
SliderMultiplier:1.6
SliderTickRate:1

[Events]
//Background and Video events
0,0,"1055.jpg"
//Break Periods
2,36685,45535
2,85574,95906
//Storyboard Layer 0 (Background)
//Storyboard Layer 1 (Failing)
//Storyboard Layer 2 (Passing)
//Storyboard Layer 3 (Foreground)
//Storyboard Sound Samples
//Background Colour Transformations
3,100,163,162,255

[TimingPoints]
930,370.37037037037,4,2,0,100,1

[Colours]
Combo1 : 0,0,0
Combo2 : 255,255,255
Combo3 : 196,0,196
Combo4 : 125,0,63

[HitObjects]
56,248,930,1,0
128,216,1300,1,0
160,288,1670,1,0
240,264,2041,1,0
312,240,2411,2,0,B|400:160|368:48|248:8|168:40|112:128|144:200|224:248,1,480
240,296,3892,5,0
288,232,4263,1,0
240,168,4633,1,0
296,112,5004,1,0
240,48,5374,2,0,B|160:-40|48:-8|8:112|40:192|128:248|200:216|248:136,1,480,0|0
288,112,6855,5,0
360,80,7226,2,0,B|392:160,2,80
312,144,7967,2,0,B|216:184,10,80
312,224,10189,6,0,B|352:320,2,80
264,288,10929,2,0,B|176:320,10,80,0|0|0|0|0|0|0|0|0|0|4
337,255,13152,5,8
418,167,13707,1,0
418,167,13892,1,8
368,103,14263,2,0,B|200:103,1,160,0|8
120,192,15189,1,0
120,192,15374,1,8
176,248,15744,6,0,B|344:248,1,160,0|8
408,152,16670,1,0
408,152,16855,1,8
353,93,17226,2,0,B|177:93,1,160,0|8
262,190,18152,1,0
262,190,18337,1,8
341,191,18707,6,0,B|341:375,1,160,0|8
216,352,19633,1,0
216,352,19818,1,8
152,303,20189,2,0,B|152:135,1,160,0|8
256,80,21115,1,0
256,80,21300,1,8
323,123,21670,6,0,B|323:291,1,160,0|8
208,320,22596,1,0
208,320,22781,1,8
147,267,23152,1,4
210,217,23522,1,0
149,165,23892,1,0
208,111,24263,1,0
152,56,24633,6,0,B|-16:56,3,160,4|8|0|8
30,126,26115,2,0,B|30:302,3,160,0|8|0|8
96,241,27596,2,0,B|272:241,3,160,0|8|0|8
208,176,29078,2,0,B|208:8,3,160,0|8|0|8
280,40,30559,5,0
352,72,30929,1,8
424,104,31300,2,0,B|424:288,1,160,0|8
344,248,32041,5,0
264,232,32411,1,8
184,208,32781,2,0,B|184:32,1,160,0|8
256,88,33522,5,0
256,168,33892,1,8
256,248,34263,1,0
256,328,34633,1,8
176,328,35004,6,0,B|256:296|352:336,3,160,0|8|0|8
332,328,36485,5,4
64,192,46855,5,0
192,192,47596,1,0
320,192,48337,1,0
448,192,49078,1,0
352,320,49818,6,0,B|280:256|168:272,2,160,4|8|0
408,264,50929,5,8
352,208,51300,1,0
408,152,51670,1,8
352,96,52041,2,0,B|272:48|192:96,1,160,0|8
136,136,52781,1,0
192,192,53152,2,0,B|368:192,1,160,8|0
400,256,53892,1,8
352,320,54263,2,0,B|176:320,3,160,0|8|0|8
128,272,55744,1,0
184,216,56115,5,8
128,160,56485,1,0
184,104,56855,2,0,B|280:104,10,80,8|2|0|2|8|2|0|2|8|2|0
184,184,59078,1,8
184,184,59263,1,0
184,184,59448,1,2
256,192,59818,12,4,61670
256,48,62041,5,8
184,88,62411,1,0
248,136,62781,1,8
184,184,63152,2,0,B|232:344,1,160,0|8
304,320,63892,2,0,B|464:264,1,160,0|8
455,267,64633,1,4
392,216,65004,6,0,B|312:160|352:72,1,160,8|0
424,56,65744,2,0,B|488:144|472:232|392:312|296:320|208:288|184:208,1,480,8|0
120,160,67226,2,0,B|136:248|72:328,1,160,8|4
160,312,67967,6,0,B|344:312,1,160,8|0
400,304,68707,1,8
400,224,69078,1,0
400,144,69448,1,8
400,64,69818,1,0
400,64,70189,2,0,B|216:64,1,160,8|4
192,128,70929,6,0,B|376:128,1,160,8|4
312,192,71670,2,0,B|144:192,3,160,8|4|12|4
112,256,73152,2,0,B|312:256,1,160,12|4
352,256,73892,5,8
352,256,74078,1,0
352,256,74263,1,0
352,176,74633,2,0,B|168:176,1,160,8|0
112,176,75374,6,0,B|112:264,2,80,8|0|0
112,96,76115,2,0,B|296:96,1,160,8|0
352,96,76855,5,8
352,96,77041,1,0
352,96,77226,1,0
432,96,77596,2,0,B|432:272,1,160,8|0
352,256,78337,5,8
352,256,78522,1,0
352,256,78707,1,0
272,256,79078,2,0,B|80:256,1,160,8|0
112,176,79818,6,0,B|112:88,2,80,8|0|0
192,176,80559,2,0,B|360:176,1,160,8|0
432,176,81300,6,0,B|432:72,2,80,8|0|0
352,176,82041,2,0,B|176:176,1,160,8|0
160,248,82781,5,8
160,248,82967,1,0
160,248,83152,1,0
240,248,83522,1,8
240,248,83892,1,0
320,248,84263,5,8
320,248,84448,1,0
320,248,84633,1,0
400,248,85004,1,8
400,248,85374,1,4
64,136,97226,6,0,B|96:40|216:56,1,160,2|10
192,120,97781,1,0
192,184,97967,2,0,B|192:288|288:312,1,160,2|10
336,320,98522,1,0
376,272,98707,2,0,B|432:200|400:96,1,160,2|8
280,128,99448,1,0
152,136,99818,1,10
160,264,100189,6,10,B|256:240|272:136,1,160,2|10
280,96,100744,1,0
344,72,100929,2,10,B|384:168|416:232,1,160,2|8
312,304,101670,1,2
224,216,102041,1,8
120,288,102411,1,2
64,176,102781,1,10
160,88,103152,6,10,B|264:88|304:200,1,160,2|10
320,224,103707,1,0
272,264,103892,2,10,B|208:336|88:304,1,160,2|10
64,200,104633,2,0,B|256:200,1,160,0|10
296,88,105374,2,0,B|112:88,2,160,0|10|0
368,192,106485,2,0,B|256:192,1,80,10|0
288,192,106855,1,2
256,192,107226,12,4,109078
