osu file format v4

[General]
AudioFilename: Canon.mp3
AudioLeadIn: 0
AudioHash: 59d7f3e2e3ef54c70f34cd3705e9788a
PreviewTime: -1
SampleSet: Normal
EditorBookmarks: 18420

[Metadata]
Title:Canon (O2 version)+
Artist:Dr.Flowershirts
Creator:flyboy87
Version:Hard

[Difficulty]
HPDrainRate:8
CircleSize:5
OverallDifficulty:8
SliderMultiplier: 1.4
SliderTickRate: 1

[Events]
0,0,"1055.jpg"
2,36214,45605
2,85465,96413
3,0,163,162,255

[TimingPoints]
12680,368.92465127762,4,1,0

[HitObjects]
48,32,12680,1,0,
96,32,13048,1,0,
128,32,13232,1,0,
160,32,13417,1,0,
224,32,13879,5,0,
256,32,14063,1,0,
288,32,14247,1,0,
320,32,14432,1,0,
352,32,14616,1,0,
384,32,14801,1,0,
416,32,14985,1,0,
448,32,15170,1,0,
448,64,15354,1,0,
448,96,15539,1,0,
448,128,15724,5,0,
448,176,16092,1,0,
448,208,16277,1,0,
448,240,16461,1,0,
448,288,16830,5,0,
416,304,17014,1,0,
384,320,17199,1,0,
352,320,17383,1,0,
320,320,17568,1,0,
288,320,17752,1,0,
256,320,17937,1,0,
224,320,18121,1,0,
192,320,18306,1,0,
160,320,18490,1,0,
128,320,18675,5,0,
80,320,19043,1,0,
48,320,19228,1,0,
32,288,19412,1,0,
32,240,19781,5,0,
32,208,19966,1,0,
32,176,20150,1,0,
32,144,20335,1,0,
32,112,20519,1,0,
32,80,20704,1,0,
32,48,20888,1,0,
64,48,21073,1,0,
96,48,21257,1,0,
128,48,21441,1,0,
160,48,21626,5,0,
176,96,21995,1,0,
192,128,22179,1,0,
208,160,22364,1,2,
240,208,22733,5,0,
272,208,22917,1,0,
304,208,23102,1,0,
336,208,23286,1,0,
368,208,23471,1,0,
400,208,23655,5,0,
432,208,23839,1,0,
432,176,24024,1,0,
432,144,24208,1,0,
432,112,24393,1,0,
432,80,24577,1,0,
432,32,24946,5,0,
384,64,25315,1,0,
336,96,25684,1,0,
288,128,26053,1,0,
240,160,26422,1,0,
192,192,26791,1,0,
144,224,27160,1,0,
96,256,27529,1,0,
80,208,27898,1,0,
48,160,28267,1,0,
48,112,28635,5,2,
96,112,29004,1,0,
144,112,29373,1,0,
144,160,29742,1,0,
192,160,30111,1,0,
192,208,30480,1,2,
240,208,30849,1,0,
240,256,31218,1,0,
288,256,31587,1,0,
336,256,31956,1,2,
384,256,32325,5,0,
432,256,32694,1,0,
432,304,33063,1,2,
384,304,33432,1,2,
336,304,33800,1,0,
288,304,34169,1,0,
240,304,34538,5,2,
192,304,34907,1,0,
144,304,35276,1,2,
176,256,35645,1,0,
208,224,36014,1,2,
64,96,46805,5,2,
192,96,47543,1,2,
304,96,48281,1,2,
416,96,49019,1,2,
416,208,49756,5,0,
368,208,50125,1,0,
336,208,50310,1,0,
304,208,50494,1,2,
256,208,50863,5,0,
224,208,51048,1,0,
192,208,51232,1,0,
160,208,51417,1,0,
128,208,51601,1,0,
96,208,51786,1,0,
64,208,51970,1,0,
64,240,52154,1,0,
64,272,52339,1,0,
64,304,52523,1,0,
64,336,52708,5,0,
112,336,53077,1,0,
144,336,53261,1,0,
176,336,53446,1,2,
224,336,53815,5,0,
256,336,53999,1,0,
288,336,54184,1,0,
320,336,54368,1,0,
352,336,54552,1,0,
384,336,54737,1,0,
416,336,54921,1,0,
448,336,55106,1,0,
448,304,55290,1,0,
448,272,55475,1,0,
448,240,55659,5,0,
448,192,56028,1,0,
448,160,56213,1,0,
448,128,56397,1,2,
448,80,56766,5,0,
448,48,56950,1,0,
416,48,57135,1,0,
384,48,57319,1,0,
352,48,57504,1,0,
320,48,57688,1,0,
320,80,57873,1,0,
320,112,58057,1,0,
320,144,58242,1,0,
320,176,58426,1,0,
320,208,58611,5,0,
304,256,58980,1,0,
288,288,59164,1,0,
272,320,59349,1,0,
208,288,59810,5,0,
208,256,59994,1,0,
208,224,60179,1,0,
192,192,60363,1,0,
176,160,60547,1,0,
176,128,60732,1,0,
176,96,60916,1,0,
176,64,61101,1,0,
144,64,61285,1,0,
112,64,61470,1,0,
64,64,61654,5,0,
64,112,62022,1,0,
64,144,62207,1,0,
64,176,62391,1,2,
64,224,62761,5,0,
64,256,62945,1,0,
64,288,63130,1,0,
64,320,63314,1,0,
96,336,63499,1,0,
128,336,63683,1,0,
160,336,63868,1,0,
192,336,64052,1,0,
192,304,64237,1,0,
192,272,64421,1,0,
192,240,64606,5,0,
192,192,64975,1,0,
192,160,65159,1,0,
192,128,65343,1,2,
192,80,65712,5,0,
192,48,65897,1,0,
224,48,66081,1,0,
256,48,66266,1,0,
288,48,66450,1,0,
320,48,66635,1,0,
352,48,66819,1,0,
384,48,67004,1,0,
416,48,67188,1,0,
448,48,67373,1,0,
448,80,67557,5,0,
416,128,67926,1,0,
384,160,68110,1,0,
352,192,68295,1,2,
352,240,68664,5,0,
320,240,68848,1,0,
288,240,69033,1,0,
256,240,69217,1,0,
224,240,69402,1,0,
192,240,69586,1,0,
160,240,69771,1,0,
128,240,69955,1,0,
96,240,70140,1,0,
64,240,70324,1,0,
64,272,70508,5,0,
64,320,70877,1,0,
64,352,71062,1,0,
96,352,71246,1,2,
144,352,71615,5,0,
176,352,71800,1,0,
208,352,71984,1,0,
240,352,72169,1,0,
272,352,72353,1,0,
304,352,72538,1,0,
336,352,72722,1,0,
368,352,72906,1,0,
400,352,73091,1,0,
400,320,73275,1,0,
400,288,73460,5,0,
400,240,73829,1,0,
400,208,74013,1,0,
400,176,74198,1,0,
400,128,74567,1,0,
400,80,74936,1,0,
400,48,75304,5,0,
368,48,75489,1,0,
336,48,75673,1,0,
336,96,76042,1,2,
336,144,76411,1,2,
336,192,76780,5,0,
336,224,76965,1,0,
336,256,77149,1,0,
384,256,77518,1,0,
432,256,77887,1,0,
480,256,78256,5,0,
480,224,78440,1,0,
480,192,78625,1,0,
480,144,78994,1,2,
480,96,79363,1,2,
480,64,79732,5,0,
480,32,79916,1,0,
448,32,80100,1,0,
400,32,80469,1,0,
352,32,80838,1,0,
304,32,81207,5,0,
272,32,81392,1,0,
240,32,81576,1,0,
192,32,81945,1,2,
144,32,82314,1,2,
96,32,82683,5,0,
64,32,82867,1,0,
32,32,83052,1,0,
32,80,83421,1,0,
32,128,83790,1,0,
32,176,84159,5,0,
32,208,84343,1,0,
32,240,84528,1,0,
32,288,84897,1,2,
32,336,85265,1,0,
448,112,97163,5,0,
400,112,97532,1,0,
368,112,97717,1,0,
336,112,97901,1,2,
288,112,98270,5,0,
256,112,98454,1,0,
224,112,98639,1,0,
192,112,98823,1,0,
160,112,99008,1,0,
128,112,99192,1,0,
96,112,99377,1,0,
64,112,99561,1,0,
32,112,99746,1,0,
32,144,99930,1,0,
32,176,100115,5,0,
80,176,100484,1,2,
112,176,100668,1,0,
144,176,100852,1,2,
192,176,101221,5,0,
224,176,101406,1,0,
256,176,101590,1,0,
288,176,101775,1,0,
320,176,101959,1,0,
352,176,102144,1,0,
384,176,102328,1,0,
416,176,102513,1,0,
416,144,102697,1,0,
416,112,102882,1,0,
416,64,103066,5,0,
368,64,103435,1,0,
336,64,103619,1,2,
304,64,103804,1,0,
256,64,104173,5,0,
224,64,104357,1,0,
192,64,104542,1,0,
160,64,104726,1,0,
128,64,104911,1,0,
96,64,105095,1,0,
64,64,105280,1,0,
64,96,105464,1,0,
64,128,105649,1,0,
64,160,105833,1,0,
64,192,106017,5,0,
112,192,106386,1,0,
144,192,106571,1,0,
176,192,106755,1,0,
224,192,107124,5,0,
256,192,107309,1,0,
288,192,107493,1,0,
320,192,107678,1,0,
352,192,107862,1,0,
384,192,108047,1,0,
416,192,108231,1,0,
448,192,108415,1,0,
448,224,108600,1,0,
448,256,108784,1,0,
256,192,109061,12,0,110260
192,240,114611,1,0,
384,144,114796,1,0,
304,256,114960,1,0,
128,96,115342,1,0,
128,96,115527,1,0,
128,128,115712,1,0,
64,208,116082,1,0,
64,208,116267,1,0,
96,240,116453,1,0,
96,240,116638,1,0,
160,256,116823,1,0,
192,240,117008,1,0,
304,384,117193,1,0,
192,240,117378,1,0,
320,272,117563,1,0,
272,176,117745,1,0,
144,160,117930,1,0,
