osu file format v5

[General]
AudioFilename: Dr. Octagonapus 2.mp3
AudioLeadIn: 0
PreviewTime: -1
Countdown: 1
SampleSet: None
StackLeniency: 0.7
Mode: 0
LetterboxInBreaks: 1

[Editor]
DistanceSpacing: 0.800000011920929
BeatDivisor: 8
GridSize: 32

[Metadata]
Title:Dr. Octagonapus 2
Artist:
Creator:Markiu
Version:LASER!!1!
Source:
Tags:

[Difficulty]
HPDrainRate:5
CircleSize:5
OverallDifficulty:5
SliderMultiplier:1.4
SliderTickRate:1

[Events]
//Background and Video events
//Break Periods
//Storyboard Layer 0 (Background)
//Storyboard Layer 1 (Fail)
//Storyboard Layer 2 (Pass)
//Storyboard Layer 3 (Foreground)
//Storyboard Sound Samples
//Background Colour Transformations
3,100,163,162,255

[TimingPoints]
191.938234414912,338.409475465313,4,0,0,100,1,0
13935,-100,4,0,0,100,0,0

[HitObjects]
32,32,11021,5,0
64,32,11359,1,0
96,32,11697,1,0
128,32,12036,1,0
160,32,12374,2,0,C|320:32,3,140
32,64,13812,5,0
64,64,14151,1,0
96,64,14489,1,0
128,64,14827,1,0
192,64,15504,2,0,C|352:64,2,140
32,96,16592,5,0
64,96,16931,1,0
96,96,17269,1,0
128,96,17607,1,0
160,96,17981,2,0,B|320:96,3,140
32,128,19405,5,0
64,128,19743,1,0
96,128,20082,1,0
128,128,20420,1,0
192,128,21061,2,0,B|352:128|352:128,2,140
32,160,22070,5,0
64,160,22409,5,0
128,160,22696,5,0
160,160,22949,1,0
192,160,23203,1,0
224,160,23457,1,0
288,160,23795,2,0,B|448:160,2,140,0|0|0
32,192,24829,5,0
64,192,25149,1,0
96,192,25488,1,0
224,192,25868,1,0
256,192,26160,1,0
288,192,26478,1,0
352,192,26926,2,0,B|480:192|512:192,1,140
464,208,27603,5,0
448,224,27941,1,0
400,272,28197,1,0
384,288,28387,1,0
304,288,28618,5,0
240,288,28956,5,0
192,240,29295,1,0
176,224,29452,1,0
160,208,29633,1,0
128,240,30310,5,0
176,176,30648,1,0
192,144,30855,1,0
112,144,30987,5,0
160,80,31325,1,0
192,48,31533,1,0
256,112,31754,5,0
304,176,32072,1,0
256,288,32340,2,0,B|112:16,1,280
32,96,33207,5,0
96,64,33562,1,0
128,96,33694,1,0
112,128,33829,5,0
128,240,34156,5,0
192,304,34508,5,0
288,288,34854,1,0
320,304,34980,1,0
352,288,35160,1,0
432,192,35940,5,0
432,112,36286,1,0
352,64,36604,5,0
272,64,36920,1,0
192,64,37272,5,0
112,64,37610,1,0
96,144,37972,2,0,B|220:131|208:240|112:240,1,140
128,320,38691,5,0
128,256,39003,5,0
160,256,39365,1,0
128,192,39650,5,0
128,128,39989,5,0
160,128,40370,1,0
224,128,40685,1,0
288,128,41441,5,0
352,128,42020,5,0
352,192,42725,1,0
352,256,43043,1,0
352,320,43354,1,0
352,352,43558,1,0
256,256,44759,5,0
192,256,45844,5,0
128,256,46215,5,0
48,192,47015,5,0
48,256,47678,5,0
48,128,48154,5,0
80,128,48292,1,0
112,128,48433,1,0
176,128,48664,2,0,B|416:128,2,140
192,192,49599,5,0
320,192,49938,1,0
192,192,50276,1,0
320,192,50614,1,0
384,192,50868,2,0,B|112:192,2,262.5
384,352,52391,5,0
384,288,52729,1,0
384,224,53068,1,0
384,160,53406,1,0
384,96,54083,2,0,B|240:208,1,140
266,189,54464,2,0,B|125:308,1,140
80,288,55180,5,0
80,256,55519,1,0
80,224,55870,1,0
80,192,56195,1,0
80,160,56494,2,0,B|208:64,1,140
192,80,57129,2,0,B|256:224,1,140
240,208,57951,5,0
144,224,58289,1,0
64,192,58596,1,0
16,128,58922,1,0
96,80,59217,2,0,C|256:80|160:176|80:80|48:112,1,420
192,80,60767,5,0
320,80,61147,1,0
192,144,62374,1,0
320,144,62721,1,0
192,208,63432,5,0
320,208,63855,1,0
192,176,64752,1,0
320,176,65103,5,0
192,176,65429,5,0
96,96,66284,5,0
128,96,66437,1,0
160,96,66611,1,0
192,96,66777,1,0
224,96,66942,1,0
96,160,67747,5,0
128,160,67893,1,0
160,160,68016,1,0
192,160,68143,1,0
224,160,68290,1,0
48,256,68972,5,0
48,320,69227,5,0
48,352,69446,5,0
128,352,69735,5,0
160,352,69904,5,0
192,352,70073,5,0
224,352,70242,5,0
336,352,70581,2,0,B|480:352,2,140
480,288,71839,5,0
448,288,72019,1,0
416,288,72188,1,0
480,192,72526,5,0
448,192,72696,1,0
416,192,72865,1,0
480,96,73203,5,0
448,96,73372,1,0
416,96,73542,1,0
384,96,73711,1,0
352,96,73880,1,0
288,96,74411,1,0
256,96,74783,1,0
224,96,75113,1,0
192,96,75461,1,0
160,96,75728,2,0,B|16:96,3,140
48,176,77062,5,0
48,208,77411,1,0
48,240,77687,1,0
48,272,78026,1,0
48,304,78364,2,0,B|192:304,3,140
336,304,79895,5,0
384,304,80214,1,0
432,304,80554,1,0
464,304,80893,1,0
480,272,81275,2,0,B|480:128,3,140
448,128,82611,5,0
416,128,82923,1,0
384,128,83270,1,0
352,128,83600,1,0
304,128,83905,2,0,L|16:128,1,280
16,128,84625,2,0,L|256:128,1,227.5
272,176,85344,5,0
208,208,85640,1,0
144,224,86063,1,0
80,224,86359,1,0
32,288,86662,2,0,B|200:288,3,140
208,288,88097,5,0
240,288,88393,1,0
272,288,88752,1,0
304,288,89086,1,0
336,288,89463,2,0,B|336:144,3,140
336,112,90885,5,0
336,80,91224,1,0
336,48,91562,1,0
304,48,91900,1,0
272,48,92239,2,0,B|120:49,2,140
80,64,93592,5,0
80,128,93931,1,0
80,64,94270,1,0
80,128,94608,1,0
80,64,94946,2,0,B|224:64,3,140
272,64,96398,5,0
336,64,96737,1,0
400,64,97075,1,0
336,64,97413,1,0
272,64,97758,2,0,B|272:208,2,140
208,64,99050,5,0
144,64,99388,1,0
80,64,99726,1,0
144,64,100065,1,0
208,64,100403,2,0,B|64:64,2,140
272,64,101899,5,0
320,112,102237,1,0
272,160,102576,1,0
320,208,102914,1,0
272,256,103252,2,0,B|112:256,2,140
