osu file format v5

[General]
AudioFilename: Dr. Mario- Chill.MP3
AudioLeadIn: 0
PreviewTime: -1
Countdown: 1
SampleSet: Soft
EditorBookmarks: 74900

[Metadata]
Title:Chill
Artist:Dr. Mario
Creator:SirDekar
Version:Hard

[Difficulty]
HPDrainRate:5
CircleSize:5
OverallDifficulty:5
SliderMultiplier:1.4
SliderTickRate:1

[Events]
//Background and Video events
0,0,"Dr._Mario_NES_ScreenShot1.jpg"
//Break Periods
//Storyboard Layer 0 (Background)
//Storyboard Layer 1 (Failing)
//Storyboard Layer 2 (Passing)
//Storyboard Layer 3 (Foreground)
//Storyboard Sound Samples
//Background Colour Transformations
3,100,163,162,255

[TimingPoints]
0,466.671851909466,4,2,0,50

[HitObjects]
256,192,74900,1,0
256,192,75017,1,0
256,192,75134,1,0
256,192,75250,1,0
256,192,75367,1,0
256,192,75484,1,0
256,192,75600,1,0
256,192,75717,1,0
256,192,75834,1,0
256,192,75950,1,0
256,192,76067,1,0
256,192,76184,1,0
256,192,76300,1,0
256,192,76417,1,0
256,192,76534,1,0
256,192,76650,1,0
256,192,76767,1,0
256,192,76884,1,0
256,192,77000,1,0
256,192,77117,1,0
256,192,77234,1,0
256,192,77350,1,0
256,192,77467,1,0
256,192,77584,1,0
256,192,77817,1,0
256,192,77934,1,0
256,192,78050,1,0
256,192,78167,1,0
256,192,78284,1,0
256,192,78400,1,0
256,192,78517,1,0
256,192,78634,1,0
256,192,78867,1,0
256,192,78925,1,0
256,192,78984,1,0
256,192,79100,1,0
256,192,79684,1,0
256,192,79800,1,0
256,192,79917,1,0
256,192,80034,1,0
256,192,80150,1,0
256,192,80267,1,0
256,192,80384,1,0
256,192,80500,1,0
256,192,80617,1,0
256,192,80734,1,0
256,192,80850,1,0
256,192,80967,1,0
256,192,81084,1,0
256,192,81200,1,0
256,192,81317,1,0
256,192,81550,1,0
256,192,81667,1,0
256,192,81784,1,0
256,192,81900,1,0
256,192,82017,1,0
256,192,82134,1,0
256,192,82250,1,0
256,192,82367,1,0
256,192,82484,1,0
256,192,82600,1,0
256,192,82717,1,0
256,192,82950,1,0
256,192,83184,1,0
256,192,83300,1,0
256,192,83417,1,0
256,192,83534,1,0
256,192,83767,1,0
256,192,84234,1,0
256,192,84350,1,0
256,192,84584,1,0
256,192,84817,1,0
256,192,85050,1,0
256,192,85167,1,0
256,192,85284,1,0
256,192,85400,1,0
256,192,85634,1,0
256,192,86100,1,0
256,192,86275,1,0
256,192,86392,1,0
256,192,86567,1,0
256,192,86742,1,0
256,192,86859,1,0
256,192,87034,1,0
256,192,87209,1,0
256,192,87325,1,0
256,192,87500,1,0
256,192,87675,1,0
256,192,87792,1,0
256,192,87967,1,0
256,192,88142,1,0
256,192,88259,1,0
256,192,88434,1,0
256,192,88609,1,0
256,192,88784,1,0
256,192,88900,1,0
256,192,89017,1,0
256,192,89134,1,0
256,192,89250,1,0
256,192,89367,1,0
256,192,89425,1,0
256,192,89484,1,0
256,192,89542,1,0
256,192,89600,1,0
256,192,89659,1,0
256,192,89717,1,0
256,192,89775,1,0
256,192,89834,1,0
256,192,90184,1,0
256,192,90301,1,0
256,192,90534,1,0
256,192,90767,1,0
256,192,91001,1,0
256,192,91234,1,0
256,192,91467,1,0
256,192,91701,1,0
256,192,91934,1,0
256,192,92167,1,0
256,192,92401,1,0
256,192,93626,1,0
256,192,93917,1,0
256,192,94034,1,0
256,192,94267,1,0
256,192,94559,1,0
256,192,94734,1,0
256,192,94967,1,0
256,192,95434,1,0
256,192,95901,1,0
256,192,96367,1,0
