osu file format v14

[General]
AudioFilename: The Pink Fields.mp3
AudioLeadIn: 0
PreviewTime: 56556
Countdown: 0
SampleSet: Soft
StackLeniency: 0.7
Mode: 0
LetterboxInBreaks: 0
WidescreenStoryboard: 0

[Editor]
DistanceSpacing: 1.7
BeatDivisor: 4
GridSize: 4
TimelineZoom: 2.1

[Metadata]
Title:The Pink Fields
TitleUnicode:The Pink Fields
Artist:Doxx & Feint
ArtistUnicode:Doxx & Feint
Creator:Bearizm
Version:Hard
Source:
Tags:dnb drum and bass fort
BeatmapID:729987
BeatmapSetID:329290

[Difficulty]
HPDrainRate:6
CircleSize:4
OverallDifficulty:6
ApproachRate:8
SliderMultiplier:1.3
SliderTickRate:2

[Events]
//Background and Video events
0,0,"BG.jpg",0,0
//Break Periods
2,21700,23447
//Storyboard Layer 0 (Background)
//Storyboard Layer 1 (Fail)
//Storyboard Layer 2 (Pass)
//Storyboard Layer 3 (Foreground)
//Storyboard Sound Samples

[TimingPoints]
1276,337.078651685393,4,2,1,10,1,0
2624,-133.333333333333,4,2,1,20,0,0
24197,-133.333333333333,4,2,1,30,0,0
34983,-133.333333333333,4,2,1,35,0,0
45770,-133.333333333333,4,2,1,40,0,0
53859,-133.333333333333,4,2,1,50,0,0
55208,-133.333333333333,4,2,1,60,0,0
56556,-100,4,2,1,70,0,1
99702,-100,4,2,1,70,0,0

[Colours]
Combo1 : 255,128,128
Combo2 : 0,255,255
Combo3 : 192,192,192
Combo4 : 0,128,128

[HitObjects]
96,332,2624,6,0,L|196:328,1,97.50000371933,4|0,0:0|0:0,0:0:0:0:
264,288,3129,1,0,0:0:0:0:
264,288,3298,2,0,P|276:240|260:196,1,97.50000371933
208,132,3804,6,0,P|256:144|300:128,1,97.50000371933
336,52,4309,1,0,0:0:0:0:
252,60,4478,2,0,L|264:208,1,146.250005578995
263,205,5320,5,0,0:0:0:0:
324,264,5489,2,0,B|372:272|372:272|420:260,1,97.50000371933
472,196,5995,1,0,0:0:0:0:
428,36,6332,1,2,0:0:0:0:
312,155,6669,6,0,L|264:148,1,48.750001859665
196,100,7006,2,0,L|192:52,1,48.750001859665
120,132,7343,2,0,L|124:184,1,48.750001859665
184,240,7680,1,0,0:0:0:0:
184,240,8017,5,0,0:0:0:0:
253,284,8186,2,0,P|214:314|165:319,1,97.50000371933
184,240,8691,2,0,B|180:212|180:212|184:172|184:172|180:140,1,97.50000371933
171,60,9197,6,0,P|220:64|264:48,1,97.50000371933
348,40,9702,1,0,0:0:0:0:
424,76,9871,2,0,B|416:176|416:176|424:224,1,146.250005578995
423,221,10714,5,0,0:0:0:0:
368,280,10882,2,0,P|320:296|276:284,1,97.50000371933
220,220,11388,1,0,0:0:0:0:
64,276,11725,1,2,0:0:0:0:
93,112,12062,6,0,L|88:64,2,48.750001859665
156,168,12568,1,0,0:0:0:0:
220,116,12736,2,0,L|320:108,1,97.50000371933
317,108,13410,5,4,0:0:0:0:
388,152,13579,2,0,P|400:200|392:248,1,97.50000371933
416,328,14084,2,0,P|376:300|328:304,1,97.50000371933
252,340,14590,1,0,0:0:0:0:
172,320,14759,6,0,L|124:316,2,48.750001859665
254,311,15264,2,0,P|270:263|254:219,1,97.50000371933
208,151,15770,2,0,L|212:99,1,48.750001859665
170,30,16107,5,0,0:0:0:0:
226,90,16275,2,0,P|274:86|306:50,1,97.50000371933
384,24,16781,2,0,L|372:120,1,97.50000371933,0|2,0:0|0:0,0:0:0:0:
371,120,17455,5,0,0:0:0:0:
424,184,17624,2,0,L|428:232,1,48.750001859665
388,304,17961,1,0,0:0:0:0:
312,272,18129,2,0,B|264:264|264:264|240:272|216:268,1,97.50000371933
215,267,18804,5,0,0:0:0:0:
144,228,18972,2,0,P|128:180|144:136,1,97.50000371933
212,92,19478,2,0,P|218:44|195:2,1,97.50000371933
136,60,19983,1,0,0:0:0:0:
204,104,20152,6,0,L|304:96,1,97.50000371933
384,116,20658,2,0,B|392:148|392:148|384:176|384:176|404:212|396:260,1,146.250005578995
328,308,21332,1,0,0:0:0:0:
328,308,21500,1,0,0:0:0:0:
328,308,24197,6,0,L|228:300,1,97.50000371933,0|8,1:0|1:0,0:0:0:0:
148,294,24702,1,2,0:0:0:0:
92,232,24871,2,0,L|96:180,1,48.750001859665,0|0,0:0|1:0,0:0:0:0:
164,136,25208,2,0,L|156:88,1,48.750001859665,8|0,1:0|0:0,0:0:0:0:
104,22,25545,6,0,B|152:30|152:30|200:22,1,97.50000371933,0|8,1:0|1:0,0:0:0:0:
271,65,26051,2,0,P|291:109|283:157,1,97.50000371933,0|0,1:0|1:0,0:0:0:0:
204,180,26556,2,0,L|212:228,1,48.750001859665,8|2,1:0|0:0,0:0:0:0:
268,288,26893,6,0,B|340:280|340:280|368:288,2,97.50000371933,0|8|0,1:0|1:0|0:0,0:0:0:0:
188,308,27736,1,0,1:0:0:0:
108,284,27905,2,0,L|100:236,1,48.750001859665,8|0,1:0|0:0,0:0:0:0:
40,180,28242,5,0,1:0:0:0:
110,223,28410,1,0,0:0:0:0:
188,196,28579,2,0,P|208:176|216:156,1,48.750001859665,8|2,1:0|0:0,0:0:0:0:
112,84,28916,2,0,P|117:108|132:128,1,48.750001859665,0|0,0:0|1:0,0:0:0:0:
216,140,29253,1,8,1:0:0:0:
216,140,29590,6,0,L|316:132,1,97.50000371933,0|8,1:0|1:0,0:0:0:0:
384,176,30096,1,0,1:0:0:0:
452,220,30264,2,0,L|500:224,2,48.750001859665,2|0|8,0:0|1:0|1:0,0:0:0:0:
312,308,30938,5,0,1:0:0:0:
304,142,31275,2,0,B|288:112|289:75|289:75|246:93|211:84,1,146.250005578995,8|0,1:0|1:0,0:0:0:0:
136,60,31950,2,0,L|88:72,1,48.750001859665,8|0,1:0|0:0,0:0:0:0:
36,136,32287,6,0,L|32:236,2,97.50000371933,0|8|0,1:0|1:0|0:0,0:0:0:0:
76,64,33129,2,0,L|72:12,2,48.750001859665,0|8|0,1:0|1:0|1:0,0:0:0:0:
116,136,33635,6,0,P|164:144|204:120,1,97.50000371933,0|8,1:0|1:0,0:0:0:0:
268,68,34141,1,2,0:0:0:0:
216,132,34309,2,0,L|224:184,1,48.750001859665,0|0,0:0|1:0,0:0:0:0:
300,216,34646,2,0,L|296:264,1,48.750001859665,8|2,1:0|0:0,0:0:0:0:
272,344,34983,6,0,P|312:312|356:316,2,97.50000371933,4|8|2,1:2|1:0|0:0,0:0:0:0:
188,336,35826,1,0,1:0:0:0:
128,280,35995,2,0,L|124:232,1,48.750001859665,8|2,1:0|0:0,0:0:0:0:
156,156,36332,6,0,P|200:136|248:148,1,97.50000371933,0|8,1:0|1:0,0:0:0:0:
318,187,36837,2,0,P|364:197|408:177,1,97.50000371933,0|0,1:0|1:0,0:0:0:0:
472,124,37343,1,8,1:0:0:0:
472,124,37680,6,0,L|468:224,1,97.50000371933,0|8,1:0|1:0,0:0:0:0:
468,221,38523,1,0,1:0:0:0:
408,280,38691,2,0,L|360:276,1,48.750001859665,8|0,1:0|0:0,0:0:0:0:
280,256,39028,5,0,1:0:0:0:
220,312,39197,1,2,0:0:0:0:
204,232,39365,2,0,L|200:184,1,48.750001859665,8|2,1:0|0:0,0:0:0:0:
128,140,39702,2,0,L|132:92,1,48.750001859665,2|0,0:0|1:0,0:0:0:0:
188,32,40040,1,8,1:0:0:0:
188,32,40377,6,0,P|236:44|280:24,1,97.50000371933,0|8,1:0|1:0,0:0:0:0:
360,32,40882,1,0,1:0:0:0:
420,88,41051,2,0,L|416:136,1,48.750001859665,2|0,0:0|1:0,0:0:0:0:
344,176,41388,2,0,L|348:224,1,48.750001859665,8|2,1:0|0:0,0:0:0:0:
394,293,41725,6,0,P|346:309|302:293,2,97.50000371933,0|8|0,1:0|1:0|0:0,0:0:0:0:
455,237,42568,2,0,L|507:245,2,48.750001859665,0|8|0,1:0|1:0|0:0,0:0:0:0:
409,169,43073,6,0,L|401:69,2,97.50000371933,0|8|0,1:0|1:0|0:0,0:0:0:0:
348,224,43916,1,0,1:0:0:0:
272,196,44084,2,0,L|224:188,1,48.750001859665,8|0,1:0|1:0,0:0:0:0:
160,240,44422,6,0,L|168:288,2,48.750001859665,0|2|8,1:0|0:0|1:0,0:0:0:0:
140,160,44927,1,2,0:0:0:0:
120,80,45096,2,0,P|128:52|140:36,1,48.750001859665,2|0,0:0|1:0,0:0:0:0:
220,48,45433,2,0,L|268:40,1,48.750001859665,8|2,1:0|0:0,0:0:0:0:
344,76,45770,6,0,P|368:120|360:168,1,97.50000371933,4|8,1:2|1:0,0:0:0:0:
304,224,46275,1,2,0:0:0:0:
272,300,46444,2,0,L|284:348,1,48.750001859665,0|0,0:0|1:0,0:0:0:0:
200,348,46781,2,0,L|188:300,1,48.750001859665,8|0,1:0|0:0,0:0:0:0:
140,232,47118,6,0,P|96:212|48:224,1,97.50000371933,0|8,1:0|1:0,0:0:0:0:
0,288,47624,2,0,L|8:188,1,97.50000371933,0|0,1:0|1:0,0:0:0:0:
72,140,48129,2,0,L|68:92,1,48.750001859665,8|2,1:0|0:0,0:0:0:0:
132,40,48467,6,0,B|204:32|204:32|228:36,2,97.50000371933,0|8|0,1:0|1:0|0:0,0:0:0:0:
56,76,49309,1,0,1:0:0:0:
124,124,49478,2,0,L|120:172,1,48.750001859665,8|0,1:0|0:0,0:0:0:0:
180,228,49815,6,0,L|184:276,2,48.750001859665,0|0|8,1:0|0:0|1:0,0:0:0:0:
228,160,50320,1,2,0:0:0:0:
296,204,50489,2,0,L|344:196,1,48.750001859665,0|0,0:0|1:0,0:0:0:0:
408,252,50826,2,0,L|456:260,1,48.750001859665,8|2,1:0|0:0,0:0:0:0:
499,189,51163,6,0,L|495:89,1,97.50000371933,0|8,1:0|1:0,0:0:0:0:
436,32,51669,1,0,1:0:0:0:
380,92,51837,2,0,L|376:140,2,48.750001859665,2|0|8,0:0|1:0|1:0,0:0:0:0:
320,32,52343,1,2,0:0:0:0:
248,76,52511,6,0,P|200:88|156:72,1,97.50000371933,0|8,1:0|1:0,0:0:0:0:
72,80,53017,2,0,P|56:128|68:172,1,97.50000371933,2|0,0:0|1:0,0:0:0:0:
128,232,53523,2,0,L|116:280,1,48.750001859665,8|0,1:0|0:0,0:0:0:0:
196,296,53860,1,0,1:0:0:0:
256,192,54028,12,8,56219,1:0:0:0:
196,296,56556,5,4,1:2:0:0:
268,352,56725,2,0,L|332:348,1,65,2|8,0:0|1:0,0:0:0:0:
404,292,57062,1,0,0:0:0:0:
336,232,57231,2,0,L|340:168,1,65,2|0,0:0|1:0,0:0:0:0:
432,160,57568,2,0,L|428:96,1,65,8|2,1:0|0:0,0:0:0:0:
372,24,57905,6,0,B|308:12|308:12|276:16,1,97.5,0|0,1:0|1:0,0:0:0:0:
275,16,58242,1,8,1:0:0:0:
200,68,58410,2,0,P|136:88|84:56,1,130,0|0,1:0|1:0,0:0:0:0:
4,16,58916,1,8,1:0:0:0:
16,108,59084,1,2,0:0:0:0:
32,197,59253,6,0,P|50:227|74:243,1,65,0|2,1:0|0:0,0:0:0:0:
152,192,59590,2,0,B|192:184|192:184|244:192|244:192|280:184,1,130,8|2,1:0|0:0,0:0:0:0:
336,112,60096,1,0,1:0:0:0:
292,192,60264,2,0,P|288:224|296:256,1,65,8|2,1:0|0:0,0:0:0:0:
372,308,60601,6,0,P|366:340|348:366,2,65,0|2|8,1:0|0:0|1:0,0:0:0:0:
384,216,61107,1,2,0:0:0:0:
463,171,61275,2,0,P|459:139|467:107,1,65,2|0,0:0|1:0,0:0:0:0:
380,8,61613,2,0,P|384:40|376:72,1,65,8|0,1:0|1:0,0:0:0:0:
316,132,61950,6,0,P|344:116|432:140,1,130,0|8,1:0|1:0,0:0:0:0:
479,218,62455,1,0,0:0:0:0:
409,276,62624,2,0,L|345:264,1,65,2|0,0:0|1:0,0:0:0:0:
264,308,62961,2,0,P|228:312|200:324,1,65,8|2,1:0|0:0,0:0:0:0:
124,280,63298,6,0,B|132:212|132:212|124:184,1,97.5,0|0,1:0|1:0,0:0:0:0:
124,184,63635,1,8,1:0:0:0:
56,120,63804,2,0,P|92:124|172:72,1,130,0|0,1:0|1:0,0:0:0:0:
244,24,64309,1,8,1:0:0:0:
252,116,64478,1,2,0:0:0:0:
304,188,64646,6,0,P|336:196|368:192,1,65,0|2,1:0|0:0,0:0:0:0:
424,124,64983,2,0,B|416:188|416:188|428:252,1,130,8|2,1:0|0:0,0:0:0:0:
488,320,65489,1,0,1:0:0:0:
412,272,65658,2,0,P|376:268|348:276,1,65,8|2,1:0|0:0,0:0:0:0:
272,328,65995,6,0,P|236:324|212:308,1,65,0|2,1:0|0:0,0:0:0:0:
168,228,66332,1,8,1:0:0:0:
79,210,66500,1,2,0:0:0:0:
24,284,66669,2,0,L|28:352,1,65,2|0,0:0|1:0,0:0:0:0:
79,210,67006,2,0,P|88:176|84:144,1,65,8|0,1:0|1:0,0:0:0:0:
16,84,67343,6,0,P|80:100|128:64,1,130,0|8,1:0|1:0,0:0:0:0:
216,36,67849,1,0,0:0:0:0:
296,80,68017,2,0,P|308:112|308:148,1,65,2|0,0:0|1:0,0:0:0:0:
268,224,68354,2,0,P|285:253|313:272,1,65,8|2,1:0|0:0,0:0:0:0:
396,240,68691,6,0,L|400:140,1,97.5,0|0,1:0|1:0,0:0:0:0:
399,142,69028,1,8,1:0:0:0:
340,72,69197,2,0,B|276:52|276:52|248:72|212:76,1,130,0|0,1:0|1:0,0:0:0:0:
136,116,69702,1,8,1:0:0:0:
60,64,69871,1,2,0:0:0:0:
120,132,70040,6,0,P|120:168|108:200,1,65,0|2,1:0|0:0,0:0:0:0:
140,284,70377,2,0,P|196:316|260:308,1,130,8|2,1:0|0:0,0:0:0:0:
296,228,70882,1,0,1:0:0:0:
364,288,71051,2,0,P|396:292|428:304,1,65,8|2,1:0|0:0,0:0:0:0:
424,212,71388,6,0,L|420:148,1,65,0|2,1:0|0:0,0:0:0:0:
468,68,71725,1,8,1:0:0:0:
408,136,71893,1,2,0:0:0:0:
316,148,72062,2,0,P|284:144|256:128,1,65,2|0,0:0|1:0,0:0:0:0:
192,64,72399,1,8,1:0:0:0:
136,136,72568,1,0,1:0:0:0:
192,208,72736,6,0,L|188:340,1,130,0|8,1:0|1:0,0:0:0:0:
268,292,73242,1,0,0:0:0:0:
348,332,73410,2,0,P|380:340|412:336,1,65,2|0,0:0|1:0,0:0:0:0:
476,272,73747,2,0,L|472:208,1,65,8|2,1:0|0:0,0:0:0:0:
392,160,74084,6,0,L|384:260,1,97.5,0|0,1:0|1:0,0:0:0:0:
384,257,74422,1,8,1:0:0:0:
324,324,74590,2,0,P|292:336|224:280,1,130,0|0,1:0|1:0,0:0:0:0:
144,240,75096,2,0,P|112:244|84:260,1,65,8|2,1:0|0:0,0:0:0:0:
16,200,75433,6,0,P|24:168|20:136,1,65,0|2,1:0|0:0,0:0:0:0:
92,80,75770,2,0,P|118:138|177:159,1,130,8|2,1:0|0:0,0:0:0:0:
248,104,76275,1,0,1:0:0:0:
324,52,76444,2,0,P|356:56|384:72,1,65,8|2,1:0|0:0,0:0:0:0:
380,164,76781,6,0,P|380:196|392:226,2,65,0|2|8,1:0|0:0|1:0,0:0:0:0:
460,120,77287,2,0,P|487:103|507:78,2,65,2|2|0,0:0|0:0|1:0,0:0:0:0:
384,72,77792,1,8,1:0:0:0:
300,108,77961,1,0,1:0:0:0:
280,196,78129,6,0,P|256:220|224:232,2,65,0|2|8,1:0|0:0|1:0,0:0:0:0:
300,108,78635,2,0,P|332:104|364:112,1,65,0|2,0:0|0:0,0:0:0:0:
416,184,78972,1,0,1:0:0:0:
384,268,79141,2,0,L|392:332,1,65,8|2,1:0|0:0,0:0:0:0:
484,344,79478,6,0,L|484:244,1,97.5,0|0,1:0|1:0,0:0:0:0:
484,246,79815,1,8,1:0:0:0:
432,172,79983,2,0,P|428:140|492:72,1,130,0|0,1:0|1:0,0:0:0:0:
400,92,80489,2,0,P|368:88|340:72,1,65,8|2,1:0|0:0,0:0:0:0:
256,32,80826,6,0,L|252:168,1,130,0|8,1:0|1:0,0:0:0:0:
172,208,81332,2,0,P|144:200|108:204,1,65,2|0,0:0|0:0,0:0:0:0:
44,268,81669,1,0,1:0:0:0:
96,196,81837,2,0,P|104:164|100:132,1,65,8|2,1:0|0:0,0:0:0:0:
52,56,82174,5,0,1:0:0:0:
128,8,82343,1,2,0:0:0:0:
216,32,82511,1,8,1:0:0:0:
308,24,82680,2,0,L|380:16,2,65,2|2|0,0:0|0:0|1:0,0:0:0:0:
268,104,83186,2,0,P|276:136|296:160,1,65,8|0,1:0|1:0,0:0:0:0:
384,184,83523,6,0,L|376:316,1,130,0|8,1:0|1:0,0:0:0:0:
292,276,84028,1,0,0:0:0:0:
208,240,84197,2,0,P|176:244|144:264,1,65,2|0,0:0|1:0,0:0:0:0:
72,208,84534,2,0,L|64:144,1,65,8|2,1:0|0:0,0:0:0:0:
92,56,84871,6,0,P|120:40|184:44,1,97.5,0|0,1:0|1:0,0:0:0:0:
183,43,85208,1,8,1:0:0:0:
248,108,85377,2,0,P|312:120|360:80,1,130,0|0,1:0|1:0,0:0:0:0:
408,4,85882,1,8,1:0:0:0:
496,164,86219,5,0,1:0:0:0:
444,240,86388,2,0,P|412:248|380:244,1,65,2|8,0:0|1:0,0:0:0:0:
292,256,86725,2,0,P|280:288|280:320,2,65,0|2|0,0:0|0:0|1:0,0:0:0:0:
328,172,87231,2,0,L|320:104,1,65,8|2,1:0|0:0,0:0:0:0:
260,36,87568,5,0,1:0:0:0:
172,20,87736,1,2,0:0:0:0:
88,52,87905,1,8,1:0:0:0:
36,128,88073,2,0,L|48:260,1,130,2|0,0:0|1:0,0:0:0:0:
116,320,88579,2,0,P|148:318|178:304,1,65,8|0,1:0|1:0,0:0:0:0:
236,236,88916,5,0,1:0:0:0:
320,264,89084,2,0,P|352:276|376:296,1,65,2|8,0:0|1:0,0:0:0:0:
464,316,89422,1,0,0:0:0:0:
432,232,89590,2,0,L|436:168,1,65,2|0,0:0|1:0,0:0:0:0:
404,80,89927,2,0,P|372:68|340:68,1,65,8|2,1:0|0:0,0:0:0:0:
260,28,90264,6,0,B|196:36|196:36|164:32,1,97.5,0|0,1:0|1:0,0:0:0:0:
163,31,90601,1,8,1:0:0:0:
84,76,90770,2,0,L|96:208,1,130,0|0,1:0|1:0,0:0:0:0:
184,232,91275,2,0,L|177:168,1,65,8|2,1:0|0:0,0:0:0:0:
248,108,91613,6,0,P|312:120|364:84,2,130,0|8|0,1:0|1:0|0:0,0:0:0:0:
292,28,92455,1,0,1:0:0:0:
368,76,92624,2,0,L|376:140,1,65,8|2,1:0|0:0,0:0:0:0:
388,232,92961,5,0,1:0:0:0:
404,321,93129,1,2,0:0:0:0:
493,302,93298,1,8,1:0:0:0:
477,212,93467,1,2,0:0:0:0:
388,336,93635,2,0,P|352:336|324:324,1,65,2|0,0:0|1:0,0:0:0:0:
256,268,93972,2,0,P|224:268|192:280,1,65,8|0,1:0|1:0,0:0:0:0:
124,340,94309,6,0,P|136:276|96:232,1,130,0|8,1:0|1:0,0:0:0:0:
32,164,94815,1,0,0:0:0:0:
56,76,94983,2,0,P|80:48|104:36,1,65,2|0,0:0|1:0,0:0:0:0:
192,60,95320,2,0,L|256:52,1,65,8|2,1:0|0:0,0:0:0:0:
344,72,95658,6,0,P|368:120|360:164,1,97.5,0|0,1:0|1:0,0:0:0:0:
361,161,95995,1,8,1:0:0:0:
296,224,96163,2,0,L|312:360,1,130,0|0,1:0|1:0,0:0:0:0:
220,352,96669,2,0,L|212:288,1,65,8|2,1:0|0:0,0:0:0:0:
168,208,97006,6,0,P|104:188|48:212,2,130,0|8|2,1:0|1:0|0:0,0:0:0:0:
248,164,97849,1,0,1:0:0:0:
288,84,98017,2,0,P|280:52|260:24,1,65,8|2,1:0|0:0,0:0:0:0:
248,164,98354,6,0,L|244:296,2,130,0|8|2,1:0|1:0|0:0,0:0:0:0:
304,92,99197,1,0,1:0:0:0:
384,132,99365,6,0,P|416:140|448:136,1,65,8|0,1:0|1:0,0:0:0:0:
488,52,99702,1,4,1:0:0:0:
