osu file format v14

[General]
AudioFilename: The Pink Fields.mp3
AudioLeadIn: 0
PreviewTime: 56556
Countdown: 0
SampleSet: Soft
StackLeniency: 0.7
Mode: 0
LetterboxInBreaks: 0
WidescreenStoryboard: 0

[Editor]
DistanceSpacing: 1.2
BeatDivisor: 4
GridSize: 4
TimelineZoom: 1.8

[Metadata]
Title:The Pink Fields
TitleUnicode:The Pink Fields
Artist:Doxx & Feint
ArtistUnicode:Doxx & Feint
Creator:Bearizm
Version:Easy
Source:
Tags:dnb drum and bass fort
BeatmapID:735390
BeatmapSetID:329290

[Difficulty]
HPDrainRate:2
CircleSize:3
OverallDifficulty:2
ApproachRate:3
SliderMultiplier:0.7
SliderTickRate:1

[Events]
//Background and Video events
0,0,"BG.jpg",0,0
//Break Periods
2,21700,22757
//Storyboard Layer 0 (Background)
//Storyboard Layer 1 (Fail)
//Storyboard Layer 2 (Pass)
//Storyboard Layer 3 (Foreground)
//Storyboard Sound Samples

[TimingPoints]
1276,337.078651685393,4,2,1,10,1,0
2624,-100,4,2,1,20,0,0
24197,-100,4,2,1,30,0,0
34983,-100,4,2,1,35,0,0
45770,-100,4,2,1,40,0,0
53859,-100,4,2,1,50,0,0
55208,-100,4,2,1,60,0,0
56556,-100,4,2,1,70,0,1
99702,-100,4,2,1,70,0,0

[Colours]
Combo1 : 255,128,128
Combo2 : 0,255,255
Combo3 : 192,192,192
Combo4 : 0,128,128

[HitObjects]
80,144,2624,6,0,L|96:284,1,140,4|0,0:0|0:0,0:0:0:0:
160,340,3635,1,0,0:0:0:0:
232,296,3972,2,0,P|302:309|328:337,2,105
188,224,5320,6,0,L|192:84,1,140
268,48,6332,1,2,0:0:0:0:
336,100,6669,2,0,B|408:108|408:108|440:104,2,105
260,132,8017,6,0,P|232:196|260:260,1,140
328,304,9028,1,0,0:0:0:0:
396,256,9365,2,0,L|404:152,2,105
328,304,10714,6,0,L|188:300,1,140
120,252,11725,1,2,0:0:0:0:
168,184,12062,2,0,P|184:132|164:84,2,105
100,136,13410,5,4,0:0:0:0:
420,232,14759,2,0,L|424:336,2,105
368,168,16107,6,0,P|304:136|240:160,1,140
187,220,17118,1,2,0:0:0:0:
114,177,17455,2,0,L|10:185,2,105
187,220,18804,6,0,B|175:256|183:288|183:288|159:316|119:320,1,140
45,284,19815,1,0,0:0:0:0:
100,220,20152,2,0,L|104:116,2,105,0|0|2,0:0|0:0|0:0,0:0:0:0:
164,272,21500,5,0,0:0:0:0:
164,272,24197,5,4,1:2:0:0:
232,224,24534,2,0,L|240:84,1,140,8|8,1:0|1:0,0:0:0:0:
180,28,25545,1,0,1:0:0:0:
156,108,25882,2,0,L|152:180,2,70,8|2|8,1:0|0:0|1:0,0:0:0:0:
180,28,26893,5,0,1:0:0:0:
237,89,27231,2,0,B|304:108|304:108|336:92|372:92,1,140,8|8,1:0|1:0,0:0:0:0:
452,124,28242,2,0,L|444:264,1,140,0|2,1:0|0:0,0:0:0:0:
388,328,29253,1,8,1:0:0:0:
324,272,29590,5,0,1:0:0:0:
244,304,29927,2,0,L|172:308,2,70,8|2|8,1:0|0:0|1:0,0:0:0:0:
324,272,30938,1,0,1:0:0:0:
360,196,31275,2,0,L|352:56,1,140,8|8,1:0|1:0,0:0:0:0:
276,16,32287,5,0,1:0:0:0:
212,72,32624,2,0,P|144:88|84:56,1,140,8|8,1:0|1:0,0:0:0:0:
20,112,33635,1,0,1:0:0:0:
12,196,33972,2,0,L|24:272,2,70,8|2|8,1:0|0:0|1:0,0:0:0:0:
92,172,34983,6,0,L|116:312,1,140,4|2,1:2|0:0,0:0:0:0:
196,336,35995,1,8,1:0:0:0:
260,284,36332,2,0,B|327:291|327:291|361:305,2,105,0|0|8,1:0|1:0|1:0,0:0:0:0:
200,228,37680,6,0,P|189:158|241:123,1,140,0|2,1:0|0:0,0:0:0:0:
320,148,38691,1,8,1:0:0:0:
388,96,39028,2,0,L|380:24,2,70,0|8|2,1:0|1:0|0:0,0:0:0:0:
396,180,40040,1,8,1:0:0:0:
448,248,40377,6,0,P|384:216|320:240,1,140,0|2,1:0|0:0,0:0:0:0:
268,300,41388,1,8,1:0:0:0:
240,220,41725,2,0,L|248:116,2,105,0|2|8,1:0|0:0|1:0,0:0:0:0:
184,284,43073,6,0,P|112:304|56:276,1,140,0|2,1:0|0:0,0:0:0:0:
8,208,44084,1,8,1:0:0:0:
60,144,44422,2,0,L|52:72,2,70,0|8|2,1:0|1:0|0:0,0:0:0:0:
132,184,45433,1,8,1:0:0:0:
200,136,45770,6,0,B|268:148|268:148|340:132,1,140,4|2,1:2|0:0,0:0:0:0:
412,172,46781,1,8,1:0:0:0:
344,224,47118,2,0,L|356:332,2,105,0|2|8,1:0|0:0|1:0,0:0:0:0:
368,144,48467,5,0,1:0:0:0:
304,92,48804,2,0,P|236:68|180:100,1,140,8|8,1:0|1:0,0:0:0:0:
112,148,49815,2,0,L|40:140,2,70,0|8|2,1:0|1:0|0:0,0:0:0:0:
187,184,50826,1,8,1:0:0:0:
207,265,51163,5,0,1:0:0:0:
284,296,51500,2,0,L|356:288,2,70,8|2|8,1:0|0:0|1:0,0:0:0:0:
219,349,52511,2,0,L|115:361,2,105,0|2|8,1:0|0:0|1:0,0:0:0:0:
207,265,53860,5,0,1:0:0:0:
256,192,54028,12,4,56556,1:2:0:0:
204,120,57905,6,0,P|216:68|196:20,2,105,0|0|8,1:0|1:0|1:0,0:0:0:0:
136,168,59253,6,0,L|146:309,1,140,0|2,1:0|0:0,0:0:0:0:
220,348,60264,1,8,1:0:0:0:
272,284,60601,2,0,P|304:272|340:276,1,70,0|8,1:0|1:0,0:0:0:0:
424,268,61275,2,0,P|436:236|432:200,1,70,2|8,0:0|1:0,0:0:0:0:
484,132,61950,6,0,P|416:160|356:136,1,140,0|2,1:0|0:0,0:0:0:0:
296,80,62961,1,8,1:0:0:0:
216,56,63298,2,0,L|112:64,2,105,0|0|8,1:0|1:0|1:0,0:0:0:0:
296,80,64646,6,0,B|292:116|308:144|308:144|288:176|296:216,1,140,0|2,1:0|0:0,0:0:0:0:
316,296,65658,1,8,1:0:0:0:
236,272,65995,2,0,L|164:280,1,70,0|8,1:0|1:0,0:0:0:0:
88,248,66669,2,0,P|76:212|80:176,1,70,2|8,0:0|1:0,0:0:0:0:
48,100,67343,6,0,P|112:128|168:96,1,140,0|2,1:0|0:0,0:0:0:0:
216,28,68354,1,8,1:0:0:0:
296,52,68691,2,0,L|400:44,2,105,0|0|8,1:0|1:0|1:0,0:0:0:0:
236,112,70040,6,0,B|232:156|232:156|240:204|240:204|236:252,1,140,0|2,1:0|0:0,0:0:0:0:
172,304,71051,1,8,1:0:0:0:
252,332,71388,2,0,P|288:346|320:342,1,70,0|8,1:0|1:0,0:0:0:0:
360,268,72062,2,0,P|392:252|428:252,1,70,2|8,0:0|1:0,0:0:0:0:
492,304,72736,6,0,L|480:164,1,140,0|2,1:0|0:0,0:0:0:0:
436,92,73747,1,8,1:0:0:0:
368,140,74084,2,0,P|300:156|264:144,2,105,0|0|8,1:0|1:0|1:0,0:0:0:0:
444,172,75433,6,0,P|480:232|464:304,1,140,0|2,1:0|0:0,0:0:0:0:
396,344,76444,1,8,1:0:0:0:
336,284,76781,2,0,P|304:268|269:268,1,70,0|8,1:0|1:0,0:0:0:0:
192,298,77455,2,0,L|120:292,1,70,2|8,0:0|1:0,0:0:0:0:
48,252,78129,6,0,B|40:180|40:180|52:112,1,140,0|2,1:0|0:0,0:0:0:0:
120,64,79141,1,8,1:0:0:0:
176,128,79478,2,0,L|172:232,2,105,0|0|8,1:0|1:0|1:0,0:0:0:0:
204,48,80826,5,0,1:0:0:0:
284,73,81163,2,0,B|352:85|352:85|424:69,1,140,8|8,1:0|1:0,0:0:0:0:
488,116,82174,2,0,P|500:152|496:188,1,70,0|8,1:0|1:0,0:0:0:0:
440,244,82849,2,0,L|444:316,1,70,2|8,0:0|1:0,0:0:0:0:
362,334,83523,6,0,P|294:354|254:306,1,140,0|2,1:0|0:0,0:0:0:0:
236,224,84534,1,8,1:0:0:0:
156,196,84871,2,0,L|52:208,2,105,0|0|8,1:0|1:0|1:0,0:0:0:0:
236,224,86219,6,0,P|300:192|312:128,1,140,0|2,1:0|0:0,0:0:0:0:
284,48,87231,1,8,1:0:0:0:
368,60,87568,2,0,L|440:56,1,70,0|8,1:0|1:0,0:0:0:0:
468,136,88242,2,0,L|396:140,1,70,2|8,0:0|1:0,0:0:0:0:
332,188,88916,6,0,B|328:224|328:224|336:256|336:256|324:292|340:328,1,140,0|2,1:0|0:0,0:0:0:0:
416,288,89927,1,8,1:0:0:0:
484,236,90264,2,0,L|476:132,2,105,0|0|8,1:0|1:0|1:0,0:0:0:0:
416,288,91613,6,0,P|348:312|296:276,1,140,0|2,1:0|0:0,0:0:0:0:
276,196,92624,1,8,1:0:0:0:
328,132,92961,2,0,L|336:28,2,105,0|2|8,1:0|0:0|1:0,0:0:0:0:
276,196,94309,5,0,1:0:0:0:
200,160,94646,1,8,1:0:0:0:
124,192,94983,2,0,P|112:224|116:260,1,70,2|8,0:0|1:0,0:0:0:0:
188,304,95658,2,0,L|292:296,2,105,0|0|8,1:0|1:0|1:0,0:0:0:0:
115,259,97006,6,0,L|44:252,1,70,0|8,1:0|1:0,0:0:0:0:
36,168,97680,2,0,L|107:175,1,70,2|8,0:0|1:0,0:0:0:0:
184,148,98354,6,0,P|204:100|188:52,2,105,0|2|8,1:0|0:0|1:0,0:0:0:0:
172,232,99702,1,4,1:0:0:0:
