osu file format v14

[General]
AudioFilename: The Pink Fields.mp3
AudioLeadIn: 0
PreviewTime: 56556
Countdown: 0
SampleSet: Soft
StackLeniency: 1
Mode: 0
LetterboxInBreaks: 0
WidescreenStoryboard: 0

[Editor]
DistanceSpacing: 0.5
BeatDivisor: 4
GridSize: 4
TimelineZoom: 2.1

[Metadata]
Title:The Pink Fields
TitleUnicode:The Pink Fields
Artist:Doxx & Feint
ArtistUnicode:Doxx & Feint
Creator:Bearizm
Version:Divine
Source:
Tags:dnb drum and bass fort
BeatmapID:729986
BeatmapSetID:329290

[Difficulty]
HPDrainRate:6
CircleSize:4.4
OverallDifficulty:9
ApproachRate:9.3
SliderMultiplier:1.8
SliderTickRate:2

[Events]
//Background and Video events
0,0,"BG.jpg",0,0
//Break Periods
//Storyboard Layer 0 (Background)
//Storyboard Layer 1 (Fail)
//Storyboard Layer 2 (Pass)
//Storyboard Layer 3 (Foreground)
//Storyboard Sound Samples

[TimingPoints]
1276,337.078651685393,4,2,1,10,1,0
2624,-133.333333333333,4,2,1,20,0,0
24197,-133.333333333333,4,2,1,30,0,0
34983,-133.333333333333,4,2,1,35,0,0
45770,-133.333333333333,4,2,1,40,0,0
53859,-133.333333333333,4,2,1,50,0,0
55208,-133.333333333333,4,2,1,60,0,0
56556,-100,4,2,1,70,0,1
99702,-100,4,2,1,70,0,0

[Colours]
Combo1 : 255,128,128
Combo2 : 0,255,255
Combo3 : 192,192,192
Combo4 : 0,128,128

[HitObjects]
152,296,2624,6,0,L|288:284,1,135.000005149842,4|0,0:0|0:0,0:0:0:0:
396,184,3129,1,0,0:0:0:0:
296,84,3298,2,0,P|296:48|308:20,1,67.5000025749208
396,184,3635,1,0,0:0:0:0:
396,184,3804,6,0,B|352:180|352:180|304:192|304:192|260:188,1,135.000005149842
144,124,4309,1,0,0:0:0:0:
40,208,4478,2,0,B|32:240|32:240|44:272|44:272|28:304|44:344,1,135.000005149842
144,124,4983,2,0,L|128:56,1,67.5000025749208
136,312,5320,5,0,0:0:0:0:
204,196,5489,1,0,0:0:0:0:
224,328,5658,1,0,0:0:0:0:
130,230,5826,1,0,0:0:0:0:
261,257,5995,2,0,P|296:252|320:232,1,67.5000025749208
130,230,6332,2,0,P|96:224|64:232,1,67.5000025749208,2|0,0:0|0:0,0:0:0:0:
320,231,6669,5,0,0:0:0:0:
292,100,6837,2,0,P|300:68|324:44,1,67.5000025749208
320,231,7174,5,0,0:0:0:0:
272,52,7343,2,0,P|252:24|224:8,1,67.5000025749208
320,231,7680,2,0,L|388:224,1,67.5000025749208
224,148,8017,5,0,0:0:0:0:
112,224,8186,2,0,P|104:260|112:292,1,67.5000025749208
224,148,8523,1,0,0:0:0:0:
224,148,8691,2,0,L|212:80,1,67.5000025749208
184,260,9028,1,0,0:0:0:0:
296,336,9197,6,0,B|396:320|396:320|432:324,1,135.000005149842
504,212,9702,1,0,0:0:0:0:
376,172,9871,2,0,B|360:140|368:108|368:108|344:84|304:80,1,135.000005149842
176,124,10377,2,0,P|140:116|116:92,1,67.5000025749208
272,184,10714,5,0,0:0:0:0:
272,184,10882,2,0,P|280:216|272:252,1,67.5000025749208
272,76,11219,1,0,0:0:0:0:
272,76,11388,2,0,P|292:48|324:36,1,67.5000025749208
500,192,11725,2,0,L|432:188,1,67.5000025749208,2|0,0:0|0:0,0:0:0:0:
316,256,12062,5,0,0:0:0:0:
208,172,12231,2,0,L|200:104,1,67.5000025749208
316,256,12568,5,0,0:0:0:0:
148,124,12736,2,0,L|160:56,1,67.5000025749208
316,256,13073,2,0,P|296:284|264:296,1,67.5000025749208
284,76,13410,5,4,0:0:0:0:
392,160,13579,1,0,0:0:0:0:
356,32,13747,1,0,0:0:0:0:
304,156,13916,1,0,0:0:0:0:
416,84,14084,2,0,P|452:88|480:104,1,67.5000025749208
420,324,14422,1,0,0:0:0:0:
300,260,14590,5,0,0:0:0:0:
356,384,14759,1,0,0:0:0:0:
383,251,14927,1,0,0:0:0:0:
284,344,15096,1,0,0:0:0:0:
383,251,15264,2,0,B|388:216|372:188|372:188|376:152|352:124,1,135.000005149842
168,92,15770,5,0,0:0:0:0:
160,80,15938,2,0,P|160:44|176:16,1,67.5000025749208
216,232,16275,5,0,0:0:0:0:
214,245,16444,1,0,0:0:0:0:
212,258,16613,2,0,P|180:276|148:276,1,67.5000025749208
292,124,16950,5,0,0:0:0:0:
304,118,17118,1,2,0:0:0:0:
316,112,17287,2,0,P|347:130|363:158,1,67.5000025749208
340,328,17624,5,0,0:0:0:0:
280,196,17792,1,0,0:0:0:0:
196,314,17961,2,0,P|160:312|132:300,1,67.5000025749208
280,196,18298,2,0,P|312:188|348:196,2,67.5000025749208
120,292,18804,5,0,0:0:0:0:
164,164,18972,2,0,P|156:132|132:108,1,67.5000025749208
120,292,19309,1,0,0:0:0:0:
248,328,19478,2,0,L|384:312,1,135.000005149842
488,184,19983,5,0,0:0:0:0:
388,92,20152,2,0,P|384:56|396:24,1,67.5000025749208
488,184,20489,1,0,0:0:0:0:
360,224,20658,6,0,B|316:220|316:220|268:232|268:232|224:228,1,135.000005149842
163,110,21163,1,0,0:0:0:0:
299,114,21332,1,0,0:0:0:0:
226,228,21500,5,0,0:0:0:0:
226,228,21669,2,0,P|220:264|232:296,1,67.5000025749208
299,114,22006,1,0,0:0:0:0:
299,114,22174,2,0,P|296:80|280:52,1,67.5000025749208
316,252,22511,2,0,L|384:244,1,67.5000025749208,2|0,0:0|0:0,0:0:0:0:
216,108,22849,5,0,0:0:0:0:
132,216,23017,1,0,0:0:0:0:
132,80,23186,1,0,0:0:0:0:
212,192,23354,1,0,0:0:0:0:
84,152,23523,2,0,L|16:160,1,67.5000025749208
216,108,23860,2,0,L|284:112,1,67.5000025749208
396,188,24197,5,4,1:2:0:0:
308,292,24365,1,0,0:0:0:0:
316,156,24534,1,8,1:0:0:0:
388,272,24702,1,2,0:0:0:0:
260,224,24871,1,0,0:0:0:0:
388,272,25040,1,0,1:0:0:0:
468,104,25208,2,0,L|456:36,1,67.5000025749208,8|0,1:0|0:0,0:0:0:0:
316,156,25545,6,0,P|308:188|316:220,1,67.5000025749208,0|0,1:0|0:0,0:0:0:0:
324,231,25798,1,0,1:0:0:0:
324,231,25882,1,8,1:0:0:0:
444,32,26051,2,0,B|412:24|412:24|380:36|380:36|348:20|308:36,1,135.000005149842,0|0,1:0|1:0,0:0:0:0:
100,136,26556,2,0,P|68:120|52:92,1,67.5000025749208,8|0,1:0|0:0,0:0:0:0:
192,164,26893,6,0,P|204:196|204:228,1,67.5000025749208,0|0,1:0|0:0,0:0:0:0:
116,332,27231,1,8,1:0:0:0:
249,356,27399,1,2,0:0:0:0:
256,196,27568,1,0,0:0:0:0:
188,296,27736,1,0,1:0:0:0:
188,152,27905,2,0,P|212:128|248:116,1,67.5000025749208,8|0,1:0|0:0,0:0:0:0:
327,222,28242,5,0,1:0:0:0:
320,86,28410,1,0,0:0:0:0:
246,199,28579,1,8,1:0:0:0:
372,151,28747,1,2,0:0:0:0:
243,116,28916,1,0,0:0:0:0:
327,222,29084,1,0,1:0:0:0:
464,124,29253,2,0,L|452:56,1,67.5000025749208,8|0,1:0|0:0,0:0:0:0:
327,222,29590,6,0,L|320:292,1,67.5000025749208,0|0,1:0|0:0,0:0:0:0:
328,300,29843,1,0,1:0:0:0:
328,300,29927,1,8,1:0:0:0:
224,216,30096,1,0,1:0:0:0:
384,136,30264,2,0,P|416:144|444:168,1,67.5000025749208,2|0,0:0|1:0,0:0:0:0:
224,216,30601,1,8,1:0:0:0:
276,92,30770,1,2,0:0:0:0:
248,292,30938,6,0,P|220:316|192:324,1,67.5000025749208,0|0,1:0|0:0,0:0:0:0:
312,192,31275,1,8,1:0:0:0:
460,272,31444,2,0,L|326:285,1,135.000005149842,2|0,0:0|1:0,0:0:0:0:
232,200,31950,2,0,P|236:164|252:136,1,67.5000025749208,8|0,1:0|0:0,0:0:0:0:
496,192,32287,6,0,L|428:200,1,67.5000025749208,0|2,1:0|0:0,0:0:0:0:
325,285,32624,1,8,1:0:0:0:
260,132,32792,1,0,0:0:0:0:
148,264,32961,1,2,0:0:0:0:
104,92,33129,1,0,1:0:0:0:
232,256,33298,1,8,1:0:0:0:
184,100,33467,1,0,1:0:0:0:
236,276,33635,6,0,P|232:312|216:340,1,67.5000025749208,0|2,1:0|0:0,0:0:0:0:
96,196,33972,1,8,1:0:0:0:
220,148,34141,1,2,0:0:0:0:
180,20,34309,1,2,0:0:0:0:
52,68,34478,1,0,1:0:0:0:
236,156,34646,2,0,P|272:152|300:136,1,67.5000025749208,8|2,1:0|0:0,0:0:0:0:
500,312,34983,5,4,1:2:0:0:
372,268,35152,1,0,0:0:0:0:
500,228,35320,1,8,1:0:0:0:
420,336,35489,1,2,0:0:0:0:
424,200,35658,1,0,0:0:0:0:
500,312,35826,1,0,1:0:0:0:
424,200,35995,2,0,P|428:164|448:140,1,67.5000025749208,8|0,1:0|0:0,0:0:0:0:
420,336,36332,6,0,L|352:328,1,67.5000025749208,0|0,1:0|0:0,0:0:0:0:
340,332,36584,1,0,1:0:0:0:
340,332,36669,1,8,1:0:0:0:
88,232,36837,2,0,L|224:216,1,135.000005149842,0|0,1:0|1:0,0:0:0:0:
348,104,37343,2,0,P|356:72|348:40,1,67.5000025749208,8|0,1:0|0:0,0:0:0:0:
232,220,37680,6,0,L|244:288,1,67.5000025749208,0|0,1:0|0:0,0:0:0:0:
339,191,38017,1,8,1:0:0:0:
184,160,38186,1,2,0:0:0:0:
280,56,38354,1,0,0:0:0:0:
116,12,38523,1,0,1:0:0:0:
100,164,38691,2,0,P|108:199|130:225,1,67.5000025749208,8|0,1:0|0:0,0:0:0:0:
280,56,39028,5,0,1:0:0:0:
261,190,39197,1,2,0:0:0:0:
197,71,39365,1,8,1:0:0:0:
318,131,39534,1,2,0:0:0:0:
186,157,39702,2,0,P|152:152|124:132,1,67.5000025749208,2|0,0:0|1:0,0:0:0:0:
280,56,40040,2,0,P|316:48|352:56,1,67.5000025749208,8|0,1:0|0:0,0:0:0:0:
279,267,40377,6,0,L|271:199,1,67.5000025749208,0|0,1:0|0:0,0:0:0:0:
261,190,40629,1,0,1:0:0:0:
261,190,40714,1,8,1:0:0:0:
436,88,40882,1,0,1:0:0:0:
261,190,41051,2,0,P|228:184|200:164,1,67.5000025749208,2|0,0:0|1:0,0:0:0:0:
436,88,41388,1,8,1:0:0:0:
436,88,41556,1,2,0:0:0:0:
508,204,41725,6,0,L|496:272,1,67.5000025749208,0|0,1:0|0:0,0:0:0:0:
376,332,42062,1,8,1:0:0:0:
480,148,42231,2,0,L|492:284,1,135.000005149842,2|0,0:0|1:0,0:0:0:0:
356,72,42736,2,0,L|364:4,1,67.5000025749208,8|0,1:0|0:0,0:0:0:0:
472,136,43073,5,0,1:0:0:0:
372,224,43242,2,0,P|336:220|308:204,1,67.5000025749208,2|8,0:0|1:0,0:0:0:0:
136,264,43579,1,0,0:0:0:0:
224,104,43747,1,2,0:0:0:0:
300,196,43916,1,0,1:0:0:0:
148,96,44084,2,0,L|80:88,1,67.5000025749208,8|0,1:0|0:0,0:0:0:0:
138,276,44422,5,0,1:0:0:0:
216,164,44590,1,2,0:0:0:0:
220,300,44759,1,8,1:0:0:0:
136,192,44927,1,2,0:0:0:0:
236,304,45096,1,2,0:0:0:0:
208,80,45264,1,0,1:0:0:0:
268,232,45433,2,0,P|304:228|332:212,1,67.5000025749208,8|2,1:0|0:0,0:0:0:0:
472,52,45770,5,4,1:2:0:0:
352,116,45938,2,0,P|320:108|296:84,1,67.5000025749208,0|8,0:0|1:0,0:0:0:0:
472,52,46275,1,2,0:0:0:0:
512,180,46444,2,0,L|504:248,1,67.5000025749208,0|0,0:0|1:0,0:0:0:0:
408,344,46781,1,8,1:0:0:0:
368,180,46950,1,0,0:0:0:0:
246,297,47118,6,0,P|212:292|184:276,1,67.5000025749208,0|0,1:0|0:0,0:0:0:0:
168,276,47371,1,0,1:0:0:0:
168,276,47455,1,8,1:0:0:0:
368,180,47624,2,0,L|436:192,1,67.5000025749208,0|0,1:0|0:0,0:0:0:0:
246,297,47961,1,0,1:0:0:0:
176,108,48129,2,0,P|180:72|196:44,1,67.5000025749208,8|0,1:0|0:0,0:0:0:0:
236,232,48467,6,0,P|247:263|246:297,1,67.5000025749208,0|0,1:0|0:0,0:0:0:0:
156,196,48804,1,8,1:0:0:0:
295,115,48972,1,2,0:0:0:0:
424,212,49141,1,0,0:0:0:0:
368,64,49309,1,0,1:0:0:0:
360,268,49478,2,0,P|388:288|420:296,1,67.5000025749208,8|0,1:0|0:0,0:0:0:0:
500,100,49815,5,0,1:0:0:0:
424,212,49983,1,0,0:0:0:0:
422,76,50152,1,8,1:0:0:0:
504,184,50320,1,2,0:0:0:0:
374,145,50489,2,0,P|340:152|312:168,1,67.5000025749208,0|0,0:0|1:0,0:0:0:0:
500,100,50826,2,0,P|512:64|508:36,1,67.5000025749208,8|0,1:0|0:0,0:0:0:0:
364,264,51163,6,0,L|376:332,1,67.5000025749208,0|2,1:0|0:0,0:0:0:0:
388,336,51416,1,0,1:0:0:0:
388,336,51500,1,8,1:0:0:0:
476,192,51669,1,0,1:0:0:0:
256,296,51837,2,0,P|220:288|196:264,1,67.5000025749208,2|0,0:0|1:0,0:0:0:0:
268,96,52174,1,8,1:0:0:0:
184,272,52343,1,2,0:0:0:0:
196,52,52511,6,0,P|208:20|236:0,1,67.5000025749208,0|0,1:0|0:0,0:0:0:0:
264,212,52849,1,8,1:0:0:0:
264,212,53017,2,0,P|268:248|256:280,1,67.5000025749208,2|0,0:0|0:0,0:0:0:0:
152,144,53354,1,0,1:0:0:0:
268,96,53523,2,0,L|336:100,1,67.5000025749208,8|0,1:0|0:0,0:0:0:0:
504,240,53860,6,0,L|436:236,1,67.5000025749208,0|2,1:0|0:0,0:0:0:0:
296,328,54197,1,8,1:0:0:0:
424,220,54365,1,0,0:0:0:0:
236,160,54534,1,2,0:0:0:0:
320,248,54702,1,0,1:0:0:0:
364,128,54871,1,8,1:0:0:0:
400,320,55040,1,0,1:0:0:0:
464,96,55208,6,0,P|460:60|444:32,1,67.5000025749208,0|2,1:0|0:0,0:0:0:0:
428,244,55545,1,8,1:0:0:0:
231,261,55714,1,2,0:0:0:0:
448,244,55882,2,0,P|484:252|512:268,1,67.5000025749208,2|0,0:0|1:0,0:0:0:0:
280,328,56219,2,0,P|249:342|213:342,1,67.5000025749208,8|2,1:0|0:0,0:0:0:0:
412,40,56556,5,4,1:2:0:0:
300,184,56725,1,2,0:0:0:0:
300,4,56893,1,8,1:0:0:0:
412,148,57062,1,0,0:0:0:0:
410,174,57146,1,0,0:0:0:0:
408,200,57231,1,2,0:0:0:0:
406,227,57315,1,0,0:0:0:0:
404,253,57399,1,0,1:0:0:0:
264,364,57568,2,0,P|220:367|180:348,1,90,8|2,1:0|0:0,0:0:0:0:
356,294,57905,6,0,P|396:274|440:274,1,90,0|2,1:0|0:0,0:0:0:0:
457,281,58158,1,0,1:0:0:0:
457,281,58242,1,8,1:0:0:0:
238,278,58410,2,0,L|230:142,1,135,0|0,1:0|0:0,0:0:0:0:
230,143,58747,1,0,1:0:0:0:
457,281,58916,2,0,L|454:370,1,90,8|2,1:0|0:0,0:0:0:0:
230,143,59253,5,0,1:0:0:0:
384,48,59422,1,2,0:0:0:0:
312,216,59590,1,8,1:0:0:0:
272,40,59759,1,0,0:0:0:0:
243,25,59843,1,0,0:0:0:0:
211,21,59927,1,2,0:0:0:0:
179,24,60011,1,0,0:0:0:0:
150,37,60096,1,0,1:0:0:0:
54,227,60264,2,0,L|146:215,1,90,8|0,1:0|0:0,0:0:0:0:
230,143,60601,5,0,1:0:0:0:
76,52,60770,1,2,0:0:0:0:
144,216,60938,1,8,1:0:0:0:
184,40,61107,1,2,0:0:0:0:
47,156,61275,1,2,0:0:0:0:
230,143,61444,1,0,1:0:0:0:
150,304,61613,1,8,1:0:0:0:
136,120,61781,1,0,1:0:0:0:
248,320,61950,6,0,L|336:304,1,90,0|2,1:0|0:0,0:0:0:0:
230,143,62287,1,8,1:0:0:0:
69,251,62455,1,0,0:0:0:0:
70,268,62540,1,0,0:0:0:0:
71,285,62624,1,2,0:0:0:0:
72,303,62708,1,0,0:0:0:0:
73,320,62792,1,0,1:0:0:0:
230,143,62961,2,0,P|244:100|232:56,1,90,8|0,1:0|0:0,0:0:0:0:
200,292,63298,6,0,L|288:276,1,90,0|2,1:0|0:0,0:0:0:0:
304,284,63551,1,0,1:0:0:0:
304,284,63635,1,8,1:0:0:0:
160,96,63804,2,0,L|24:88,1,135,0|0,1:0|0:0,0:0:0:0:
25,88,64141,1,0,1:0:0:0:
304,284,64309,1,8,1:0:0:0:
336,108,64478,1,2,0:0:0:0:
333,89,64562,1,0,0:0:0:0:
330,71,64646,5,0,1:0:0:0:
208,204,64815,1,2,0:0:0:0:
388,208,64983,1,8,1:0:0:0:
240,36,65152,1,0,0:0:0:0:
211,24,65236,1,0,0:0:0:0:
179,24,65320,1,2,0:0:0:0:
147,28,65405,1,0,0:0:0:0:
118,42,65489,1,0,1:0:0:0:
96,252,65658,2,0,L|4:244,1,90,8|2,1:0|0:0,0:0:0:0:
184,128,65995,5,0,1:0:0:0:
316,248,66163,1,2,0:0:0:0:
300,68,66332,1,8,1:0:0:0:
216,288,66500,1,2,0:0:0:0:
416,192,66668,1,2,0:0:0:0:
280,148,66837,1,0,1:0:0:0:
332,320,67006,1,8,1:0:0:0:
408,104,67174,1,0,1:0:0:0:
216,288,67343,6,0,L|124:280,1,90,0|2,1:0|0:0,0:0:0:0:
8,88,67680,1,8,1:0:0:0:
196,160,67849,1,0,0:0:0:0:
218,145,67933,1,0,0:0:0:0:
244,138,68017,1,2,0:0:0:0:
270,139,68101,1,0,0:0:0:0:
295,146,68186,1,0,1:0:0:0:
476,160,68354,2,0,P|504:124|512:80,1,90,8|2,1:0|0:0,0:0:0:0:
328,224,68691,6,0,P|328:268|352:308,1,90,0|2,1:0|0:0,0:0:0:0:
364,312,68944,1,0,1:0:0:0:
364,312,69028,1,8,1:0:0:0:
408,104,69197,2,0,L|272:116,1,135,0|0,1:0|0:0,0:0:0:0:
272,116,69534,1,0,1:0:0:0:
128,300,69702,1,8,1:0:0:0:
256,108,69871,1,2,0:0:0:0:
256,108,69955,1,0,0:0:0:0:
256,108,70040,6,0,P|248:64|216:32,1,90,0|2,1:0|0:0,0:0:0:0:
44,160,70377,1,8,1:0:0:0:
220,196,70545,1,0,0:0:0:0:
221,204,70629,1,0,0:0:0:0:
222,212,70714,1,2,0:0:0:0:
223,220,70798,1,0,0:0:0:0:
224,228,70882,1,0,1:0:0:0:
76,88,71051,1,8,1:0:0:0:
116,264,71219,1,2,0:0:0:0:
117,272,71304,1,0,0:0:0:0:
118,280,71388,5,0,1:0:0:0:
192,104,71556,1,2,0:0:0:0:
364,152,71725,1,8,1:0:0:0:
96,245,71893,5,2,0:0:0:0:
172,85,72062,1,2,0:0:0:0:
344,133,72231,1,0,1:0:0:0:
235,275,72399,5,8,1:0:0:0:
152,68,72568,1,0,1:0:0:0:
248,292,72736,6,0,L|340:280,1,90,0|2,1:0|0:0,0:0:0:0:
456,88,73073,1,8,1:0:0:0:
356,296,73242,1,0,0:0:0:0:
358,304,73326,1,0,0:0:0:0:
360,312,73410,1,2,0:0:0:0:
362,320,73495,1,0,0:0:0:0:
364,328,73579,1,0,1:0:0:0:
496,208,73747,2,0,L|508:116,1,90,8|2,1:0|0:0,0:0:0:0:
268,216,74084,6,0,L|176:204,1,90,0|2,1:0|0:0,0:0:0:0:
164,216,74337,1,0,1:0:0:0:
164,216,74422,1,8,1:0:0:0:
8,56,74590,2,0,L|144:36,1,135,0|0,1:0|0:0,0:0:0:0:
141,36,74927,1,0,1:0:0:0:
292,132,75096,1,8,1:0:0:0:
132,216,75264,1,2,0:0:0:0:
130,198,75349,1,0,0:0:0:0:
128,180,75433,5,0,1:0:0:0:
252,48,75601,1,2,0:0:0:0:
252,228,75770,1,8,1:0:0:0:
141,36,75938,1,0,0:0:0:0:
116,46,76023,1,0,0:0:0:0:
89,52,76107,1,2,0:0:0:0:
62,52,76191,1,0,0:0:0:0:
36,44,76275,1,0,1:0:0:0:
0,268,76444,1,8,1:0:0:0:
148,164,76613,1,2,0:0:0:0:
148,164,76697,1,0,0:0:0:0:
148,164,76781,5,0,1:0:0:0:
252,236,76950,1,2,0:0:0:0:
137,288,77118,1,8,1:0:0:0:
240,140,77287,1,2,0:0:0:0:
224,324,77455,1,2,0:0:0:0:
72,220,77624,1,0,1:0:0:0:
252,236,77792,1,8,1:0:0:0:
137,288,77961,1,0,1:0:0:0:
172,44,78129,5,0,1:0:0:0:
256,160,78298,2,0,L|348:148,1,90,2|8,0:0|1:0,0:0:0:0:
484,32,78635,1,0,0:0:0:0:
485,40,78719,1,0,0:0:0:0:
486,49,78804,1,2,0:0:0:0:
487,57,78888,1,0,0:0:0:0:
488,65,78972,1,0,1:0:0:0:
360,160,79141,1,8,1:0:0:0:
496,276,79309,1,2,0:0:0:0:
344,144,79478,6,0,P|332:100|344:56,1,90,0|2,1:0|0:0,0:0:0:0:
356,48,79731,1,0,1:0:0:0:
356,48,79815,1,8,1:0:0:0:
416,264,79983,2,0,B|372:260|372:260|328:272|328:272|280:268,1,135,0|0,1:0|0:0,0:0:0:0:
282,268,80320,1,0,1:0:0:0:
164,132,80489,1,8,1:0:0:0:
176,312,80658,1,2,0:0:0:0:
176,312,80742,1,0,0:0:0:0:
176,312,80826,5,0,1:0:0:0:
272,160,80995,1,2,0:0:0:0:
104,228,81163,1,8,1:0:0:0:
282,268,81332,1,0,0:0:0:0:
280,285,81416,1,0,0:0:0:0:
278,302,81500,1,2,0:0:0:0:
276,319,81584,1,0,0:0:0:0:
275,337,81669,1,0,1:0:0:0:
164,132,81837,2,0,L|160:40,1,90,8|2,1:0|0:0,0:0:0:0:
328,112,82174,5,0,1:0:0:0:
184,220,82343,1,2,0:0:0:0:
240,48,82511,1,8,1:0:0:0:
332,204,82680,1,2,0:0:0:0:
164,132,82849,1,2,0:0:0:0:
268,292,83017,1,0,1:0:0:0:
240,48,83186,1,8,1:0:0:0:
184,220,83354,1,0,1:0:0:0:
452,188,83523,6,0,P|472:148|468:104,1,90,0|2,1:0|0:0,0:0:0:0:
312,12,83860,1,8,1:0:0:0:
260,187,84028,1,0,0:0:0:0:
262,213,84113,1,0,0:0:0:0:
264,240,84197,1,2,0:0:0:0:
266,266,84281,1,0,0:0:0:0:
268,292,84365,1,0,1:0:0:0:
48,184,84534,2,0,L|56:92,1,90,8|2,1:0|0:0,0:0:0:0:
48,80,84787,1,0,0:0:0:0:
48,80,84871,6,0,P|92:72|132:48,1,90,0|0,1:0|0:0,0:0:0:0:
144,36,85124,1,0,1:0:0:0:
144,36,85208,1,8,1:0:0:0:
356,112,85377,2,0,P|316:88|272:80,1,90,0|2,1:0|0:0,0:0:0:0:
256,84,85629,1,0,0:0:0:0:
256,84,85714,1,0,1:0:0:0:
128,208,85882,6,0,L|104:220,1,22.5,8|0,1:0|0:0,0:0:0:0:
124,244,85967,2,0,L|96:252,1,22.5
126,279,86051,2,0,L|104:280,1,22.5,2|0,0:0|0:0,0:0:0:0:
136,313,86135,2,0,L|108:308,1,22.5
153,344,86219,5,0,1:0:0:0:
234,162,86388,1,2,0:0:0:0:
355,318,86556,1,8,1:0:0:0:
392,96,86725,1,0,0:0:0:0:
390,87,86809,1,0,0:0:0:0:
388,78,86893,1,2,0:0:0:0:
386,69,86978,1,0,0:0:0:0:
384,60,87062,1,0,1:0:0:0:
166,120,87231,2,0,L|74:112,1,90,8|2,1:0|0:0,0:0:0:0:
240,38,87568,5,0,1:0:0:0:
212,216,87736,1,2,0:0:0:0:
124,60,87905,1,8,1:0:0:0:
288,140,88073,1,2,0:0:0:0:
232,20,88242,1,2,0:0:0:0:
112,168,88410,1,0,1:0:0:0:
375,204,88579,1,8,1:0:0:0:
184,300,88747,1,0,1:0:0:0:
160,88,88916,5,0,1:0:0:0:
286,215,89084,2,0,L|376:204,1,90,2|8,0:0|1:0,0:0:0:0:
486,27,89422,1,0,0:0:0:0:
487,36,89506,1,0,0:0:0:0:
488,45,89590,1,2,0:0:0:0:
490,54,89674,1,0,0:0:0:0:
492,64,89759,1,0,1:0:0:0:
392,216,89927,1,8,1:0:0:0:
344,44,90096,1,2,0:0:0:0:
328,312,90264,6,0,L|236:308,1,90,0|2,1:0|0:0,0:0:0:0:
224,320,90517,1,0,1:0:0:0:
224,320,90601,1,8,1:0:0:0:
88,172,90770,2,0,L|224:156,1,135,0|0,1:0|0:0,0:0:0:0:
222,156,91107,1,0,1:0:0:0:
316,4,91275,1,8,1:0:0:0:
332,184,91444,1,2,0:0:0:0:
333,210,91528,1,0,0:0:0:0:
335,237,91613,5,0,1:0:0:0:
212,52,91781,1,0,0:0:0:0:
388,88,91950,1,8,1:0:0:0:
188,188,92118,1,2,0:0:0:0:
176,221,92202,1,0,0:0:0:0:
169,256,92287,1,0,0:0:0:0:
169,291,92371,1,0,0:0:0:0:
177,325,92455,1,0,1:0:0:0:
404,312,92624,1,8,1:0:0:0:
339,104,92792,1,0,0:0:0:0:
334,86,92877,1,0,0:0:0:0:
330,68,92961,5,0,1:0:0:0:
468,240,93129,1,2,0:0:0:0:
292,204,93298,1,8,1:0:0:0:
452,124,93467,1,2,0:0:0:0:
368,284,93635,1,2,0:0:0:0:
339,104,93804,1,0,1:0:0:0:
496,232,93972,1,8,1:0:0:0:
420,32,94141,1,0,1:0:0:0:
292,204,94309,5,0,1:0:0:0:
452,124,94478,1,2,0:0:0:0:
453,97,94562,1,0,0:0:0:0:
454,70,94646,1,8,1:0:0:0:
264,76,94815,1,0,0:0:0:0:
408,248,94983,1,2,0:0:0:0:
360,48,95152,1,0,1:0:0:0:
268,208,95320,1,8,1:0:0:0:
452,124,95489,1,2,0:0:0:0:
224,292,95658,6,0,P|192:264|176:220,1,90,0|2,1:0|0:0,0:0:0:0:
176,203,95910,1,0,1:0:0:0:
176,203,95995,1,8,1:0:0:0:
432,220,96163,2,0,L|424:356,1,135,0|0,1:0|0:0,0:0:0:0:
424,354,96500,1,0,1:0:0:0:
284,124,96669,1,8,1:0:0:0:
432,20,96837,1,2,0:0:0:0:
300,256,97006,6,0,L|208:248,1,90,0|2,1:0|0:0,0:0:0:0:
64,76,97343,1,8,1:0:0:0:
200,276,97511,1,0,0:0:0:0:
173,301,97596,1,0,0:0:0:0:
140,316,97680,1,2,0:0:0:0:
104,321,97764,1,0,0:0:0:0:
68,313,97849,1,0,1:0:0:0:
152,88,98017,1,8,1:0:0:0:
300,256,98186,1,2,0:0:0:0:
302,282,98270,1,0,0:0:0:0:
304,308,98354,5,0,1:0:0:0:
372,32,98523,1,2,0:0:0:0:
448,252,98691,1,8,1:0:0:0:
256,116,98860,1,2,0:0:0:0:
488,112,99028,1,2,0:0:0:0:
376,152,99197,1,0,1:0:0:0:
136,32,99365,5,8,1:0:0:0:
256,324,99534,1,0,1:0:0:0:
448,76,99702,1,4,1:0:0:0:
