osu file format v14

[General]
AudioFilename: ED2.mp3
AudioLeadIn: 0
PreviewTime: 5870
Countdown: 0
SampleSet: Soft
StackLeniency: 0.7
Mode: 0
LetterboxInBreaks: 1
WidescreenStoryboard: 1

[Editor]
DistanceSpacing: 0.9
BeatDivisor: 4
GridSize: 4
TimelineZoom: 1

[Metadata]
Title:Platinum Jet
TitleUnicode:プラチナジェット
Artist:Doughnut Quintet
ArtistUnicode:どーなつ◎くいんてっと
Creator:ns920
Version:SHIROBAKO
Source:SHIROBAKO
Tags:白箱 ending tvsize 木村珠莉 佳村はるか 千菅春香 高野麻美 大和田仁美
BeatmapID:657000
BeatmapSetID:289532

[Difficulty]
HPDrainRate:7
CircleSize:4
OverallDifficulty:7.5
ApproachRate:9
SliderMultiplier:1.8
SliderTickRate:1

[Events]
//Background and Video events
0,0,"tKlHp3J.jpg",0,0
//Break Periods
//Storyboard Layer 0 (Background)
//Storyboard Layer 1 (Fail)
//Storyboard Layer 2 (Pass)
//Storyboard Layer 3 (Foreground)
//Storyboard Sound Samples

[TimingPoints]
2102.09090909091,458.014545454544,4,2,1,30,1,0
9430,-90.9090909090909,4,2,1,40,0,0
23628,-90.9090909090909,4,2,1,60,0,0
33934,-90.9090909090909,4,2,1,60,0,0
52483,-71.4285714285714,4,1,1,80,0,1
78361,-83.3333333333333,4,1,1,60,0,1
82254,-100,4,1,1,50,0,1
84544,-100,4,2,1,30,0,0

[Colours]
Combo1 : 128,128,255
Combo2 : 255,0,0
Combo3 : 18,124,255
Combo4 : 0,255,0
Combo5 : 255,192,0

[HitObjects]
208,64,2102,6,0,P|280:112|288:220,1,180,4|8,0:0|0:0,0:0:0:0:
160,216,2789,2,0,P|188:264|244:280,1,90
284,116,3247,2,0,P|196:112|108:168,1,180
228,296,3934,1,0,0:0:0:0:
324,244,4163,1,0,0:0:0:0:
380,152,4392,1,0,0:0:0:0:
300,140,4621,2,0,P|228:136|184:160,1,90
256,228,5079,1,0,0:0:0:0:
336,64,5308,1,8,0:0:0:0:
352,316,5766,6,0,P|388:296|424:216,1,90,4|0,0:0|0:0,0:0:0:0:
452,180,6224,2,0,P|432:140|380:92,1,90
348,172,6682,2,0,P|260:192|212:304,1,180,0|8,0:0|0:0,0:0:0:0:
300,252,7369,1,0,0:0:0:0:
404,220,7598,1,0,0:0:0:0:
340,132,7827,1,0,0:0:0:0:
232,116,8056,2,0,P|188:192|196:272,1,135,8|0,0:0|0:0,0:0:0:0:
308,228,8743,1,0,0:0:0:0:
344,200,8857,1,0,0:0:0:0:
380,172,8972,2,0,P|364:116|312:52,1,135,8|0,0:0|0:0,0:0:0:0:
272,56,9430,5,4,0:0:0:0:
168,72,9659,1,0,0:0:0:0:
168,72,9773,1,0,0:0:0:0:
168,72,9888,2,0,P|92:112|96:152,1,99.0000030212403,8|0,0:0|0:0,0:0:0:0:
100,232,10346,2,0,P|160:304|272:252,1,198.000006042481,0|8,0:0|0:0,0:0:0:0:
192,180,11033,1,0,0:0:0:0:
100,84,11262,5,0,0:0:0:0:
196,56,11491,1,0,0:0:0:0:
196,56,11605,1,0,0:0:0:0:
196,56,11720,2,0,P|264:52|328:92,1,99.0000030212403,8|0,0:0|0:0,0:0:0:0:
360,144,12178,2,0,P|376:224|296:304,1,198.000006042481,0|8,0:0|0:0,0:0:0:0:
212,280,13094,5,4,0:0:0:0:
360,148,13323,1,0,0:0:0:0:
180,68,13552,1,8,0:0:0:0:
200,264,13781,1,0,0:0:0:0:
308,216,14010,2,0,P|332:172|240:60,1,198.000006042481,0|8,0:0|0:0,0:0:0:0:
180,152,14697,1,0,0:0:0:0:
180,272,14926,6,0,P|232:288|384:120,1,297.000009063721,0|8,0:0|0:0,0:0:0:0:
308,120,15728,1,0,0:0:0:0:
272,104,15842,1,0,0:0:0:0:
224,92,15957,1,0,0:0:0:0:
188,84,16071,1,0,0:0:0:0:
144,240,16300,1,8,0:0:0:0:
320,108,16415,1,0,0:0:0:0:
324,248,16529,1,0,0:0:0:0:
108,140,16758,5,4,0:0:0:0:
268,288,16987,1,0,0:0:0:0:
328,48,17216,1,8,0:0:0:0:
148,216,17445,1,0,0:0:0:0:
392,184,17674,2,0,P|436:192|456:136,1,99.0000030212403
220,76,18132,5,8,0:0:0:0:
100,80,18361,2,0,P|96:136|196:232,1,198.000006042481
304,208,19048,2,0,P|328:164|296:104,1,99.0000030212403,8|0,0:0|0:0,0:0:0:0:
196,124,19506,1,0,0:0:0:0:
196,124,19621,1,0,0:0:0:0:
196,124,19735,2,0,P|160:188|192:240,1,99.0000030212403,0|8,0:0|0:0,0:0:0:0:
252,288,20193,1,0,0:0:0:0:
344,212,20422,6,0,P|400:160|376:108,2,99.0000030212403,4|0|8,0:0|0:0|0:0,0:0:0:0:
228,244,21109,1,0,0:0:0:0:
72,124,21338,1,0,0:0:0:0:
244,28,21567,1,0,0:0:0:0:
228,244,21796,1,8,0:0:0:0:
120,76,22025,5,8,0:0:0:0:
484,36,22483,1,8,0:0:0:0:
260,328,22941,1,8,0:0:0:0:
256,96,23628,1,8,0:0:0:0:
124,292,24086,6,0,P|96:220|168:124,1,198.000006042481,4|0,0:0|0:0,0:0:0:0:
264,68,24773,1,0,0:0:0:0:
356,144,25002,1,0,0:0:0:0:
248,196,25231,1,0,0:0:0:0:
152,124,25460,6,0,P|120:176|156:336,1,198.000006042481,8|0,0:0|0:0,0:0:0:0:
216,224,26147,1,0,0:0:0:0:
296,136,26376,1,8,0:0:0:0:
180,116,26605,1,0,0:0:0:0:
220,228,26834,1,0,0:0:0:0:
292,324,27063,2,0,P|408:288|436:192,1,198.000006042481
324,184,27750,1,4,0:0:0:0:
272,80,27979,5,0,0:0:0:0:
208,72,28208,1,8,0:0:0:0:
168,160,28437,1,0,0:0:0:0:
184,184,28552,2,0,P|192:212|220:232,1,49.5000015106202
380,172,28895,1,0,0:0:0:0:
296,256,29124,2,0,P|136:248|128:116,1,297.000009063721,8|0,0:0|0:0,0:0:0:0:
224,84,30040,2,0,P|264:72|332:116,1,99.0000030212403,8|0,0:0|0:0,0:0:0:0:
440,248,30498,1,0,0:0:0:0:
268,344,30727,1,0,0:0:0:0:
200,152,30957,1,8,0:0:0:0:
400,156,31186,1,0,0:0:0:0:
200,284,31644,6,0,P|160:216|188:92,1,198.000006042481
300,92,32331,1,0,0:0:0:0:
300,92,32445,1,0,0:0:0:0:
300,92,32560,1,0,0:0:0:0:
416,64,32789,1,8,0:0:0:0:
416,184,33018,2,0,P|332:296|244:312,2,198.000006042481
180,144,34392,6,0,L|184:208,2,49.5000015106202,0|0|8,0:0|0:0|0:0,0:0:0:0:
104,152,34850,2,0,L|104:208,2,49.5000015106202,0|0|4,0:0|0:0|0:0,0:0:0:0:
188,68,35308,1,0,0:0:0:0:
320,216,35537,1,8,0:0:0:0:
128,164,35766,1,0,0:0:0:0:
320,112,35995,1,0,0:0:0:0:
128,60,36224,2,0,P|192:64|312:136,1,198.000006042481
192,160,36911,2,0,P|244:188|360:300,1,198.000006042481,0|8,0:0|0:0,0:0:0:0:
108,292,37827,5,0,0:0:0:0:
64,100,38056,1,0,0:0:0:0:
252,36,38285,1,8,0:0:0:0:
408,156,38514,1,0,0:0:0:0:
288,312,38743,1,4,0:0:0:0:
52,316,39201,6,0,P|56:240|120:104,1,198.000006042481,8|0,0:0|0:0,0:0:0:0:
216,96,39888,1,0,0:0:0:0:
216,96,40117,1,8,0:0:0:0:
216,96,40346,1,0,0:0:0:0:
156,200,40575,2,0,P|160:236|208:292,1,99.0000030212403
316,300,41033,2,0,P|360:284|472:176,1,198.000006042481,8|0,0:0|0:0,0:0:0:0:
252,84,41949,1,8,0:0:0:0:
148,252,42178,1,0,0:0:0:0:
344,220,42407,1,4,0:0:0:0:
164,304,42865,5,8,0:0:0:0:
104,116,43094,1,0,0:0:0:0:
276,216,43323,1,0,0:0:0:0:
472,80,43781,2,0,P|400:48|268:44,1,198.000006042481,8|0,0:0|0:0,0:0:0:0:
340,144,44468,1,0,0:0:0:0:
372,260,44697,2,0,P|292:260|200:184,1,198.000006042481,8|0,0:0|0:0,0:0:0:0:
272,92,45384,1,0,0:0:0:0:
344,184,45613,1,8,0:0:0:0:
128,248,46071,5,4,0:0:0:0:
144,212,46185,1,0,0:0:0:0:
164,184,46300,1,0,0:0:0:0:
220,112,46529,2,0,P|252:64|328:72,1,99.0000030212403,8|0,0:0|0:0,0:0:0:0:
316,148,46987,2,0,P|400:148|420:256,1,198.000006042481,0|8,0:0|0:0,0:0:0:0:
348,216,47674,1,0,0:0:0:0:
232,112,47903,5,0,0:0:0:0:
200,96,48018,1,0,0:0:0:0:
168,84,48132,1,0,0:0:0:0:
208,192,48361,2,0,P|244:220|276:184,1,99.0000030212403,8|0,0:0|0:0,0:0:0:0:
316,56,48819,1,0,0:0:0:0:
224,116,49048,6,0,P|252:100|316:104,1,99.0000030212403,0|8,0:0|0:0,0:0:0:0:
420,196,49506,2,0,P|440:216|444:288,1,99.0000030212403,0|4,0:0|0:0,0:0:0:0:
328,304,49964,1,0,0:0:0:0:
160,200,50193,1,8,0:0:0:0:
352,136,50422,1,0,0:0:0:0:
176,40,50651,1,0,0:0:0:0:
152,156,50880,2,0,P|120:148|64:100,1,99.0000030212403,0|8,0:0|0:0,0:0:0:0:
168,44,51338,1,0,0:0:0:0:
284,72,51567,2,0,P|328:76|372:112,1,99.0000030212403
276,184,52025,2,0,P|276:204|196:252,1,99.0000030212403,8|0,0:0|0:0,0:0:0:0:
84,312,52483,5,0,0:0:0:0:
256,128,52712,1,0,0:0:0:0:
424,316,52941,1,8,0:0:0:0:
136,228,53399,6,0,P|88:148|184:32,1,251.999992309571,4|8,0:0|0:0,0:0:0:0:
204,180,54086,1,0,0:0:0:0:
304,296,54315,2,0,P|336:288|388:196,1,125.999996154785
260,136,54773,1,8,0:0:0:0:
392,64,55002,2,0,P|416:80|436:224,1,125.999996154785
308,200,55460,1,0,0:0:0:0:
180,124,55689,2,0,P|168:168|184:252,1,125.999996154785,8|0,0:0|0:0,0:0:0:0:
300,152,56147,1,0,0:0:0:0:
452,160,56376,6,0,P|448:192|392:280,1,125.999996154785,0|8,0:0|0:0,0:0:0:0:
256,228,56834,1,0,0:0:0:0:
108,192,57063,2,0,P|116:152|176:88,1,125.999996154785,4|0,0:0|0:0,0:0:0:0:
320,120,57521,2,0,P|300:204|128:328,1,251.999992309571,8|0,0:0|0:0,0:0:0:0:
132,172,58208,2,0,P|164:136|240:112,1,125.999996154785,0|8,0:0|0:0,0:0:0:0:
316,276,58895,5,0,0:0:0:0:
176,136,59239,1,0,0:0:0:0:
292,260,59582,2,0,P|420:220|292:72,1,377.999988464356,0|8,0:0|0:0,0:0:0:0:
56,40,60727,5,4,0:0:0:0:
132,100,60956,1,0,0:0:0:0:
160,124,61071,1,0,0:0:0:0:
180,144,61185,2,0,P|212:188|268:232,1,125.999996154785,8|0,0:0|0:0,0:0:0:0:
380,56,61643,1,0,0:0:0:0:
380,56,61758,1,0,0:0:0:0:
380,56,61872,1,0,0:0:0:0:
284,132,62101,1,8,0:0:0:0:
424,252,62331,2,0,P|396:296|336:336,1,125.999996154785
220,236,62789,2,0,P|240:200|328:148,1,125.999996154785,0|8,0:0|0:0,0:0:0:0:
452,100,63247,2,0,P|416:84|312:48,1,125.999996154785
220,156,63705,5,0,0:0:0:0:
272,300,63934,2,0,P|200:344|24:264,1,251.999992309571,8|4,0:0|0:0,0:0:0:0:
120,168,64621,1,0,0:0:0:0:
228,64,64850,2,0,P|268:48|356:76,1,125.999996154785,8|0,0:0|0:0,0:0:0:0:
448,176,65308,1,0,0:0:0:0:
356,296,65537,1,0,0:0:0:0:
292,160,65766,2,0,P|212:104|48:128,1,251.999992309571,8|0,0:0|0:0,0:0:0:0:
52,344,66453,1,0,0:0:0:0:
296,280,66682,1,8,0:0:0:0:
52,216,66911,1,0,0:0:0:0:
296,152,67140,1,0,0:0:0:0:
52,88,67369,1,0,0:0:0:0:
296,24,67598,1,8,0:0:0:0:
436,84,68056,6,0,P|456:188|388:332,1,251.999992309571,4|8,0:0|0:0,0:0:0:0:
256,272,68743,1,0,0:0:0:0:
436,136,68972,1,0,0:0:0:0:
216,84,69201,1,0,0:0:0:0:
260,216,69430,2,0,P|328:192|380:136,1,125.999996154785
384,240,69888,2,0,P|432:204|472:140,1,125.999996154785,4|0,0:0|0:0,0:0:0:0:
332,132,70346,1,0,0:0:0:0:
184,32,70575,1,0,0:0:0:0:
168,180,70804,5,0,0:0:0:0:
300,256,71033,2,0,P|308:240|320:184,1,62.9999980773926
336,124,71262,2,0,P|308:92|228:64,1,125.999996154785,8|0,0:0|0:0,0:0:0:0:
80,68,71720,2,0,P|40:124|48:216,1,125.999996154785,4|0,0:0|0:0,0:0:0:0:
172,244,72178,2,0,P|216:256|292:212,1,125.999996154785,8|0,0:0|0:0,0:0:0:0:
352,88,72636,1,0,0:0:0:0:
208,40,72865,1,0,0:0:0:0:
104,152,73094,5,8,0:0:0:0:
104,152,73208,1,0,0:0:0:0:
104,152,73323,1,0,0:0:0:0:
104,152,73437,1,0,0:0:0:0:
104,152,73552,2,0,P|160:212|320:272,1,251.999992309571,0|8,0:0|0:0,0:0:0:0:
284,124,74239,2,0,P|340:180|368:236,1,125.999996154785
196,324,74697,1,0,0:0:0:0:
196,324,74811,1,0,0:0:0:0:
196,324,74926,1,0,0:0:0:0:
92,40,75384,5,4,0:0:0:0:
92,40,75498,1,0,0:0:0:0:
92,40,75613,1,0,0:0:0:0:
92,40,75727,1,0,0:0:0:0:
92,40,75842,2,0,P|124:60|192:136,1,125.999996154785,8|0,0:0|0:0,0:0:0:0:
280,240,76300,1,0,0:0:0:0:
428,212,76529,2,0,P|400:148|328:88,1,125.999996154785,0|8,0:0|0:0,0:0:0:0:
236,192,76987,5,0,0:0:0:0:
132,304,77216,1,0,0:0:0:0:
132,304,77330,1,0,0:0:0:0:
132,304,77445,1,0,0:0:0:0:
216,216,77674,2,0,P|256:192|308:124,1,125.999996154785,8|0,0:0|0:0,0:0:0:0:
208,80,78132,1,0,0:0:0:0:
144,200,78361,6,0,B|128:160|172:96,1,107.999996704102,8|8,0:0|0:0,0:0:0:0:
308,52,78819,1,0,0:0:0:0:
388,152,79048,1,4,0:0:0:0:
172,292,79506,2,0,P|148:308|84:320,2,53.9999983520508,8|0|0,0:0|0:0|0:0,0:0:0:0:
292,248,79964,2,0,P|324:212|364:140,1,107.999996704102
264,68,80422,2,0,B|176:68|80:172,1,215.999993408203,8|0,0:0|0:0,0:0:0:0:
144,284,81109,1,0,0:0:0:0:
352,328,81338,1,8,0:0:0:0:
400,120,81567,1,0,0:0:0:0:
196,56,81796,1,0,0:0:0:0:
156,268,82254,6,0,P|212:296|312:240,1,180,8|4,0:0|0:0,0:0:0:0:
440,52,83170,1,8,0:0:0:0:
76,320,83628,1,0,0:0:0:0:
436,52,84086,1,8,0:0:0:0:
100,296,84544,2,0,P|48:216|88:112,1,180,4|0,0:0|0:0,0:0:0:0:
256,192,85231,12,0,87979,0:0:0:0:
