osu file format v14

[General]
AudioFilename: ED2.mp3
AudioLeadIn: 0
PreviewTime: 5870
Countdown: 0
SampleSet: Soft
StackLeniency: 0.7
Mode: 0
LetterboxInBreaks: 1
WidescreenStoryboard: 1

[Editor]
DistanceSpacing: 1.4
BeatDivisor: 4
GridSize: 4
TimelineZoom: 1

[Metadata]
Title:Platinum Jet
TitleUnicode:プラチナジェット
Artist:Doughnut Quintet
ArtistUnicode:どーなつ◎くいんてっと
Creator:ns920
Version:Hard
Source:SHIROBAKO
Tags:白箱 ending tvsize 木村珠莉 佳村はるか 千菅春香 高野麻美 大和田仁美
BeatmapID:656161
BeatmapSetID:289532

[Difficulty]
HPDrainRate:6
CircleSize:4
OverallDifficulty:6
ApproachRate:7.5
SliderMultiplier:1.4
SliderTickRate:1

[Events]
//Background and Video events
0,0,"tKlHp3J.jpg",0,0
//Break Periods
//Storyboard Layer 0 (Background)
//Storyboard Layer 1 (Fail)
//Storyboard Layer 2 (Pass)
//Storyboard Layer 3 (Foreground)
//Storyboard Sound Samples

[TimingPoints]
2102.09090909091,458.014545454544,4,2,1,40,1,0
9430,-111.111111111111,4,2,1,40,0,0
23628,-125,4,2,1,60,0,0
52483,-100,4,1,1,80,0,1
60727,-66.6666666666667,4,1,1,80,0,1
62560,-100,4,1,1,80,0,1
68056,-66.6666666666667,4,1,1,80,0,1
70804,-100,4,1,1,80,0,1
75384,-83.3333333333333,4,1,1,70,0,1
82254,-100,4,1,1,50,0,1
84544,-100,4,2,1,30,0,0

[Colours]
Combo1 : 128,128,255
Combo2 : 255,0,0
Combo3 : 18,124,255
Combo4 : 0,255,0
Combo5 : 255,192,0

[HitObjects]
32,104,2102,6,0,P|36:148|88:232,1,140,4|8,0:0|0:0,0:0:0:0:
148,284,2789,2,0,P|172:312|200:328,1,70
300,332,3247,2,0,P|356:344|436:304,1,140
352,252,3934,1,0,0:0:0:0:
256,232,4163,1,0,0:0:0:0:
332,172,4392,2,0,P|304:108|236:48,1,140,8|0,0:0|0:0,0:0:0:0:
232,156,5079,1,0,0:0:0:0:
160,88,5308,1,8,0:0:0:0:
356,80,5766,6,0,P|400:176|348:268,2,210,4|0|8,0:0|0:0|0:0,0:0:0:0:
268,120,7369,1,0,0:0:0:0:
308,208,7598,1,0,0:0:0:0:
212,200,7827,2,0,P|80:168|40:92,1,210
240,80,8972,5,8,0:0:0:0:
416,60,9430,5,4,0:0:0:0:
460,136,9659,1,0,0:0:0:0:
388,184,9888,1,8,0:0:0:0:
336,112,10117,1,0,0:0:0:0:
264,60,10346,2,0,P|216:72|144:128,1,125.999996154785,0|8,0:0|0:0,0:0:0:0:
236,144,11033,1,0,0:0:0:0:
312,192,11262,2,0,P|288:236|208:292,1,125.999996154785,0|8,0:0|0:0,0:0:0:0:
52,296,12178,1,0,0:0:0:0:
164,160,12636,1,8,0:0:0:0:
324,84,13094,5,4,0:0:0:0:
384,152,13323,1,0,0:0:0:0:
316,208,13552,1,8,0:0:0:0:
252,148,13781,1,0,0:0:0:0:
200,76,14010,2,0,P|164:120|176:192,1,125.999996154785,0|8,0:0|0:0,0:0:0:0:
248,144,14697,1,0,0:0:0:0:
288,64,14926,6,0,P|340:80|388:204,1,188.999994232178,0|8,0:0|0:0,0:0:0:0:
376,284,15842,1,0,0:0:0:0:
308,336,16071,1,0,0:0:0:0:
244,276,16300,1,8,0:0:0:0:
208,196,16529,1,0,0:0:0:0:
140,252,16758,5,4,0:0:0:0:
196,320,16987,1,0,0:0:0:0:
260,260,17216,1,8,0:0:0:0:
328,200,17445,1,0,0:0:0:0:
264,140,17674,1,0,0:0:0:0:
104,216,18132,5,8,0:0:0:0:
116,304,18361,2,0,P|144:304|200:232,1,125.999996154785
112,224,19048,2,0,P|72:220|48:184,1,62.9999980773926,8|0,0:0|0:0,0:0:0:0:
116,140,19506,2,0,P|148:88|212:92,1,125.999996154785,0|8,0:0|0:0,0:0:0:0:
180,172,20193,1,0,0:0:0:0:
244,232,20422,2,0,P|224:252|176:272,2,62.9999980773926,4|0|8,0:0|0:0|0:0,0:0:0:0:
360,100,21338,1,0,0:0:0:0:
296,36,21567,1,0,0:0:0:0:
208,44,21796,1,8,0:0:0:0:
128,80,22025,5,0,0:0:0:0:
288,276,22483,1,0,0:0:0:0:
420,52,22941,1,0,0:0:0:0:
96,144,23628,1,8,0:0:0:0:
176,276,24086,6,0,P|248:296|344:240,1,168,4|0,0:0|0:0,0:0:0:0:
284,196,25002,1,0,0:0:0:0:
204,188,25231,1,0,0:0:0:0:
136,148,25460,2,0,P|184:100|284:104,1,168,8|0,0:0|0:0,0:0:0:0:
244,172,26376,1,8,0:0:0:0:
168,160,26605,1,0,0:0:0:0:
204,92,26834,1,0,0:0:0:0:
280,100,27063,2,0,P|340:148|328:188,1,112
260,188,27750,1,4,0:0:0:0:
200,136,27979,6,0,P|240:104|348:136,1,168
288,184,28895,1,0,0:0:0:0:
284,264,29124,2,0,P|208:256|140:184,1,168,8|0,0:0|0:0,0:0:0:0:
196,136,30040,2,0,P|208:156|248:180,1,56,8|0,0:0|0:0,0:0:0:0:
312,180,30498,2,0,P|348:200|364:236,1,56
304,272,30957,2,0,P|328:308|392:308,1,112,8|4,0:0|0:0,0:0:0:0:
396,228,31644,6,0,P|384:180|308:172,1,112
304,236,32331,2,0,P|276:224|256:184,1,56
260,124,32789,1,8,0:0:0:0:
296,52,33018,2,0,P|184:68|180:184,1,224
340,296,34392,6,0,P|356:224|328:188,1,112
280,248,35079,2,0,P|240:240|232:216,1,56,4|0,0:0|0:0,0:0:0:0:
204,156,35537,1,8,0:0:0:0:
140,108,35766,1,0,0:0:0:0:
88,168,35995,1,0,0:0:0:0:
144,224,36224,2,0,P|184:248|240:212,1,112
200,148,36911,2,0,P|256:128|316:164,1,112,0|8,0:0|0:0,0:0:0:0:
292,304,37827,5,0,0:0:0:0:
356,348,38056,1,0,0:0:0:0:
420,304,38285,1,8,0:0:0:0:
404,228,38514,1,0,0:0:0:0:
340,180,38743,1,4,0:0:0:0:
184,188,39201,6,0,P|108:168|104:120,1,112,8|0,0:0|0:0,0:0:0:0:
176,116,39888,1,0,0:0:0:0:
256,112,40117,1,8,0:0:0:0:
216,180,40346,1,0,0:0:0:0:
144,208,40575,2,0,P|160:240|188:260,1,56
252,268,41033,2,0,P|296:252|324:184,1,112,8|0,0:0|0:0,0:0:0:0:
480,192,41949,1,8,0:0:0:0:
424,136,42178,1,0,0:0:0:0:
380,200,42407,1,4,0:0:0:0:
276,316,42865,5,8,0:0:0:0:
240,244,43094,1,0,0:0:0:0:
200,312,43323,1,0,0:0:0:0:
76,216,43781,2,0,P|88:152|144:124,1,112,8|0,0:0|0:0,0:0:0:0:
160,196,44468,1,0,0:0:0:0:
204,260,44697,2,0,P|232:216|224:140,1,112,8|0,0:0|0:0,0:0:0:0:
180,100,45384,1,0,0:0:0:0:
252,68,45613,1,8,0:0:0:0:
400,116,46071,5,4,0:0:0:0:
432,188,46300,1,0,0:0:0:0:
412,264,46529,2,0,L|360:304,1,56,8|0,0:0|0:0,0:0:0:0:
292,316,46987,2,0,P|240:332|192:284,1,112,0|8,0:0|0:0,0:0:0:0:
348,252,47903,5,0,0:0:0:0:
272,232,48132,1,0,0:0:0:0:
196,220,48361,2,0,L|144:164,1,56,8|0,0:0|0:0,0:0:0:0:
120,108,48819,1,0,0:0:0:0:
172,48,49048,6,0,P|212:56|232:80,1,56,0|8,0:0|0:0,0:0:0:0:
288,112,49506,2,0,L|324:176,1,56,0|4,0:0|0:0,0:0:0:0:
272,244,49964,1,0,0:0:0:0:
212,192,50193,1,8,0:0:0:0:
288,176,50422,1,0,0:0:0:0:
272,252,50651,1,0,0:0:0:0:
192,244,50880,2,0,P|160:236|136:208,1,56,0|8,0:0|0:0,0:0:0:0:
116,148,51338,1,0,0:0:0:0:
156,80,51567,2,0,P|160:52|184:24,1,56
256,24,52025,1,8,0:0:0:0:
452,52,52483,5,0,0:0:0:0:
400,184,52712,1,0,0:0:0:0:
288,100,52941,1,8,0:0:0:0:
192,272,53399,6,0,P|120:256|88:180,1,140,4|8,0:0|0:0,0:0:0:0:
112,108,54086,1,0,0:0:0:0:
208,88,54315,2,0,P|256:92|284:112,1,70
220,184,54773,1,8,0:0:0:0:
284,256,55002,2,0,P|332:220|344:192,1,70
268,140,55460,1,0,0:0:0:0:
356,92,55689,2,0,P|388:104|424:144,1,70,8|0,0:0|0:0,0:0:0:0:
336,188,56147,1,0,0:0:0:0:
412,252,56376,6,0,P|388:280|336:292,1,70,0|8,0:0|0:0,0:0:0:0:
312,204,56834,1,0,0:0:0:0:
256,284,57063,2,0,P|232:280|188:240,1,70,4|0,0:0|0:0,0:0:0:0:
136,176,57521,2,0,P|88:208|80:292,1,140,8|0,0:0|0:0,0:0:0:0:
172,256,58208,2,0,P|204:232|220:196,1,70,0|8,0:0|0:0,0:0:0:0:
300,28,58895,5,0,0:0:0:0:
436,272,59353,1,8,0:0:0:0:
156,300,59811,2,0,P|96:260|72:184,1,140,0|8,0:0|0:0,0:0:0:0:
208,60,60727,6,0,P|368:84|472:308,2,420.000016021729,4|0|0,0:0|0:0|0:0,0:0:0:0:
168,152,62789,2,0,P|204:180|240:176,1,70,0|8,0:0|0:0,0:0:0:0:
324,168,63247,2,0,P|360:180|384:228,1,70
300,264,63705,5,0,0:0:0:0:
204,284,63934,2,0,P|180:256|228:172,1,140,8|4,0:0|0:0,0:0:0:0:
296,232,64621,1,0,0:0:0:0:
368,168,64850,2,0,P|356:124|268:88,1,140,8|0,0:0|0:0,0:0:0:0:
252,180,65537,1,0,0:0:0:0:
252,276,65766,2,0,P|184:228|184:152,1,140,8|0,0:0|0:0,0:0:0:0:
44,32,66682,1,8,0:0:0:0:
324,48,67140,1,0,0:0:0:0:
184,292,67598,1,8,0:0:0:0:
476,256,68056,6,0,P|400:320|280:320,1,210.000008010865,4|8,0:0|0:0,0:0:0:0:
384,208,68743,1,0,0:0:0:0:
352,64,68972,1,0,0:0:0:0:
240,160,69201,1,0,0:0:0:0:
144,48,69430,2,0,P|80:148|132:216,1,210.000008010865,8|0,0:0|0:0,0:0:0:0:
232,112,70117,2,0,P|240:152|192:244,1,105.000004005432,0|8,0:0|0:0,0:0:0:0:
124,320,70575,1,0,0:0:0:0:
80,232,70804,5,0,0:0:0:0:
152,168,71033,1,0,0:0:0:0:
224,100,71262,2,0,P|272:64|312:64,1,70,8|0,0:0|0:0,0:0:0:0:
300,160,71720,2,0,P|344:140|352:120,1,70,4|0,0:0|0:0,0:0:0:0:
400,36,72178,2,0,P|436:60|452:92,1,70,8|0,0:0|0:0,0:0:0:0:
400,168,72636,1,0,0:0:0:0:
328,104,72865,1,0,0:0:0:0:
244,52,73094,2,0,B|116:196|320:272,2,280,8|0|8,0:0|0:0|0:0,0:0:0:0:
448,168,75384,6,0,P|428:280|220:336,1,335.999989746094,4|0,0:0|0:0,0:0:0:0:
124,304,76529,2,0,P|108:248|140:196,1,83.9999974365235,0|8,0:0|0:0,0:0:0:0:
220,276,76987,1,0,0:0:0:0:
328,232,77216,2,0,P|280:204|236:200,1,83.9999974365235,0|8,0:0|0:0,0:0:0:0:
192,300,77674,2,0,P|156:252|184:144,1,167.999994873047
408,196,78590,6,0,B|360:108|284:76,1,167.999994873047,8|4,0:0|0:0,0:0:0:0:
64,148,79506,1,8,0:0:0:0:
128,248,79735,1,0,0:0:0:0:
172,140,79964,2,0,P|204:112|248:100,1,83.9999974365235
344,160,80422,2,0,B|352:240|272:320,1,167.999994873047,8|0,0:0|0:0,0:0:0:0:
192,236,81109,1,0,0:0:0:0:
124,140,81338,1,8,0:0:0:0:
240,112,81567,1,0,0:0:0:0:
196,220,81796,1,0,0:0:0:0:
116,40,82254,6,0,P|176:32|260:36,1,140,8|4,0:0|0:0,0:0:0:0:
432,116,83170,1,8,0:0:0:0:
260,336,83628,1,0,0:0:0:0:
104,104,84086,1,8,0:0:0:0:
232,176,84544,2,0,P|276:180|352:248,1,140,0|8,0:0|0:0,0:0:0:0:
256,192,85231,12,0,87979,0:0:0:0:
