osu file format v14

[General]
AudioFilename: ED2.mp3
AudioLeadIn: 0
PreviewTime: 5870
Countdown: 0
SampleSet: Soft
StackLeniency: 0.7
Mode: 0
LetterboxInBreaks: 1
WidescreenStoryboard: 0

[Editor]
DistanceSpacing: 1
BeatDivisor: 4
GridSize: 4
TimelineZoom: 1

[Metadata]
Title:Platinum Jet
TitleUnicode:プラチナジェット
Artist:Doughnut Quintet
ArtistUnicode:どーなつ◎くいんてっと
Creator:ns920
Version:Easy
Source:SHIROBAKO
Tags:白箱 ending tvsize 木村珠莉 佳村はるか 千菅春香 高野麻美 大和田仁美
BeatmapID:652663
BeatmapSetID:289532

[Difficulty]
HPDrainRate:2
CircleSize:3
OverallDifficulty:2
ApproachRate:3
SliderMultiplier:0.8
SliderTickRate:1

[Events]
//Background and Video events
0,0,"tKlHp3J.jpg",0,0
//Break Periods
//Storyboard Layer 0 (Background)
//Storyboard Layer 1 (Fail)
//Storyboard Layer 2 (Pass)
//Storyboard Layer 3 (Foreground)
//Storyboard Sound Samples

[TimingPoints]
2102.09090909091,458.014545454544,4,2,1,40,1,0
23628,-100,4,2,1,60,0,0
52483,-100,4,1,1,80,0,1
84544,-100,4,2,1,30,0,0

[Colours]
Combo1 : 128,128,255
Combo2 : 255,0,0
Combo3 : 18,124,255
Combo4 : 0,255,0
Combo5 : 255,192,0

[HitObjects]
128,188,2102,6,0,P|200:252|276:256,1,160
340,252,3476,2,0,P|424:200|432:136,1,160,8|8,0:0|0:0,0:0:0:0:
356,156,4850,2,0,P|304:132|272:128,1,80,0|8,0:0|0:0,0:0:0:0:
284,48,5766,2,0,P|176:88|144:136,1,160,4|0,0:0|0:0,0:0:0:0:
208,184,7598,2,0,P|312:184|416:276,1,240,0|8,0:0|0:0,0:0:0:0:
344,308,9430,6,0,P|256:300|172:276,1,160,4|0,0:0|0:0,0:0:0:0:
304,172,11262,2,0,P|376:152|456:200,1,160
316,280,13094,2,0,P|224:300|160:264,1,160,4|0,0:0|0:0,0:0:0:0:
224,216,14468,1,8,0:0:0:0:
276,156,14926,2,0,B|304:88|352:64,2,120,0|0|8,0:0|0:0|0:0,0:0:0:0:
64,268,17674,5,0,0:0:0:0:
216,220,18590,1,0,0:0:0:0:
344,124,19506,2,0,P|384:96|400:60,1,80,0|8,0:0|0:0,0:0:0:0:
320,52,20422,1,4,0:0:0:0:
248,84,20880,2,0,P|224:44|180:24,1,80,8|0,0:0|0:0,0:0:0:0:
92,88,22025,5,8,0:0:0:0:
112,164,22483,1,0,0:0:0:0:
176,116,22941,1,8,0:0:0:0:
376,140,24086,6,0,P|440:192|388:240,1,160,4|0,0:0|0:0,0:0:0:0:
328,204,25460,1,8,0:0:0:0:
264,252,25918,2,0,P|204:208|252:152,1,160,0|8,0:0|0:0,0:0:0:0:
320,180,27292,1,8,0:0:0:0:
380,128,27750,6,0,P|396:180|328:264,1,160,4|0,0:0|0:0,0:0:0:0:
296,192,29124,1,0,0:0:0:0:
272,116,29582,2,0,P|204:92|160:128,1,120
132,188,30727,2,0,P|144:228|172:264,1,80
248,268,31644,6,0,P|320:236|368:160,1,160
328,100,33018,2,0,P|280:80|160:68,1,160
192,144,34392,2,0,P|160:192|172:224,1,80
256,192,35079,12,0,36911,0:0:0:0:
288,308,38743,5,4,0:0:0:0:
336,244,39201,2,0,B|388:160|300:96,1,160,8|8,0:0|0:0,0:0:0:0:
276,176,40575,1,0,0:0:0:0:
236,104,41033,2,0,P|200:168|224:256,1,160,8|8,0:0|0:0,0:0:0:0:
284,204,42407,1,4,0:0:0:0:
256,128,42865,2,0,P|304:132|344:160,1,80,8|0,0:0|0:0,0:0:0:0:
284,212,43781,2,0,P|184:200|144:140,1,160,8|8,0:0|0:0,0:0:0:0:
376,84,46071,6,0,P|444:140|436:288,1,240,4|8,0:0|0:0,0:0:0:0:
384,224,47903,2,0,P|324:272|116:192,1,320
188,156,50193,1,8,0:0:0:0:
268,168,50651,1,0,0:0:0:0:
240,92,51109,1,8,0:0:0:0:
440,224,52483,5,0,0:0:0:0:
384,280,52941,1,8,0:0:0:0:
324,228,53399,6,0,P|208:212|80:228,2,240,4|0|0,0:0|0:0|0:0,0:0:0:0:
168,48,57521,2,0,P|120:104|172:176,1,160,8|0,0:0|0:0,0:0:0:0:
216,228,58895,1,0,0:0:0:0:
284,272,59353,1,8,0:0:0:0:
288,192,59811,1,0,0:0:0:0:
248,348,60727,6,0,P|352:296|400:184,2,240,4|0|0,0:0|0:0|0:0,0:0:0:0:
176,312,63934,2,0,P|104:268|56:196,1,160,8|8,0:0|0:0,0:0:0:0:
112,144,65308,2,0,P|136:184|168:204,1,80,0|8,0:0|0:0,0:0:0:0:
236,240,66224,1,0,0:0:0:0:
280,176,66681,1,8,0:0:0:0:
316,248,67139,1,0,0:0:0:0:
464,192,68056,6,0,P|380:96|260:68,2,240,4|0|0,0:0|0:0|0:0,0:0:0:0:
284,280,71720,1,4,0:0:0:0:
216,236,72178,1,8,0:0:0:0:
252,164,72636,1,0,0:0:0:0:
320,208,73094,2,0,B|416:180|436:124|336:20,1,240,8|0,0:0|0:0,0:0:0:0:
184,36,75384,6,0,P|48:132|112:328,1,400,4|0,0:0|0:0,0:0:0:0:
192,324,78132,2,0,P|236:320|276:300,1,80,0|8,0:0|0:0,0:0:0:0:
328,252,79048,1,0,0:0:0:0:
360,180,79506,1,8,0:0:0:0:
308,120,79964,1,0,0:0:0:0:
272,192,80422,2,0,B|200:120|237:78|280:48,1,160,8|0,0:0|0:0,0:0:0:0:
408,132,82254,6,0,P|440:180|372:236,1,160,8|8,0:0|0:0,0:0:0:0:
296,248,83628,1,0,0:0:0:0:
220,276,84086,1,8,0:0:0:0:
284,320,84544,2,0,P|328:284|340:252,1,80
256,192,85231,12,0,87979,0:0:0:0:
