osu file format v13

[General]
AudioFilename: DotEXE - Pandemonium.mp3
AudioLeadIn: 0
PreviewTime: -1
Countdown: 0
SampleSet: None
StackLeniency: 0.3
Mode: 0
LetterboxInBreaks: 1
WidescreenStoryboard: 1

[Editor]
DistanceSpacing: 1
BeatDivisor: 8
GridSize: 32
TimelineZoom: 2.3

[Metadata]
Title:Pandemonium
TitleUnicode:Pandemonium
Artist:DotEXE
ArtistUnicode:DotEXE
Creator:Rewind1337
Version:Lunatic
Source:
Tags:Trap Dubstep dnb EDM Electro
BeatmapID:572796
BeatmapSetID:249110

[Difficulty]
HPDrainRate:5
CircleSize:4
OverallDifficulty:8
ApproachRate:9.5
SliderMultiplier:3
SliderTickRate:2

[Events]
//Background and Video events
0,0,"DotEXE bg.jpg",0,0
//Break Periods
2,114710,124746
//Storyboard Layer 0 (Background)
//Storyboard Layer 1 (Fail)
//Storyboard Layer 2 (Pass)
//Storyboard Layer 3 (Foreground)
//Storyboard Sound Samples

[TimingPoints]
20923.7623084108,326.086956521739,4,1,0,100,1,0
41793,-100,4,2,0,100,0,0
52228,-100,4,1,0,100,0,1
73097,-100,4,1,0,100,0,0
125271,-100,4,2,0,100,0,0

[Colours]
Combo1 : 210,0,0
Combo2 : 0,232,0
Combo3 : 0,0,225
Combo4 : 0,232,232

[HitObjects]
256,192,18315,12,0,20597,0:0:0:0:
64,192,20923,6,0,B|32:160|32:160|64:128|128:128,1,150
128,224,21249,2,0,B|96:256|96:256|128:288|192:288,1,150
192,128,21575,2,0,B|160:96|160:96|192:64|256:64,1,150,0|0,0:0|0:0,0:0:0:0:
256,288,21902,2,0,B|224:320|224:320|256:352|320:352,1,150
320,64,22228,6,0,B|288:32|288:32|320:0|384:0,1,150,0|0,0:0|0:0,0:0:0:0:
480,192,22554,1,0,0:0:0:0:
352,192,22717,1,0,0:0:0:0:
256,192,22880,2,0,B|224:96|128:64|128:64|96:128|128:192,1,300
64,320,23532,5,0,0:0:0:0:
207,320,23695,1,0,0:0:0:0:
352,320,23858,2,0,B|448:320|448:224,1,150
448,64,24184,1,0,0:0:0:0:
320,64,24347,2,0,P|256:32|169:88,1,150
64,64,24673,1,0,0:0:0:0:
96,160,24836,6,0,P|185:148|216:213,1,150
320,192,25162,1,0,0:0:0:0:
448,192,25325,1,0,0:0:0:0:
320,320,25488,1,0,0:0:0:0:
448,320,25652,1,0,0:0:0:0:
320,192,25815,2,0,B|246:192|246:192|246:273,1,150
448,192,26141,6,0,B|480:160|480:160|448:128|384:128,1,150
384,224,26467,2,0,B|416:256|416:256|384:288|320:288,1,150
320,128,26793,2,0,B|352:96|352:96|320:64|256:64,1,150,0|0,0:0|0:0,0:0:0:0:
256,288,27120,2,0,B|288:320|288:320|256:352|192:352,1,150
192,64,27446,6,0,B|224:32|224:32|192:0|128:0,1,150,0|0,0:0|0:0,0:0:0:0:
32,192,27772,1,0,0:0:0:0:
160,192,27935,1,0,0:0:0:0:
256,192,28097,2,0,B|288:96|384:64|384:64|416:128|384:192,1,300
448,320,28750,5,0,0:0:0:0:
305,320,28912,1,0,0:0:0:0:
160,320,29075,2,0,B|64:320|64:224,1,150
64,64,29402,1,0,0:0:0:0:
192,64,29564,2,0,P|256:32|343:88,1,150
448,64,29890,1,0,0:0:0:0:
416,160,30053,6,0,P|326:148|295:213,1,150
448,320,30380,1,0,0:0:0:0:
320,320,30543,1,0,0:0:0:0:
224,192,30706,1,0,0:0:0:0:
320,64,30870,1,0,0:0:0:0:
448,64,31032,1,0,0:0:0:0:
160,288,31358,5,0,0:0:0:0:
256,64,31847,1,0,0:0:0:0:
352,288,32296,1,0,0:0:0:0:
120,203,32662,1,0,0:0:0:0:
338,93,33152,1,0,0:0:0:0:
267,327,33641,1,0,0:0:0:0:
144,114,33967,5,0,0:0:0:0:
382,169,34456,1,0,0:0:0:0:
178,303,34905,1,0,0:0:0:0:
220,60,35271,1,0,0:0:0:0:
366,256,35761,1,0,0:0:0:0:
366,256,35842,1,0,0:0:0:0:
366,256,35923,1,0,0:0:0:0:
124,227,36249,1,0,0:0:0:0:
313,68,36575,5,0,0:0:0:0:
299,312,37064,1,0,0:0:0:0:
132,134,37513,1,0,0:0:0:0:
379,134,37879,1,0,0:0:0:0:
212,312,38369,1,0,0:0:0:0:
198,68,38858,1,0,0:0:0:0:
387,227,39184,5,0,0:0:0:0:
145,256,39673,1,0,0:0:0:0:
291,60,40122,1,0,0:0:0:0:
352,192,40488,1,0,0:0:0:0:
224,192,40652,1,0,0:0:0:0:
96,192,40815,1,0,0:0:0:0:
96,160,40896,1,0,0:0:0:0:
96,128,40978,1,0,0:0:0:0:
224,128,41141,1,0,0:0:0:0:
352,128,41304,1,0,0:0:0:0:
352,256,41467,1,0,0:0:0:0:
256,288,41793,5,0,0:0:0:0:
128,288,41956,1,0,0:0:0:0:
128,160,42119,2,0,P|128:96|224:96,1,150
256,160,42445,1,0,0:0:0:0:
384,160,42608,1,0,0:0:0:0:
384,288,42771,1,0,0:0:0:0:
256,288,42934,2,0,P|192:288|192:192,1,150,0|0,0:0|0:0,2:0:0:0:
256,160,43260,1,0,0:0:0:0:
256,32,43423,1,0,0:0:0:0:
384,32,43586,2,0,B|352:96|416:128|384:192|384:192,1,150
256,160,43912,1,0,0:0:0:0:
128,160,44075,1,0,0:0:0:0:
128,32,44238,1,0,0:0:0:0:
256,288,44402,5,0,0:0:0:0:
384,288,44565,1,0,0:0:0:0:
384,160,44728,2,0,P|384:96|288:96,1,150
256,160,45054,1,0,0:0:0:0:
128,160,45217,1,0,0:0:0:0:
128,288,45380,1,0,0:0:0:0:
256,288,45543,2,0,P|320:288|320:192,1,150,0|0,0:0|0:0,2:0:0:0:
256,160,45869,1,0,0:0:0:0:
256,32,46032,1,0,0:0:0:0:
128,32,46195,2,0,B|160:96|96:128|128:192|128:192,1,150
256,160,46521,1,0,0:0:0:0:
256,32,46684,1,0,0:0:0:0:
384,32,46847,1,0,0:0:0:0:
255,192,47010,5,0,0:0:0:0:
227,192,47092,1,0,0:0:0:0:
207,211,47173,1,0,0:0:0:0:
186,230,47255,1,0,0:0:0:0:
186,258,47336,1,0,0:0:0:0:
186,286,47418,1,0,0:0:0:0:
206,306,47499,1,0,0:0:0:0:
225,325,47581,1,0,0:0:0:0:
253,325,47662,5,0,0:0:0:0:
281,325,47744,1,0,0:0:0:0:
300,305,47825,1,0,0:0:0:0:
320,285,47907,1,0,0:0:0:0:
320,256,47988,1,0,0:0:0:0:
320,228,48070,1,0,0:0:0:0:
300,207,48152,1,0,0:0:0:0:
277,191,48233,1,0,0:0:0:0:
255,192,48315,5,0,0:0:0:0:
227,192,48397,1,0,0:0:0:0:
207,172,48478,1,0,0:0:0:0:
186,153,48560,1,0,0:0:0:0:
186,125,48641,1,0,0:0:0:0:
186,97,48723,1,0,0:0:0:0:
206,77,48804,1,0,0:0:0:0:
225,58,48886,1,0,0:0:0:0:
253,58,48967,5,0,0:0:0:0:
281,58,49049,1,0,0:0:0:0:
300,78,49130,1,0,0:0:0:0:
320,98,49212,1,0,0:0:0:0:
320,127,49293,1,0,0:0:0:0:
320,156,49375,1,0,0:0:0:0:
300,176,49457,1,0,0:0:0:0:
277,192,49538,1,0,0:0:0:0:
256,192,49619,5,0,0:0:0:0:
256,320,49782,1,0,0:0:0:0:
128,320,49945,1,0,0:0:0:0:
128,64,50271,1,0,0:0:0:0:
384,64,50597,1,0,0:0:0:0:
384,320,50923,1,0,0:0:0:0:
128,320,51249,1,0,0:0:0:0:
128,64,51575,1,0,0:0:0:0:
384,64,51902,1,0,0:0:0:0:
384,320,52228,5,0,0:0:0:0:
256,192,52554,1,0,0:0:0:0:
224,160,52635,1,0,0:0:0:0:
192,128,52717,2,0,B|160:96|160:96|224:96|224:96|192:64|192:64|192:64|192:64|192:64,1,150
128,32,53043,1,0,0:0:0:0:
64,96,53206,2,0,P|48:168|64:192,2,75,0|0|0,0:0|0:0|0:0,0:0:0:0:
128,160,53532,1,0,0:0:0:0:
160,192,53613,1,0,0:0:0:0:
192,224,53695,1,0,0:0:0:0:
256,288,53858,1,0,0:0:0:0:
320,224,54021,1,0,0:0:0:0:
288,320,54184,1,0,0:0:0:0:
352,256,54347,1,0,0:0:0:0:
416,192,54510,2,0,P|433:121|392:60,1,150
288,64,54836,5,0,0:0:0:0:
256,192,55162,1,0,0:0:0:0:
224,224,55243,1,0,0:0:0:0:
185,262,55325,2,0,B|224:288|224:288|224:288|224:288|192:352|192:352|192:320|192:320|195:316,1,150
128,352,55651,1,0,0:0:0:0:
64,288,55814,2,0,P|45:255|46:218,2,75,0|0|0,0:0|0:0|0:0,0:0:0:0:
128,224,56140,1,0,0:0:0:0:
64,160,56303,1,0,0:0:0:0:
128,96,56466,1,0,0:0:0:0:
192,160,56630,1,0,0:0:0:0:
256,96,56792,1,0,0:0:0:0:
320,160,56955,1,0,0:0:0:0:
416,192,57118,2,0,P|433:262|392:323,1,150
288,320,57445,5,0,0:0:0:0:
256,192,57771,1,0,0:0:0:0:
256,160,57852,1,0,0:0:0:0:
256,128,57934,2,0,B|288:96|288:96|224:96|224:96|256:64|256:64|256:64|256:64|256:64,1,150
352,32,58260,1,0,0:0:0:0:
448,96,58423,2,0,P|464:168|448:192,2,75,0|0|0,0:0|0:0|0:0,0:0:0:0:
384,160,58749,1,0,0:0:0:0:
352,192,58830,1,0,0:0:0:0:
320,224,58912,1,0,0:0:0:0:
256,288,59075,1,0,0:0:0:0:
192,224,59238,1,0,0:0:0:0:
128,288,59401,1,0,0:0:0:0:
64,224,59564,1,0,0:0:0:0:
128,160,59727,2,0,P|111:89|152:28,1,150
224,64,60053,5,0,0:0:0:0:
256,192,60379,1,0,0:0:0:0:
288,224,60460,1,0,0:0:0:0:
320,256,60543,2,0,B|256:320|256:320|288:352|288:352|320:352,1,150
384,352,60868,1,0,0:0:0:0:
447,288,61031,2,0,P|466:255|465:218,2,75,0|0|0,0:0|0:0|0:0,0:0:0:0:
448,128,61358,1,0,2:0:0:0:
324,40,61521,1,0,2:0:0:0:
204,132,61685,1,0,2:0:0:0:
448,128,62010,1,0,0:0:0:0:
204,132,62336,1,0,0:0:0:0:
256,64,62662,6,0,B|224:96|224:96|288:160|288:160|224:224|224:224|288:288|288:288,2,300,0|0|0,0:0|0:0|0:0,0:0:0:0:
448,64,63641,1,0,0:0:0:0:
384,128,63804,1,0,0:0:0:0:
320,192,63967,2,0,B|288:224|288:224|288:256|288:256,2,75,0|0|0,0:0|0:0|0:0,0:0:0:0:
384,256,64293,1,0,0:0:0:0:
448,320,64456,1,0,0:0:0:0:
352,352,64619,2,0,L|192:352,1,150
32,288,64945,2,0,L|192:288,1,150
256,64,65271,6,0,B|288:96|288:96|224:160|224:160|288:224|288:224|224:288|224:288,2,300,0|0|0,0:0|0:0|0:0,0:0:0:0:
160,38,66086,1,0,0:0:0:0:
64,64,66250,1,0,0:0:0:0:
128,128,66413,1,0,0:0:0:0:
192,192,66576,2,0,B|224:224|224:224|224:256|224:256,2,75,0|0|0,0:0|0:0|0:0,0:0:0:0:
128,256,66902,1,0,0:0:0:0:
64,320,67065,1,0,0:0:0:0:
160,352,67228,2,0,L|320:352,1,150
480,288,67554,2,0,L|320:288,1,150
384,192,67880,6,0,B|352:160|352:160|288:224|288:224|224:160|224:160|160:224|160:224,2,300,0|0|0,0:0|0:0|0:0,0:0:0:0:
480,224,68695,1,0,0:0:0:0:
416,288,68859,1,0,0:0:0:0:
320,320,69022,1,0,0:0:0:0:
256,256,69185,2,0,B|224:288|224:288|192:288|194:288,2,75,0|0|0,0:0|0:0|0:0,0:0:0:0:
352,224,69511,1,0,0:0:0:0:
448,192,69674,1,0,0:0:0:0:
374,128,69837,2,0,L|224:128,1,150
170,64,70163,2,0,L|320:64,1,150
128,192,70488,6,0,B|160:160|160:160|224:224|224:224|288:160|288:160|352:224|352:224,2,300,0|0|0,0:0|0:0|0:0,0:0:0:0:
32,224,71303,1,0,0:0:0:0:
96,288,71467,1,0,0:0:0:0:
192,320,71630,1,0,0:0:0:0:
256,256,71793,2,0,B|288:288|288:288|320:288|317:288,2,75,0|0|0,0:0|0:0|0:0,0:0:0:0:
160,224,72119,1,0,0:0:0:0:
64,192,72282,1,0,0:0:0:0:
138,128,72445,2,0,L|288:128,1,150
342,64,72771,6,0,L|192:64,1,150
256,352,73097,6,0,L|256:192,1,150
256,96,73423,1,0,0:0:0:0:
117,112,73586,2,0,L|256:192,1,150
339,240,73912,1,0,0:0:0:0:
394,112,74075,2,0,L|256:192,1,150
117,112,74402,6,0,L|256:192,1,150
339,240,74728,1,0,0:0:0:0:
394,112,74891,2,0,L|256:192,1,150
172,239,75217,1,0,0:0:0:0:
256,352,75380,2,0,L|256:192,1,150
394,112,75706,6,0,L|256:192,1,150
172,240,76032,1,0,0:0:0:0:
256,352,76195,2,0,L|256:192,1,150
256,96,76521,1,0,0:0:0:0:
117,112,76684,2,0,L|256:192,1,150
256,352,77010,6,0,L|256:192,1,150
256,96,77336,1,0,0:0:0:0:
117,112,77499,2,0,L|256:192,1,150
339,240,77825,1,0,0:0:0:0:
394,112,77988,2,0,L|256:192,1,150
256,192,78315,5,0,0:0:0:0:
256,64,78478,1,0,0:0:0:0:
256,256,78804,1,0,0:0:0:0:
128,256,78967,1,0,0:0:0:0:
256,128,79293,1,0,0:0:0:0:
384,128,79456,1,0,0:0:0:0:
256,192,79619,5,0,0:0:0:0:
366,256,79782,1,0,0:0:0:0:
200,160,80108,1,0,0:0:0:0:
264,49,80271,1,0,0:0:0:0:
311,223,80597,1,0,0:0:0:0:
247,334,80760,1,0,0:0:0:0:
256,192,80923,5,0,0:0:0:0:
145,256,81086,1,0,0:0:0:0:
311,160,81412,1,0,0:0:0:0:
375,270,81575,1,0,0:0:0:0:
256,192,81738,8,8,83369,0:0:0:0:
192,192,83532,6,0,B|200:192|200:192|200:184|200:184|200:200|200:200|200:192|200:192|208:192|208:192|208:184|208:184|208:200|208:200|208:192|208:192|216:192|216:192|216:184|216:184|216:200|216:200|216:192|216:192|224:192|224:192|224:184|224:184|224:200|224:200|224:192|224:192|232:192|232:192|232:184|232:184|232:200|232:200|232:192|232:192|240:192|240:192|240:184|240:184|240:200|240:200|240:192|240:192|248:192|248:192|248:184|248:184|248:200|248:200|248:192|248:192|256:192|256:192|256:184|256:184|256:200|256:200|256:192|256:192|264:192|264:192|264:184|264:184|264:200|264:200|264:192|264:192|272:192|272:192|272:184|272:184|272:200|272:200|272:192|272:192|280:192|280:192|280:184|280:184|280:200|280:200|280:192|280:192|288:192|288:192|288:184|288:184|288:200|288:200|288:192|288:192|296:192|296:192|296:184|296:184|296:200|296:200|296:192|296:192|304:192|304:192|304:184|304:184|304:200|304:200|304:192|304:192|312:192|312:192|312:184|312:184|312:200|312:200|312:192|312:192|320:192|320:192|344:192,1,600
384,192,84347,2,0,L|384:352,2,150,0|0|0,0:0|0:0|0:0,0:0:0:0:
288,192,84836,1,0,0:0:0:0:
192,192,84999,2,0,L|192:32,2,150,0|0|0,0:0|0:0|0:0,0:0:0:0:
96,192,85488,1,0,0:0:0:0:
160,288,85652,1,0,0:0:0:0:
160,288,85733,1,0,0:0:0:0:
160,288,85815,1,0,0:0:0:0:
256,288,85978,1,0,0:0:0:0:
288,136,86141,6,0,B|284:143|284:143|290:147|290:147|277:139|277:139|284:143|284:143|280:150|280:150|286:154|286:154|273:146|273:146|280:150|280:150|276:157|276:157|282:161|282:161|269:153|269:153|276:157|276:157|272:164|272:164|278:168|278:168|265:160|265:160|272:164|272:164|268:171|268:171|274:175|274:175|261:167|261:167|268:171|268:171|264:178|264:178|270:182|270:182|257:174|257:174|264:178|264:178|260:185|260:185|266:189|266:189|253:181|253:181|260:185|260:185|256:192|256:192|262:196|262:196|249:188|249:188|256:192|256:192|252:198|252:198|258:202|258:202|245:194|245:194|252:198|252:198|248:205|248:205|254:209|254:209|241:201|241:201|248:205|248:205|244:212|244:212|250:216|250:216|237:208|237:208|244:212|244:212|240:219|240:219|246:223|246:223|233:215|233:215|240:219|240:219|236:226|236:226|242:230|242:230|229:222|229:222|236:226|236:226|232:233|232:233|238:237|238:237|225:229|225:229|232:233|232:233|228:240|228:240|234:244|234:244|221:236|221:236|228:240|228:240|224:247|224:247|212:268,1,600
192,302,86956,2,0,L|53:222,2,150,0|0|0,0:0|0:0|0:0,0:0:0:0:
242,223,87445,1,0,0:0:0:0:
288,136,87608,2,0,L|426:216,2,150,0|0|0,0:0|0:0|0:0,0:0:0:0:
336,53,88097,1,0,0:0:0:0:
220,60,88261,1,0,0:0:0:0:
220,60,88342,1,0,0:0:0:0:
220,60,88424,1,0,0:0:0:0:
172,144,88587,1,0,0:0:0:0:
288,247,88749,6,0,B|284:240|284:240|277:244|277:244|290:236|290:236|284:240|284:240|280:233|280:233|273:237|273:237|286:229|286:229|280:233|280:233|276:226|276:226|269:230|269:230|282:222|282:222|276:226|276:226|272:219|272:219|265:223|265:223|278:215|278:215|272:219|272:219|268:212|268:212|261:216|261:216|274:208|274:208|268:212|268:212|264:205|264:205|257:209|257:209|270:201|270:201|264:205|264:205|260:198|260:198|253:202|253:202|266:194|266:194|260:198|260:198|256:192|256:192|249:196|249:196|262:188|262:188|256:192|256:192|252:185|252:185|245:189|245:189|258:181|258:181|252:185|252:185|248:178|248:178|241:182|241:182|254:174|254:174|248:178|248:178|244:171|244:171|237:175|237:175|250:167|250:167|244:171|244:171|240:164|240:164|233:168|233:168|246:160|246:160|240:164|240:164|236:157|236:157|229:161|229:161|242:153|242:153|236:157|236:157|232:150|232:150|225:154|225:154|238:146|238:146|232:150|232:150|228:143|228:143|221:147|221:147|234:139|234:139|228:143|228:143|224:136|224:136|212:115,1,600
192,81,89565,2,0,L|330:1,2,150,0|0|0,0:0|0:0|0:0,0:0:0:0:
238,158,90054,1,0,0:0:0:0:
288,247,90217,2,0,L|149:327,2,150,0|0|0,0:0|0:0|0:0,0:0:0:0:
336,330,90706,1,0,0:0:0:0:
387,227,90869,1,0,0:0:0:0:
387,227,90950,1,0,0:0:0:0:
387,227,91032,1,0,0:0:0:0:
339,144,91195,1,0,0:0:0:0:
256,32,91358,6,0,B|256:40|256:40|264:40|264:40|248:40|248:40|256:40|256:40|256:48|256:48|264:48|264:48|248:48|248:48|256:48|256:48|256:56|256:56|264:56|264:56|248:56|248:56|256:56|256:56|256:64|256:64|264:64|264:64|248:64|248:64|256:64|256:64|256:72|256:72|264:72|264:72|248:72|248:72|256:72|256:72|256:80|256:80|264:80|264:80|248:80|248:80|256:80|256:80|256:88|256:88|264:88|264:88|248:88|248:88|256:88|256:88|256:96|256:96|264:95|264:95|248:96|248:96|256:96|256:96|256:104|256:104|264:104|264:104|248:104|248:104|256:104|256:104|256:112|256:112|264:112|264:112|248:112|248:112|256:112|256:112|256:120|256:120|264:120|264:120|248:120|248:120|256:120|256:120|256:128|256:128|264:128|264:128|248:128|248:128|256:128|256:128|256:136|256:136|264:136|264:136|248:136|248:136|256:136|256:136|256:144|256:144|264:144|264:144|248:144|248:144|256:144|256:144|256:152|256:152|264:152|264:152|248:152|248:152|256:152|256:152|256:160|256:160|256:184,1,600
256,224,92173,2,0,L|256:256|256:384,2,150,0|0|0,0:0|0:0|0:0,0:0:0:0:
256,96,92662,2,0,L|416:96,2,150,0|0|0,0:0|0:0|0:0,0:0:0:0:
352,160,93152,2,0,L|192:192,1,150
289,242,93478,2,0,L|128:320,1,150
96,256,93804,1,0,0:0:0:0:
191,341,93967,6,0,B|192:64|256:64|256:64|256:64|256:64,1,300
384,64,94456,1,0,0:0:0:0:
384,64,94537,1,0,0:0:0:0:
384,64,94619,1,0,0:0:0:0:
384,160,94782,2,0,L|384:256,2,75,0|0|0,0:0|0:0|0:0,0:0:0:0:
288,160,95108,1,0,0:0:0:0:
288,256,95271,1,0,0:0:0:0:
288,256,95434,2,0,L|448:256,2,150,0|0|0,0:0|0:0|0:0,0:0:0:0:
224,256,95923,1,0,0:0:0:0:
224,256,96086,1,0,0:0:0:0:
224,256,96249,1,0,0:0:0:0:
224,256,96412,1,0,0:0:0:0:
321,341,96575,6,0,B|320:64|256:64|256:64|256:64|256:64,1,300
128,64,97064,1,0,0:0:0:0:
128,64,97145,1,0,0:0:0:0:
128,64,97227,1,0,0:0:0:0:
128,160,97390,2,0,L|128:256,2,75,0|0|0,0:0|0:0|0:0,0:0:0:0:
224,160,97716,1,0,0:0:0:0:
224,256,97879,1,0,0:0:0:0:
224,256,98042,2,0,L|64:256,2,150,0|0|0,0:0|0:0|0:0,0:0:0:0:
288,256,98531,1,0,0:0:0:0:
288,256,98694,1,0,0:0:0:0:
288,256,98857,1,0,0:0:0:0:
288,256,99020,1,0,0:0:0:0:
191,341,99184,6,0,B|320:256|96:224|256:64|256:64|256:64|256:64,1,300
288,160,99673,1,0,0:0:0:0:
288,160,99754,1,0,0:0:0:0:
288,160,99836,1,0,0:0:0:0:
384,224,99999,2,0,L|384:128,2,75,0|0|0,0:0|0:0|0:0,0:0:0:0:
288,224,100325,1,0,0:0:0:0:
192,224,100488,1,0,0:0:0:0:
192,128,100651,2,0,L|42:128,2,150,0|0|0,0:0|0:0|0:0,0:0:0:0:
256,64,101140,1,0,0:0:0:0:
256,64,101303,1,0,0:0:0:0:
256,64,101466,1,0,0:0:0:0:
256,64,101629,1,0,0:0:0:0:
352,64,101793,6,0,B|320:96|479:225|255:257|384:342,1,300
448,288,102282,1,0,0:0:0:0:
448,288,102363,1,0,0:0:0:0:
448,288,102445,1,0,0:0:0:0:
448,192,102608,2,0,L|448:32,1,150
352,64,102934,2,0,L|352:224,1,150
256,192,103260,2,0,L|256:32,1,150
160,64,103586,2,0,L|160:224,2,150,0|0|0,0:0|0:0|0:0,0:0:0:0:
64,192,104075,2,0,L|64:32,1,150,0|0,0:0|0:0,0:0:0:0:
256,64,104402,6,0,L|256:160,2,75,0|0|0,0:0|0:0|0:0,0:0:0:0:
256,192,104891,2,0,L|352:192,2,75,0|0|0,0:0|0:0|0:0,0:0:0:0:
256,320,105380,2,0,L|256:224,2,75,0|0|0,0:0|0:0|0:0,0:0:0:0:
212,312,105706,6,0,L|245:222,2,75,0|0|0,0:0|0:0|0:0,0:0:0:0:
256,192,106195,2,0,L|165:159,2,75,0|0|0,0:0|0:0|0:0,0:0:0:0:
299,71,106684,2,0,L|266:161,2,75,0|0|0,0:0|0:0|0:0,0:0:0:0:
338,93,107010,6,0,L|276:167,2,75,0|0|0,0:0|0:0|0:0,0:0:0:0:
256,192,107499,2,0,L|329:253,2,75,0|0|0,0:0|0:0|0:0,0:0:0:0:
173,290,107988,2,0,L|235:216,2,75,0|0|0,0:0|0:0|0:0,0:0:0:0:
145,256,108314,6,0,L|228:208,2,75,0|0|0,0:0|0:0|0:0,0:0:0:0:
256,192,108641,1,0,0:0:0:0:
352,192,108804,1,0,0:0:0:0:
352,96,108967,2,0,L|192:96,1,150,0|0,0:0|0:0,0:0:0:0:
366,127,109293,2,0,L|283:176,2,75,0|0|0,0:0|0:0|0:0,0:0:0:0:
382,169,109619,6,0,L|287:186,2,75,0|0|0,0:0|0:0|0:0,0:0:0:0:
256,192,110108,2,0,L|272:286,2,75,0|0|0,0:0|0:0|0:0,0:0:0:0:
129,214,110597,2,0,L|224:197,2,75,0|0|0,0:0|0:0|0:0,0:0:0:0:
129,169,110923,6,0,L|224:186,2,75,0|0|0,0:0|0:0|0:0,0:0:0:0:
256,192,111412,2,0,L|272:97,2,75,0|0|0,0:0|0:0|0:0,0:0:0:0:
382,214,111901,2,0,L|287:197,2,75,0|0|0,0:0|0:0|0:0,0:0:0:0:
352,192,112228,5,0,0:0:0:0:
256,192,112391,1,0,0:0:0:0:
160,192,112554,1,0,0:0:0:0:
160,288,112717,1,0,0:0:0:0:
192,288,112798,1,0,0:0:0:0:
224,288,112880,1,0,0:0:0:0:
320,288,113043,1,0,0:0:0:0:
416,288,113206,1,0,0:0:0:0:
416,192,113369,1,0,0:0:0:0:
416,96,113532,1,0,0:0:0:0:
384,96,113613,1,0,0:0:0:0:
352,96,113695,1,0,0:0:0:0:
320,96,113777,1,0,0:0:0:0:
288,96,113858,1,0,0:0:0:0:
192,96,114021,1,0,0:0:0:0:
192,192,114184,1,0,0:0:0:0:
96,192,114347,1,0,0:0:0:0:
96,288,114510,1,0,0:0:0:0:
256,288,125271,5,0,0:3:0:0:
384,288,125434,1,0,0:3:0:0:
384,160,125597,2,0,P|384:96|288:96,1,150
256,160,125923,1,0,0:3:0:0:
128,160,126086,1,0,0:3:0:0:
128,288,126249,1,0,0:3:0:0:
256,288,126412,2,0,P|320:288|320:192,1,150,0|0,0:0|0:0,2:3:0:0:
256,160,126738,1,0,0:3:0:0:
256,32,126901,1,0,0:3:0:0:
128,32,127064,2,0,B|160:96|96:128|128:192|128:192,1,150
256,160,127390,1,0,0:3:0:0:
384,160,127553,1,0,0:3:0:0:
384,32,127716,1,0,0:3:0:0:
256,288,127880,5,0,0:3:0:0:
128,288,128043,1,0,0:3:0:0:
128,160,128206,2,0,P|128:96|224:96,1,150
256,160,128532,1,0,0:3:0:0:
384,160,128695,1,0,0:3:0:0:
384,288,128858,1,0,0:3:0:0:
256,288,129021,2,0,P|192:288|192:192,1,150,0|0,0:0|0:0,2:3:0:0:
256,160,129347,1,0,0:3:0:0:
256,32,129510,1,0,0:3:0:0:
384,32,129673,2,0,B|352:96|416:128|384:192|384:192,1,150
256,160,129999,1,0,0:3:0:0:
256,32,130162,1,0,0:3:0:0:
128,32,130325,1,0,0:3:0:0:
257,192,130488,5,0,0:3:0:0:
285,192,130570,1,0,0:3:0:0:
305,211,130651,1,0,0:3:0:0:
326,230,130733,1,0,0:3:0:0:
326,258,130814,1,0,0:3:0:0:
326,286,130896,1,0,0:3:0:0:
306,306,130977,1,0,0:3:0:0:
287,325,131059,1,0,0:3:0:0:
259,325,131140,5,0,0:3:0:0:
231,325,131222,1,0,0:3:0:0:
212,305,131303,1,0,0:3:0:0:
192,285,131385,1,0,0:3:0:0:
192,256,131466,1,0,0:3:0:0:
192,228,131548,1,0,0:3:0:0:
212,207,131630,1,0,0:3:0:0:
235,191,131711,1,0,0:3:0:0:
257,192,131793,5,0,0:3:0:0:
285,192,131875,1,0,0:3:0:0:
305,172,131956,1,0,0:3:0:0:
326,153,132038,1,0,0:3:0:0:
326,125,132119,1,0,0:3:0:0:
326,97,132201,1,0,0:3:0:0:
306,77,132282,1,0,0:3:0:0:
287,58,132364,1,0,0:3:0:0:
259,58,132445,5,0,0:3:0:0:
231,58,132527,1,0,0:3:0:0:
212,78,132608,1,0,0:3:0:0:
192,98,132690,1,0,0:3:0:0:
192,127,132771,1,0,0:3:0:0:
192,156,132853,1,0,0:3:0:0:
212,176,132935,1,0,0:3:0:0:
235,192,133016,1,0,0:3:0:0:
256,192,133097,5,0,0:3:0:0:
256,320,133260,1,0,0:3:0:0:
384,320,133423,1,0,0:3:0:0:
384,64,133749,1,0,0:3:0:0:
128,64,134075,1,0,0:3:0:0:
64,128,134238,1,0,0:0:0:0:
148,151,134401,1,0,0:3:0:0:
160,256,134565,1,0,0:0:0:0:
160,256,134646,1,0,0:0:0:0:
160,256,134727,1,0,0:3:0:0:
64,256,134891,1,0,0:0:0:0:
160,256,135054,2,0,L|256:128,1,150
256,32,135380,1,0,0:3:0:0:
