osu file format v14

[General]
AudioFilename: Sayonara Trip.mp3
AudioLeadIn: 0
PreviewTime: -1
Countdown: 0
SampleSet: Normal
StackLeniency: 0.7
Mode: 0
LetterboxInBreaks: 1
WidescreenStoryboard: 1

[Editor]
Bookmarks: 15873,23120,30338,37556,42969,59210,66428,73646,88082,95300
DistanceSpacing: 0.5
BeatDivisor: 4
GridSize: 8
TimelineZoom: 1.5

[Metadata]
Title:Sayonara Trip
TitleUnicode:さよならトリップ
Artist:Dormir
ArtistUnicode:Dormir
Creator:tukamoto7km
Version:Extreme
Source:jubeat
Tags:tomosuke crimm knit reflec beat
BeatmapID:811613
BeatmapSetID:370291

[Difficulty]
HPDrainRate:5.5
CircleSize:5
OverallDifficulty:6
ApproachRate:8
SliderMultiplier:1.6
SliderTickRate:1

[Events]
//Background and Video events
0,0,"BG.jpg",0,0
//Break Periods
//Storyboard Layer 0 (Background)
//Storyboard Layer 1 (Fail)
//Storyboard Layer 2 (Pass)
//Storyboard Layer 3 (Foreground)
//Storyboard Sound Samples

[TimingPoints]
1466,451.127819548872,4,2,1,50,1,0
2819,-76.9230769230769,4,2,1,50,0,0
3270,-100,4,2,1,50,0,0
4623,-66.6666666666667,4,2,1,50,0,0
4962,-66.6666666666667,4,2,0,5,0,0
5075,-66.6666666666667,4,2,1,50,0,0
5526,-200,4,2,1,50,0,0
6202,-60.6060606060606,4,2,1,50,0,0
6879,-133.333333333333,4,2,1,50,0,0
7217,-133.333333333333,4,2,0,5,0,0
7330,-133.333333333333,4,2,0,50,0,0
8684,-50,4,1,1,70,0,0
9022,-50,4,2,0,5,0,0
9135,-66.6666666666667,4,1,1,70,0,0
9473,-100,4,2,0,5,0,0
9586,-100,4,1,1,70,0,0
9699,-100,4,2,0,5,0,0
9811,-66.6666666666667,4,2,1,70,0,0
10488,-83.3333333333333,4,1,1,70,0,0
10826,-100,4,2,0,5,0,0
10939,-50,4,1,1,70,0,0
11278,-100,4,2,0,5,0,0
11390,-200,4,1,1,70,0,0
12293,-66.6666666666667,4,1,1,70,0,0
12631,-66.6666666666667,4,2,0,5,0,0
12744,-100,4,1,1,70,0,0
12856,-100,4,2,0,5,0,0
12969,-100,4,2,1,70,0,0
13308,-66.6666666666667,4,2,1,70,0,0
13646,-83.3333333333333,4,1,1,70,0,0
14097,-100,4,3,0,70,0,0
15902,-200,4,1,1,70,0,0
16353,-66.6666666666667,4,1,1,70,0,0
16804,-83.3333333333333,4,1,1,70,0,0
17142,-83.3333333333333,4,2,0,5,0,0
17255,-83.3333333333333,4,1,1,70,0,0
17481,-100,4,1,1,70,0,0
18383,-66.6666666666667,4,1,1,70,0,0
18496,-66.6666666666667,4,2,0,5,0,0
18608,-71.4285714285714,4,1,1,70,0,0
19285,-66.6666666666667,4,1,1,70,0,0
19962,-142.857142857143,4,1,1,70,0,0
20864,-100,4,1,1,70,0,0
21315,-66.6666666666667,4,1,1,70,0,0
21653,-100,4,2,0,5,0,0
21766,-100,4,1,1,70,0,0
22894,-100,4,1,0,70,0,0
23120,-100,4,1,1,70,0,0
24022,-66.6666666666667,4,1,1,70,0,0
26052,-200,4,1,1,70,0,0
26165,-200,4,2,0,5,0,0
26278,-200,4,1,1,70,0,0
26503,-66.6666666666667,4,1,1,70,0,0
26616,-66.6666666666667,4,2,0,5,0,0
26729,-100,4,1,1,70,0,0
27067,-100,4,2,0,5,0,0
27180,-50,4,1,1,70,0,0
28533,-200,4,1,1,70,0,0
28872,-200,4,2,0,5,0,0
28984,-133.333333333333,4,1,1,70,0,0
29323,-133.333333333333,4,2,0,5,0,0
29435,-100,4,1,1,70,0,0
29774,-100,4,2,0,5,0,0
29887,-100,4,1,1,70,0,0
29999,-76.9230769230769,4,1,1,70,0,0
30338,-133.333333333333,4,1,1,70,0,0
30676,-133.333333333333,4,2,0,5,0,0
30789,-68.9655172413793,4,1,1,70,0,0
31240,-200,4,1,1,70,0,0
31691,-55.5555555555556,4,1,1,70,0,0
32142,-100,4,1,1,70,0,0
32819,-58.8235294117647,4,1,1,70,0,0
32932,-58.8235294117647,4,2,0,5,0,0
33044,-111.111111111111,4,1,1,70,0,0
33157,-111.111111111111,4,2,0,5,0,0
33270,-200,4,1,1,70,0,0
33383,-200,4,2,0,5,0,0
33496,-50,4,1,1,70,0,0
33947,-76.9230769230769,4,1,1,70,0,0
34623,-100,4,1,1,70,0,0
34962,-100,4,2,0,5,0,0
35075,-66.6666666666667,4,1,1,70,0,0
36653,-100,4,1,1,70,0,0
37556,-133.333333333333,4,1,1,70,0,0
38007,-100,4,1,1,70,0,0
38232,-55.5555555555556,4,1,1,70,0,0
39135,-66.6666666666667,4,1,1,70,0,0
39586,-200,4,1,1,70,0,0
39924,-200,4,2,0,5,0,0
40037,-66.6666666666667,4,1,1,70,0,0
40150,-66.6666666666667,4,2,0,5,0,0
40262,-200,4,1,1,70,0,0
41390,-83.3333333333333,4,1,1,70,0,0
41841,-133.333333333333,4,1,1,70,0,0
42180,-100,4,1,1,70,0,0
42518,-50,4,1,1,70,0,0
43420,-100,4,1,1,70,0,0
43759,-100,4,2,0,5,0,0
43872,-50,4,1,1,70,0,0
44323,-66.6666666666667,4,1,1,70,0,0
44774,-66.6666666666667,4,1,1,50,0,0
46578,-100,4,2,1,50,0,0
47819,-100,4,2,1,50,0,0
48383,-66.6666666666667,4,2,1,50,0,0
48947,-100,4,2,1,50,0,0
49285,-111.111111111111,4,2,1,50,0,0
49736,-181.818181818182,4,2,1,50,0,0
50638,-133.333333333333,4,2,1,50,0,0
53345,-133.333333333333,4,2,1,50,0,0
53684,-133.333333333333,4,2,1,50,0,0
53796,-133.333333333333,4,2,1,50,0,0
54022,-200,4,2,1,50,0,0
54473,-50,4,2,1,50,0,0
54924,-66.6666666666667,4,2,1,50,0,0
55375,-100,4,2,1,50,0,0
55601,-100,4,2,1,70,0,0
56165,-64.5161290322581,4,2,1,70,0,0
56503,-133.333333333333,4,2,1,70,0,0
56954,-100,4,2,1,70,0,0
57180,-66.6666666666667,4,2,1,70,0,0
57856,-66.6666666666667,4,2,1,70,0,0
58420,-100,4,2,1,70,0,0
58872,-83.3333333333333,4,2,1,70,0,0
59097,-83.3333333333333,4,2,0,5,0,0
59210,-50,4,1,1,70,0,1
59661,-66.6666666666667,4,1,1,70,0,1
60112,-76.9230769230769,4,1,1,70,0,1
60563,-83.3333333333333,4,1,1,70,0,1
61014,-71.4285714285714,4,1,1,70,0,1
61465,-125,4,1,1,70,0,1
61804,-125,4,2,0,5,0,1
61917,-66.6666666666667,4,1,1,70,0,1
62368,-76.9230769230769,4,1,1,70,0,1
62819,-55.5555555555556,4,1,1,70,0,1
63157,-55.5555555555556,4,2,0,5,0,1
63270,-76.9230769230769,4,1,1,70,0,1
63721,-59.8802395209581,4,1,1,70,0,1
64059,-59.8802395209581,4,2,0,5,0,1
64172,-117.647058823529,4,1,1,70,0,1
65526,-66.6666666666667,4,1,1,70,0,0
65977,-58.8235294117647,4,1,1,70,0,0
66428,-52.6315789473684,4,1,1,70,0,0
66766,-52.6315789473684,4,2,0,5,0,0
66879,-100,4,1,1,70,0,1
67330,-71.4285714285714,4,1,1,70,0,0
67443,-71.4285714285714,4,2,0,5,0,0
67556,-100,4,1,1,70,0,0
67669,-100,4,2,0,5,0,0
67781,-55.5555555555556,4,1,1,70,0,1
67894,-55.5555555555556,4,2,0,5,0,1
68232,-133.333333333333,4,1,1,70,0,0
68345,-133.333333333333,4,2,0,5,0,0
68458,-100,4,1,1,70,0,0
68571,-100,4,2,0,5,0,0
68684,-133.333333333333,4,1,1,70,0,1
68796,-133.333333333333,4,2,0,5,0,1
69135,-66.6666666666667,4,1,1,70,0,0
69247,-66.6666666666667,4,2,0,5,0,0
69360,-76.9230769230769,4,1,1,70,0,0
69473,-66.6666666666667,4,2,0,5,0,0
69586,-66.6666666666667,4,1,1,70,0,1
69924,-66.6666666666667,4,2,0,5,0,1
70037,-100,4,1,1,70,0,0
70488,-66.6666666666667,4,1,1,70,0,0
71841,-133.333333333333,4,1,1,70,0,0
72180,-133.333333333333,4,2,0,5,0,0
72293,-58.8235294117647,4,1,1,70,0,0
73195,-50,4,1,1,70,0,0
73646,-50,4,1,1,50,0,1
73759,-50,4,2,0,5,0,0
74097,-117.647058823529,4,1,1,50,0,0
75450,-100,4,1,1,50,0,0
79059,-66.6666666666667,4,1,1,50,0,0
79398,-66.6666666666667,4,2,0,5,0,0
79511,-66.6666666666667,4,1,1,50,0,0
79736,-100,4,1,1,50,0,0
80187,-66.6666666666667,4,1,1,50,0,0
80864,-74.0740740740741,4,1,1,50,0,0
82669,-83.3333333333333,4,1,1,50,0,0
84473,-133.333333333333,4,1,1,50,0,0
84924,-100,4,1,1,50,0,0
85037,-66.6666666666667,4,1,1,50,0,0
85375,-50,4,1,1,50,0,0
85601,-58.8235294117647,4,1,1,50,0,0
86052,-133.333333333333,4,1,1,50,0,0
86278,-55.5555555555556,4,1,1,50,0,1
86503,-55.5555555555556,4,1,1,50,0,0
86616,-55.5555555555556,4,1,1,50,0,1
86841,-55.5555555555556,4,1,1,50,0,0
86954,-55.5555555555556,4,1,1,50,0,1
87180,-55.5555555555556,4,1,1,50,0,0
87293,-55.5555555555556,4,1,1,50,0,1
87518,-55.5555555555556,4,1,1,50,0,0
87631,-200,4,1,1,50,0,0
88082,-200,4,1,1,70,0,0
88195,-100,4,1,1,70,0,0
88533,-62.5,4,1,1,70,0,1
88872,-90.9090909090909,4,1,1,70,0,1
89548,-100,4,1,1,70,0,1
89887,-66.6666666666667,4,1,1,70,0,1
90563,-66.6666666666667,4,1,1,70,0,1
91014,-100,4,1,1,70,0,1
91165,-100,4,2,0,5,0,1
91240,-58.8235294117647,4,1,1,70,0,1
91390,-58.8235294117647,4,2,0,5,0,1
91465,-100,4,1,1,70,0,0
92368,-100,4,1,1,70,0,0
93044,-50,4,1,1,70,0,1
94398,-50,4,1,1,70,0,0
95300,-114.942528735632,4,1,1,70,0,1
95638,-114.942528735632,4,2,0,5,0,1
95751,-100,4,1,1,70,0,1
102067,-100,4,1,1,70,0,0

[Colours]
Combo1 : 255,142,199
Combo2 : 89,172,255
Combo3 : 180,255,104
Combo4 : 255,139,83

[HitObjects]
136,264,1466,5,2,0:0:0:0:
128,260,1691,1,0,0:0:0:0:
124,254,1917,2,0,B|159:295|224:296|296:224|192:152|144:208,1,240,2|2,0:0|0:0,0:0:0:0:
124,254,2819,2,0,P|160:288|216:288,1,103.999995239258,2|0,0:0|0:0,0:0:0:0:
488,208,3270,6,0,B|456:160|384:160|400:256|464:224,1,160,2|2,0:0|0:0,0:0:0:0:
488,128,3947,6,0,B|478:88|485:48|485:48|478:88|447:121,1,160
240,40,4623,6,0,B|288:32|288:32|368:64|368:64|416:56,1,180.000006866455,2|0,0:0|0:0,0:0:0:0:
304,112,5075,1,2,0:0:0:0:
192,8,5526,6,0,P|180:28|192:56,1,40,2|0,0:0|0:0,0:0:0:0:
400,32,6202,2,0,P|352:48|304:120,1,132.00000125885
400,64,6879,6,0,P|360:80|336:128,1,90.0000034332277
432,152,7330,1,2,0:0:0:0:
400,132,7556,1,0,0:0:0:0:
432,96,7781,5,2,0:0:0:0:
464,208,8007,1,0,0:0:0:0:
384,168,8232,1,2,0:0:0:0:
416,280,8458,1,0,0:0:0:0:
384,216,8684,6,0,B|360:216|304:224|320:280|320:280|304:288|256:192|344:184,1,240,4|0,0:2|0:0,0:0:0:0:
384,280,9135,2,0,B|376:328|336:344|336:344|400:360|432:272,1,180.000006866455
320,280,9586,6,0,P|296:272|280:272,1,40
184,224,9811,2,0,B|184:280|184:280|136:224,2,120.000004577637,2|0|2,0:0|1:0|2:0,0:0:0:0:
312,112,10488,6,0,B|272:96|272:96|264:136|304:184|352:160,1,143.999995605469
326,166,10939,2,0,B|264:160|235:77|312:58|330:35|330:35|340:10|340:10|357:37,1,240
456,48,11390,6,0,L|440:88,1,40,0|2,0:0|2:0,0:0:0:0:
472,72,11841,1,0,0:0:0:0:
456,48,11954,1,2,2:0:0:0:
160,136,12293,6,0,B|120:168|128:216|128:216|96:112,1,180.000006866455
120,52,12744,2,0,P|136:76|132:92,1,40
100,80,12969,1,2,0:0:0:0:
336,128,13195,5,0,1:0:0:0:
296,84,13308,2,0,L|312:164,1,60.0000022888184,0|2,0:0|0:0,0:0:0:0:
440,24,13646,2,0,P|435:54|475:36,1,95.9999970703126,0|2,0:0|2:0,0:0:0:0:
488,72,14097,5,0,1:0:0:0:
464,88,14210,1,0,0:0:0:0:
432,88,14323,1,0,0:0:0:0:
376,72,14435,1,0,0:0:0:0:
368,64,14548,5,0,1:0:0:0:
364,108,14661,1,0,0:0:0:0:
392,144,14774,1,0,0:0:0:0:
448,168,14887,1,0,0:0:0:0:
460,164,14999,5,0,1:0:0:0:
420,176,15112,1,0,0:0:0:0:
356,208,15225,1,0,0:0:0:0:
340,252,15338,1,0,0:0:0:0:
360,292,15450,5,0,1:0:0:0:
424,252,15563,1,0,0:0:0:0:
432,248,15676,1,0,0:0:0:0:
440,244,15789,1,0,0:0:0:0:
448,240,15902,6,0,P|444:256|420:248,1,40,4|8,0:2|2:0,0:0:0:0:
32,184,16353,6,0,P|72:224|128:208,1,120.000004577637,8|8,0:0|2:0,0:0:0:0:
456,88,16804,2,0,P|467:50|436:89,1,143.999995605469
472,120,17255,5,8,0:0:0:0:
92,176,17481,2,0,P|56:156|44:108,2,80,8|0|8,2:0|0:0|2:0,0:0:0:0:
424,64,18157,5,8,0:0:0:0:
368,36,18383,2,0,P|356:68|376:96,1,60.0000022888184,8|0,2:0|0:0,0:0:0:0:
152,184,18608,6,0,B|184:160|184:160|164:252,1,111.999996582031,0|8,0:0|2:0,0:0:0:0:
104,232,19059,1,8,0:0:0:0:
368,36,19285,6,0,B|392:56|392:56|448:40|448:40|424:64,1,120.000004577637,8|0,2:0|0:0,0:0:0:0:
380,88,19623,1,2,2:0:0:0:
376,84,19736,1,8,2:0:0:0:
504,72,19962,6,0,B|476:100|476:100|496:104,1,55.9999982910157,8|8,0:0|2:0,0:0:0:0:
344,200,20413,5,0,0:0:0:0:
392,188,20526,1,2,2:0:0:0:
432,216,20638,1,8,2:0:0:0:
360,320,20864,6,0,B|376:272|376:272|400:296,1,80,8|8,0:0|2:0,2:0:0:0:
264,232,21315,6,0,B|236:256|256:328|256:328|244:280|240:272|200:264,1,180.000006866455
160,248,21766,1,8,0:0:0:0:
32,176,21992,5,8,2:0:0:0:
72,152,22105,1,2,2:0:0:0:
120,152,22217,5,0,0:0:0:0:
80,176,22330,1,2,2:0:0:0:
56,216,22443,1,8,2:0:0:0:
144,208,22669,5,8,0:0:0:0:
208,144,22894,5,4,0:0:0:0:
160,64,23120,6,0,B|168:112|256:144|240:32|208:24|156:68,1,160,0|8,0:0|0:0,0:0:0:0:
160,64,23796,1,8,2:0:0:0:
304,216,24022,6,0,B|344:160|344:96|344:96|344:160|328:216,1,240.000009155274,0|8,0:0|0:0,0:0:0:0:
416,160,24699,1,8,2:0:0:0:
240,320,24924,6,0,B|192:360|112:312|112:312|184:320|208:272,1,240.000009155274,0|8,0:0|0:0,0:0:0:0:
268,256,25601,1,8,2:0:0:0:
456,224,25826,5,0,0:0:0:0:
476,280,26052,2,0,L|456:272,1,20,8|0,2:0|0:0,0:0:0:0:
368,320,26278,5,8,0:0:0:0:
388,264,26503,2,0,L|400:328,1,60.0000022888184,8|0,2:0|0:0,0:0:0:0:
272,312,26729,6,0,B|200:304|200:304|240:328,1,120
272,344,27180,2,0,B|256:280|256:280|272:256|272:256|256:192,1,160,8|8,0:0|2:0,0:0:0:0:
288,36,27631,5,0,0:0:0:0:
260,84,27856,1,8,2:0:0:0:
256,32,28082,1,8,0:0:0:0:
208,12,28308,1,8,2:0:0:0:
47,60,28533,6,0,P|67:37|96:32,1,60,0|0,0:0|2:0,0:0:0:0:
32,24,28984,2,0,L|48:120,1,90.0000034332277,8|0,0:0|0:0,0:0:0:0:
0,76,29435,2,0,B|48:112|48:112|24:192,1,120
100,160,29887,5,8,3:1:0:0:
144,144,29999,2,0,P|148:172|124:196,1,51.999997619629,0|8,3:0|3:2,0:0:0:0:
72,224,30225,1,0,3:0:0:0:
136,240,30338,6,0,B|192:224|192:224|160:216,1,90.0000034332277,4|0,0:2|2:0,0:0:0:0:
72,224,30789,2,0,B|14:220|14:220|68:240,1,116.000003540039,8|8,0:0|2:0,0:0:0:0:
468,176,31240,6,0,L|460:216,1,40,0|8,0:0|2:0,0:0:0:0:
488,224,31691,2,0,B|472:176|472:176|480:144|480:144|456:80,1,143.999995605469,8|8,0:0|2:0,0:0:0:0:
400,144,32029,5,2,2:0:0:0:
392,64,32142,2,0,B|448:68|440:124|392:140|360:100|376:52,1,160,0|8,0:0|0:0,0:0:0:0:
376,48,32819,6,0,P|340:48|296:72,1,68.0000012969971,8|0,2:0|0:0,0:0:0:0:
216,24,33044,6,0,L|200:68,1,35.9999989013672
208,88,33270,2,0,L|188:80,1,20,2|0,2:0|0:0,0:0:0:0:
64,40,33496,6,0,B|48:72|48:72|80:216,1,160,8|8,0:0|2:0,0:0:0:0:
92,116,33834,1,0,2:0:0:0:
24,156,33947,6,0,B|88:128|88:128|128:168|116:212|116:212|72:192,1,207.999990478516,0|8,0:0|0:0,0:0:0:0:
312,144,34623,2,0,B|328:104|328:104|304:24,1,120,8|0,2:0|0:0,0:0:0:0:
384,152,35075,2,0,P|404:176|404:272,1,120.000004577637,8|8,2:0|0:0,0:0:0:0:
48,48,35751,5,0,0:0:0:0:
88,32,35977,1,10,2:0:0:0:
64,64,36202,1,8,0:0:0:0:
168,48,36428,1,8,2:0:0:0:
112,28,36653,6,0,P|108:68|136:100,1,80,0|8,0:0|2:0,0:0:0:0:
224,32,37105,1,8,0:0:0:0:
464,264,37556,6,0,P|432:264|408:304,1,60.0000022888184,0|8,0:0|2:0,0:0:0:0:
444,288,37894,1,0,2:0:0:0:
452,280,38007,1,8,0:0:0:0:
488,160,38232,6,0,B|448:136|448:136|424:184|424:184|384:160,1,143.999995605469,8|0,2:0|0:0,0:0:0:0:
296,40,38684,1,10,2:0:0:0:
288,68,38796,1,2,2:0:0:0:
116,84,39022,5,2,2:0:0:0:
56,56,39135,2,0,P|56:112|112:152,1,120.000004577637,10|0,2:0|0:0,0:0:0:0:
102,150,39586,2,0,P|88:124|52:116,1,60,8|0,2:0|0:0,0:0:0:0:
40,176,40037,6,0,L|56:256,1,60.0000022888184,8|0,2:0|0:0,0:0:0:0:
112,272,40262,1,0,0:0:0:0:
304,224,40488,5,8,2:0:0:0:
296,240,40601,1,2,2:0:0:0:
300,220,40826,5,2,2:0:0:0:
300,244,40939,1,8,2:0:0:0:
136,264,41165,5,0,0:0:0:0:
248,72,41390,2,0,P|256:40|272:24,2,47.9999985351563,8|0|8,2:0|2:0|0:0,0:0:0:0:
240,112,41841,6,0,L|288:104,1,30.0000011444092,10|2,2:0|2:0,2:0:0:0:
352,72,42180,2,0,L|400:64,1,40,2|8,2:0|2:0,2:0:0:0:
40,176,42518,6,0,B|72:128|120:144|120:144|80:144|80:192,1,160,8|8,0:0|2:0,0:0:0:0:
112,56,42969,1,0,0:0:0:0:
104,44,43195,1,8,2:0:0:0:
88,36,43420,6,0,P|84:84|144:124,1,120,8|0,0:0|0:0,0:0:0:0:
216,48,43872,6,0,P|197:29|197:67,2,80,0|0|0,3:0|3:0|3:0,3:0:0:0:
240,120,44210,1,0,3:0:0:0:
304,32,44323,2,0,B|296:64|296:64|304:80|304:80|288:152,1,120.000004577637,8|2,0:0|0:3,0:0:0:0:
444,56,44774,6,0,B|484:76|495:140|436:176|359:139|372:60|445:57,1,240.000009155274,6|2,2:1|2:1,0:0:0:0:
444,56,46578,6,0,B|400:64|396:100|428:140|476:120|488:76|422:41,1,160,2|2,2:1|2:1,0:0:0:0:
443,55,47481,5,2,0:0:0:0:
460,84,47593,1,2,0:0:0:0:
444,112,47706,1,0,0:0:0:0:
416,84,47819,6,0,B|392:104|392:104|380:200,1,120,0|8,0:0|0:0,0:0:0:0:
360,216,48383,6,0,B|400:256|464:240|464:240|408:280|328:232,1,240.000009155274,2|2,0:1|0:1,0:0:0:0:
320,212,48947,6,0,P|296:192|232:200,1,80,4|0,0:3|0:0,0:0:0:0:
200,216,49285,6,0,L|236:144,1,71.9999978027344,2|2,0:0|0:0,0:0:0:0:
200,216,49736,2,0,L|248:188,1,44.0000013427735,2|0,0:0|0:0,0:0:0:0:
120,256,50187,5,2,0:1:0:0:
136,32,50638,2,0,P|108:52|120:80,1,60.0000022888184,2|2,2:1|0:0,0:0:0:0:
184,80,51090,5,2,0:0:0:0:
216,64,51202,1,2,0:0:0:0:
232,32,51315,1,2,0:0:0:0:
280,76,51428,1,2,0:0:0:0:
280,76,51541,5,2,0:0:0:0:
312,57,51653,1,2,0:0:0:0:
352,67,51766,1,2,0:0:0:0:
366,104,51879,1,2,0:0:0:0:
309,133,51992,1,2,0:1:0:0:
208,328,52443,5,2,0:1:0:0:
172,308,52669,1,8,2:0:0:0:
200,260,52894,1,0,3:0:0:0:
256,280,53120,5,2,3:0:0:0:
248,344,53345,2,0,P|212:328|244:288,1,90.0000034332277
280,248,53796,5,2,0:1:0:0:
477,158,54022,2,0,B|507:174|459:186,1,40,0|2,0:0|0:1,0:0:0:0:
359,97,54473,6,0,P|431:113|471:212,1,160,0|0,0:0|3:0,0:0:0:0:
264,136,54924,6,0,P|328:112|376:136,1,120.000004577637
240,192,55375,6,0,P|256:160|304:160,1,80,0|2,3:0|3:1,0:0:0:0:
284,200,55714,1,0,3:0:0:0:
256,236,55826,1,0,3:0:0:0:
296,252,55939,1,0,3:0:0:0:
264,284,56052,1,2,3:1:0:0:
220,296,56165,6,0,B|256:320|256:320|344:288,1,124.000000946045,4|0,3:0|3:0,3:0:0:0:
408,272,56503,2,0,L|392:344,1,60.0000022888184,8|0,3:0|3:0,3:0:0:0:
152,288,56954,6,0,L|161:326,1,40,0|0,3:0|3:0,3:0:0:0:
72,312,57180,2,0,B|96:320|96:320|84:272,1,60.0000022888184,0|0,3:0|3:0,3:0:0:0:
88,208,57405,5,2,3:1:0:0:
80,216,57518,1,0,3:0:0:0:
72,222,57631,1,8,3:2:0:0:
64,227,57744,1,0,3:0:0:0:
64,228,57856,6,0,B|88:208|88:208|40:136|64:40|64:40|96:56,1,240.000009155274,2|0,3:1|3:0,3:0:0:0:
116,112,58420,2,0,P|120:132|128:152,1,40,2|0,2:0|3:0,2:0:0:0:
368,48,58759,5,4,3:0:0:0:
320,32,58872,2,0,P|312:72|356:96,1,95.9999970703126,0|0,3:0|2:0,3:0:0:0:
448,32,59210,6,0,B|440:96|440:96|448:112|448:112|436:208,1,160,4|8,0:2|2:0,0:0:0:0:
462,223,59661,2,0,B|472:144|472:144|448:112,1,120.000004577637,8|2,0:0|2:0,0:0:0:0:
280,272,60112,6,0,B|224:256|224:256|256:288,1,103.999995239258,0|8,0:0|2:0,0:0:0:0:
256,136,60563,2,0,P|240:168|280:144,1,95.9999970703126,8|8,0:0|2:0,0:0:0:0:
288,128,60902,1,0,2:0:0:0:
256,76,61014,6,0,B|240:22|240:22|256:82,1,111.999996582031,0|0,0:0|2:0,0:0:0:0:
318,301,61465,2,0,B|331:347|331:347|318:299,1,96,8|0,0:0|0:0,0:0:0:0:
280,272,61917,6,0,B|208:256|208:256|144:280,1,120.000004577637,0|8,0:0|2:0,0:0:0:0:
32,232,62368,2,0,B|28:180|28:180|60:232,1,103.999995239258,8|0,0:0|0:0,0:0:0:0:
92,288,62706,1,0,2:0:0:0:
92,288,62819,6,0,B|120:232|120:232|104:144|104:144|152:200,1,215.999993408203
192,248,63270,1,8,0:0:0:0:
192,248,63721,6,0,B|248:200|192:136|192:136|140:196,1,200.399993731384
80,152,64172,2,0,L|131:98,1,68.0000012969971,8|8,0:0|2:0,0:0:0:0:
48,72,64623,5,0,0:0:0:0:
144,32,64849,1,8,2:0:0:0:
232,88,65075,1,8,0:0:0:0:
288,56,65300,1,8,2:0:0:0:
320,96,65526,6,0,P|352:108|333:57,1,120.000004577637,0|8,0:0|2:0,0:0:0:0:
288,56,65864,1,2,2:0:0:0:
320,96,65977,2,0,B|344:120|388:112|388:112|416:88|416:52,1,136.000002593994,8|0,0:0|0:0,0:0:0:0:
96,232,66428,6,0,B|75:190|16:184|16:184|96:184|184:248,1,227.999993911743
200,304,66879,2,0,L|248:292,1,40,8|0,0:0|2:0,0:0:0:0:
244,296,67330,6,0,P|276:284|288:256,1,55.9999982910157,0|0,0:0|2:0,0:0:0:0:
264,176,67556,6,0,P|264:196|280:220,1,40,8|0,2:0|2:0,2:0:0:0:
384,252,67781,6,0,P|360:228|316:232,1,71.9999978027344,8|0,0:0|2:0,0:0:0:0:
504,152,68232,6,0,L|456:176,1,30.0000011444092,0|0,0:0|2:0,0:0:0:0:
400,96,68458,6,0,L|436:116,1,40,8|0,2:0|0:0,0:0:0:0:
508,56,68684,6,0,L|476:72,1,30.0000011444092,8|0,0:0|0:0,0:0:0:0:
256,144,69135,6,0,P|224:128|184:128,1,60.0000022888184
88,168,69360,6,0,L|80:224,1,51.999997619629,0|0,2:0|0:0,0:0:0:0:
128,344,69586,6,0,B|200:304|200:304|72:328,1,180.000006866455,8|0,0:0|0:0,0:0:0:0:
64,320,70037,5,0,3:0:0:0:
32,288,70150,1,0,3:0:0:0:
24,244,70262,1,8,3:2:0:0:
40,200,70375,1,0,3:0:0:0:
72,164,70488,2,0,B|112:128|208:136|144:240|88:168,1,180.000006866455,8|0,3:1|2:0,0:0:0:0:
24,104,70939,5,0,3:0:0:0:
28,100,71165,1,8,3:2:0:0:
256,48,71390,1,8,3:1:0:0:
224,152,71616,1,8,3:2:0:0:
176,112,71841,6,0,P|240:100|276:116,1,90.0000034332277,0|0,3:0|0:0,0:0:0:0:
296,192,72293,2,0,B|304:240|352:240|352:240|392:216|376:160,1,136.000002593994,8|8,3:1|3:2,0:0:0:0:
444,176,72631,5,0,3:0:0:0:
444,180,72744,1,0,3:0:0:0:
444,184,72856,1,0,3:0:0:0:
444,188,72969,1,8,3:2:0:0:
444,192,73082,1,0,1:0:0:0:
444,196,73195,6,0,B|436:216|436:216|456:270,2,80,8|0|0,1:0|3:0|0:0,0:0:0:0:
320,56,73646,6,0,B|304:40|304:40|232:24,1,80,2|0,2:1|0:0,0:0:0:0:
160,72,74097,2,0,L|228:88,1,68.0000012969971,2|0,2:1|2:0,0:0:0:0:
232,264,75450,6,0,B|176:312|208:400|296:344|232:288,1,160,2|2,0:0|2:1,0:0:0:0:
80,48,77255,5,2,2:1:0:0:
24,136,77706,1,2,2:1:0:0:
80,48,79059,6,0,B|48:128|48:128|96:72|96:72|128:72,1,180.000006866455,2|0,0:0|0:0,0:0:0:0:
152,80,79511,1,2,2:1:0:0:
104,224,79736,2,0,B|92:244|92:244|108:308,1,80,8|0,2:0|3:0,2:0:0:0:
176,256,80187,6,0,B|208:248|208:248|264:264|264:264|232:272,1,120.000004577637,0|0,1:0|3:0,2:0:0:0:
164,316,80526,1,0,3:0:0:0:
160,308,80638,1,0,3:0:0:0:
156,300,80751,1,0,3:0:0:0:
176,256,80864,6,0,B|200:240|200:240|216:154|216:154|260:124|260:124|280:176,1,216.000000823975,2|2,2:1|2:1,0:0:0:0:
456,32,82669,6,0,B|375:25|353:113|433:128|488:39,1,191.999994140625,2|2,0:0|2:1,0:0:0:0:
457,34,84473,6,0,L|471:61,3,30.0000011444092,2|0|8|0,3:1|3:0|3:2|3:0,3:0:0:0:
444,128,84924,1,2,3:1:0:0:
384,92,85037,6,0,B|376:124|376:124|432:212,1,120.000004577637,4|2,3:0|3:0,0:0:0:0:
422,197,85375,2,0,P|384:176|328:176,1,80
88,232,85601,6,0,B|160:248|160:248|104:192,1,136.000002593994,8|0,3:0|3:0,0:0:0:0:
40,80,86052,2,0,L|32:112,1,30.0000011444092,2|0,3:0|3:0,3:0:0:0:
80,148,86278,6,0,L|248:108,1,143.999995605469,2|0,0:0|3:0,0:0:0:0:
88,136,86616,6,0,L|228:104,1,143.999995605469,4|0,3:0|3:0,3:0:0:0:
96,124,86954,6,0,L|248:88,1,143.999995605469,8|0,3:0|3:0,3:0:0:0:
104,112,87293,6,0,L|248:76,1,143.999995605469,8|0,3:0|3:0,3:0:0:0:
288,32,87631,6,0,L|280:4,2,20,0|0|8,0:0|0:0|2:0,0:0:0:0:
388,148,88082,5,4,0:2:0:0:
376,60,88195,2,0,B|344:68|344:68|320:132,1,80,0|0,2:0|2:0,2:0:0:0:
327,112,88533,6,0,B|360:84|360:84|400:76|400:76|432:44,1,128,8|10,0:0|2:0,0:0:0:0:
464,112,88872,2,0,B|480:136|480:136|456:216,1,88.000002685547,2|0,2:0|2:0,2:0:0:0:
408,248,89210,1,10,2:0:0:0:
248,152,89435,5,8,0:0:0:0:
236,148,89548,2,0,L|248:192,1,40,0|10,2:0|2:0,2:0:0:0:
168,264,89774,1,0,2:0:0:0:
176,252,89887,6,0,L|142:136,1,120.000004577637,0|8,0:0|2:0,0:0:0:0:
80,320,90338,1,8,0:0:0:0:
392,200,90563,2,0,P|421:189|464:184,1,60.0000022888184,8|2,2:0|2:0,2:0:0:0:
496,216,90789,5,0,0:0:0:0:
448,72,91014,2,0,L|464:132,1,53.3333333333333,10|0,2:0|0:0,0:0:0:0:
480,92,91240,6,0,B|456:72|456:72|384:56,1,90.6666683959961,8|0,0:0|0:0,0:0:0:0:
320,32,91465,1,8,1:2:0:0:
336,96,91578,1,0,3:0:0:0:
184,200,92142,5,8,0:0:0:0:
336,96,92368,2,0,B|294:26|294:26|315:69|293:114,1,160,10|10,2:0|2:0,0:0:0:0:
264,176,92932,1,2,2:0:0:0:
224,192,93044,6,0,B|192:184|188:136|188:136|236:184|272:176,1,160,8|8,0:0|2:0,0:0:0:0:
272,352,93496,5,0,0:0:0:0:
216,262,93721,1,8,2:0:0:0:
211,326,93947,1,8,0:0:0:0:
311,302,94172,1,8,2:0:0:0:
278,248,94398,5,0,0:0:0:0:
216,262,94623,1,10,2:0:0:0:
211,326,94849,1,8,0:0:0:0:
272,352,95075,1,8,2:0:0:0:
448,154,95300,6,0,P|424:160|388:244,1,104.40000087616
448,154,95751,2,0,B|392:176|320:144|320:144|384:176|384:232,1,240,8|8,0:0|2:0,0:0:0:0:
364,288,96653,1,8,0:0:0:0:
136,240,97105,5,0,0:0:0:0:
364,288,97556,2,0,B|328:240|192:240|256:368|352:328|312:232,1,240,8|8,0:0|2:0,0:0:0:0:
256,184,98458,1,8,0:0:0:0:
176,336,98909,5,0,0:0:0:0:
296,32,99360,2,0,B|264:40|240:72|240:72|240:120|296:136|352:104|336:32,1,240,8|10,0:0|2:0,0:0:0:0:
368,144,100262,1,8,0:0:0:0:
364,140,100488,1,8,2:0:0:0:
328,112,100714,5,0,0:0:0:0:
272,96,100939,1,8,2:0:0:0:
208,88,101165,1,8,0:0:0:0:
136,88,101390,1,8,2:0:0:0:
200,40,101616,5,0,0:0:0:0:
136,88,101841,1,10,2:0:0:0:
72,32,102067,5,8,1:0:0:0:
32,48,102180,1,2,2:0:0:0:
40,88,102293,1,10,2:0:0:0:
80,72,102405,1,2,2:0:0:0:
