osu file format v9

[General]
AudioFilename: 15 - .mp3
AudioLeadIn: 0
PreviewTime: 59207
Countdown: 0
SampleSet: Soft
StackLeniency: 0.7
Mode: 0
LetterboxInBreaks: 1

[Editor]
Bookmarks: 84470,102515
DistanceSpacing: 1.5
BeatDivisor: 4
GridSize: 8

[Metadata]
Title:Sayonara Trip
Artist:Dormir
Creator:BakaHuang
Version:Extreme
Source:jubeat
Tags:Beren tutuhaha knit

[Difficulty]
HPDrainRate:7
CircleSize:4
OverallDifficulty:7
ApproachRate:8
SliderMultiplier:1.6
SliderTickRate:1

[Events]
//Background and Video events
0,0,"13461352.jpg"
//Break Periods
//Storyboard Layer 0 (Background)
//Storyboard Layer 1 (Fail)
//Storyboard Layer 2 (Pass)
//Storyboard Layer 3 (Foreground)
//Storyboard Sound Samples
//Background Colour Transformations
3,100,163,162,255

[TimingPoints]
8681,451.127819548872,4,2,1,70,1,0
13981,-100,4,2,1,70,0,0
14658,-100,4,2,1,70,0,0
15109,-100,4,2,1,70,0,0
15786,-100,4,2,1,70,0,0
28417,-100,4,2,1,70,0,0
29094,-100,4,2,1,70,0,0
29771,-100,4,2,1,70,0,0
30222,-100,4,2,1,70,0,0
45222,-200,4,2,1,70,0,0
48267,-200,4,1,1,30,0,0
48493,-200,4,2,1,70,0,0
51989,-133.333333333333,4,1,1,40,0,0
52102,-133.333333333333,4,2,1,70,0,0
55598,-100,4,1,1,50,0,0
55711,-100,4,2,1,70,0,0
58192,-100,4,2,1,70,0,0
59207,-66.6666666666667,4,2,1,70,0,1
73643,-100,4,2,1,70,0,0
75335,-100,4,2,2,70,0,0
75673,-100,4,2,1,70,0,0
77139,-100,4,2,2,70,0,0
77365,-100,4,2,1,70,0,0
78944,-100,4,2,2,70,0,0
79169,-100,4,2,1,70,0,0
80748,-100,4,2,2,70,0,0
80974,-100,4,2,1,70,0,0
82553,-100,4,2,2,70,0,0
82778,-100,4,2,1,70,0,0
102177,-100,4,2,1,70,0,0
102966,-100,4,2,1,70,0,0
103417,-100,4,2,1,70,0,0
104320,-100,4,2,1,70,0,0

[Colours]
Combo1 : 102,179,255
Combo2 : 255,255,255
Combo3 : 255,255,128
Combo4 : 128,255,128

[HitObjects]
80,48,8680,6,0,B|64:88|80:128,1,80,2|0
120,192,9132,2,0,B|144:256|104:296,1,80,2|0
112,288,9470,1,0
96,304,9583,1,2
48,240,9808,1,0
40,360,10034,1,2
160,352,10259,1,0
256,280,10485,6,0,B|280:256|312:296|336:272,1,80,2|0
416,192,10936,1,2
331,108,11162,1,0
448,80,11387,1,2
331,108,11613,2,0,B|312:88|280:128|256:104,2,80,0|2|0
240,32,12290,6,0,B|192:48|184:96,1,80,2|0
272,352,12741,2,0,B|320:336|328:288,1,80,2|0
184,104,13192,2,0,B|168:152|184:184,1,80,2|0
328,280,13643,2,0,B|344:232|328:200,1,80,2|0
208,224,14094,5,6
184,104,14320,1,2
272,184,14545,1,14
152,168,14771,1,2
256,112,14996,1,14
416,104,15222,1,2
280,24,15447,1,14
280,24,15560,1,0
280,24,15673,1,0
344,168,15899,5,4
376,16,16125,1,0
368,176,16350,1,8
464,48,16575,1,0
392,192,16801,1,2
456,336,17026,1,0
504,224,17252,1,8
392,192,17477,1,0
344,304,17703,6,0,B|232:304,1,80,2|0
168,232,18154,2,0,B|280:232,2,80,8|2|2
120,168,18831,5,0
72,232,19056,2,0,B|56:272|72:320,1,80,8|0
152,96,19508,2,0,B|168:56|152:8,2,80,2|0|8
120,168,20184,1,2
296,160,20410,1,2
256,88,20635,1,0
216,160,20861,1,8
392,168,21087,1,0
360,96,21312,6,0,B|344:56|360:8,2,80,2|0|8
424,56,21989,1,0
424,56,22102,1,0
424,56,22214,1,2
448,176,22440,1,8
360,96,22665,1,8
479,108,22891,1,0
375,168,23117,5,2
375,168,23342,1,0
296,192,23568,1,8
256,120,23793,1,2
137,168,24019,1,0
136,168,24244,1,0
216,192,24470,1,8
256,264,24696,1,0
216,192,24921,6,0,B|176:216|176:264,1,80,2|0
216,328,25372,2,0,B|256:352|296:328,1,80,8|2
335,257,25823,2,0,B|336:216|296:192,1,80,2|0
256,264,26274,1,8
256,264,26500,1,0
256,120,26726,5,2
256,120,26951,1,0
216,192,27177,2,0,B|112:192,2,80,8|2|0
256,264,27853,1,0
296,192,28079,2,0,B|376:192,1,80,8|2
424,256,28531,5,4
464,192,28756,1,0
424,128,28981,1,12
256,192,29207,1,0
88,256,29432,1,12
48,192,29657,1,0
88,128,29884,1,12
200,88,30109,1,0
312,88,30335,5,4
424,128,30560,1,0
312,88,30786,1,8
256,192,31011,1,2
200,88,31237,1,0
88,128,31462,1,0
200,88,31688,1,8
256,192,31914,1,2
136,216,32139,6,0,B|148:261|180:284,1,80,0|2
376,168,32590,2,0,B|364:123|332:100,1,80,8|0
280,312,33041,2,0,B|325:300|348:268,1,80,0|2
232,72,33492,2,0,B|187:84|164:116,1,80,8|0
144,192,33944,6,0,B|176:112|136:24,1,160,2|8
64,32,34620,2,0,B|240:32,1,160,0|2
256,104,35297,1,8
296,32,35523,1,0
312,160,35748,5,2
368,48,35974,1,0
256,104,36199,1,8
384,128,36425,1,0
296,32,36650,2,0,B|376:56|456:32,1,160,2|8
488,192,37327,5,2
446,351,37553,2,0,B|374:314|291:324,1,160,0|8
488,192,38229,5,2
445,351,38455,2,0,B|368:328|288:352,1,160,0|8
216,320,39132,5,2
280,272,39357,2,0,B|296:232|280:192,1,80,0|2
248,40,39808,2,0,B|232:80|248:120,2,80,8|0|0
320,80,40485,1,8
208,232,40711,1,8
128,248,40936,1,0
48,232,41162,6,0,B|32:152|48:72,1,160,0|8
128,56,41838,1,2
208,72,42064,2,0,B|224:152|208:232,1,160,0|8
152,288,42741,1,2
136,208,42966,6,0,B|88:216|72:264,1,80,0|2
272,312,43417,2,0,B|280:360|328:376,1,80,8|0
376,176,43868,2,0,B|424:168|440:120,1,80,0|2
240,72,44320,2,0,B|232:24|184:8,2,80,8|8|2
256,176,45222,6,0,B|256:144|256:128,1,40
296,240,45673,2,0,B|312:248|337:264,1,40
216,240,46124,2,0,B|200:248|174:264,1,40
256,304,46575,2,0,B|256:352,2,40
216,240,47252,2,0,B|240:240|256:232|256:232|272:240|296:240,2,80
216,144,48380,6,0,B|240:144|256:152|256:152|272:144|296:144,1,80,2|0
256,72,49056,1,0
176,72,49282,2,0,B|144:88|144:112,1,40
336,312,49733,2,0,B|368:296|368:272,1,40
336,72,50184,2,0,B|368:88|368:112,1,40
176,312,50635,2,0,B|144:296|144:272,1,40
88,232,51087,2,0,B|88:208|80:192|80:192|88:176|88:152,1,80
160,192,51763,1,0
352,192,51989,5,2
352,192,52440,2,0,B|280:192,1,59.9999982118607
160,192,52891,2,0,B|232:192,1,59.9999982118607
256,72,53342,2,0,B|256:144,1,59.9999982118607
256,312,53794,2,0,B|256:240,2,59.9999982118607
200,368,54470,2,0,B|232:392|280:392|312:368,2,119.999996423721
176,288,55598,5,2
176,288,56049,2,0,B|176:184,1,80,0|0
336,96,56500,2,0,B|336:200,1,80,0|0
256,192,56951,1,2
256,192,57177,1,0
176,192,57402,5,2
256,112,57628,1,0
336,192,57853,1,2
256,272,58079,1,0
256,272,58192,1,0
256,272,58305,1,8
359,331,58530,1,8
384,220,58756,1,8
383,220,58868,1,8
383,220,58981,1,0
192,72,59207,6,0,B|128:96|128:168,1,119.999996423721,4|0
320,312,59658,2,0,B|384:288|384:216,1,119.999996423721,8|0
140,120,60109,6,0,B|96:172|132:235,1,119.999996423721,2|0
370,263,60560,2,0,B|414:211|377:149,1,119.999996423721,8|0
119,193,61011,6,0,B|110:260|173:295,1,119.999996423721,2|0
390,192,61462,2,0,B|399:125|336:92,1,119.999996423721,8|0
139,260,61914,6,0,B|165:324|236:322,1,119.999996423721,2|0
373,125,62365,2,0,B|347:62|276:65,1,119.999996423721,8|0
104,40,62816,5,8
16,192,63041,1,0
16,192,63154,1,0
16,192,63267,1,8
200,192,63493,1,0
256,112,63718,1,2
312,192,63944,1,0
168,112,64169,5,8
256,272,64395,1,0
344,112,64620,1,2
168,272,64845,1,0
344,272,65071,1,8
432,192,65297,1,2
440,192,65410,1,0
448,192,65523,2,0,B|480:256|448:312,1,119.999996423721,8|8
61,307,65974,2,0,B|32:256|64:192,1,119.999996423721,8|0
63,192,66425,5,4
160,40,66650,1,0
256,192,66876,1,8
352,344,67102,1,0
448,192,67327,5,8
352,40,67553,1,0
256,192,67778,1,8
160,344,68004,1,0
64,192,68229,6,0,B|80:128|72:48,1,119.999996423721,8|0
256,32,68680,2,0,B|320:48|400:40,1,119.999996423721,8|0
448,192,69132,2,0,B|432:256|440:336,1,119.999996423721,8|0
256,352,69583,2,0,B|192:336|112:344,1,119.999996423721,8|0
192,192,70034,5,8
256,126,70259,1,0
318,189,70485,1,8
254,254,70710,1,0
128,192,70936,5,8
258,61,71161,1,0
382,186,71387,1,8
252,316,71612,1,0
132,149,71838,5,8
258,61,72064,1,0
381,153,72290,1,8
331,299,72515,1,0
144,296,72741,5,4
177,296,72854,1,0
192,328,72967,1,8
176,360,73079,1,0
144,368,73192,1,8
120,344,73305,1,0
120,312,73418,1,0
144,296,73531,1,0
177,296,73643,5,12
24,192,74094,1,2
24,192,74320,1,0
80,136,74545,2,0,B|80:88,2,40,2|2|2
136,192,74996,2,0,B|200:184|224:120|224:120|232:152|256:96|256:136,1,160,0|2
488,192,75899,5,2
488,192,76125,1,0
432,136,76350,2,0,B|432:88,2,40,2|2|2
376,192,76801,2,0,B|312:184|288:120|288:120|280:152|256:96|256:136,1,160,0|2
256,280,77703,6,0,B|256:336,2,40,2|0|0
216,208,78154,1,2
256,192,78267,1,0
296,208,78380,1,2
336,280,78605,2,0,B|384:256|376:200|376:200|408:216|440:192,1,160,0|2
256,280,79508,6,0,B|256:336,2,40,2|0|0
296,208,79959,1,2
256,192,80072,1,0
216,208,80185,1,2
176,280,80410,2,0,B|128:256|136:200|136:200|104:216|72:192,1,160,0|2
128,344,81312,6,0,B|91:331|72:288,1,80,2|0
48,216,81763,1,2
56,208,81876,1,0
64,200,81989,1,0
32,128,82214,1,2
40,120,82327,1,0
48,112,82440,1,0
256,192,82665,1,2
384,40,83117,6,0,B|421:53|440:96,1,80,2|0
464,168,83568,1,2
456,176,83681,1,0
448,184,83794,1,0
480,256,84019,1,2
472,264,84132,1,0
464,272,84245,1,0
256,192,84470,5,4
216,184,84583,1,0
192,152,84696,1,0
192,112,84808,1,0
216,80,84921,1,8
256,64,85034,1,0
296,80,85147,1,0
320,112,85259,1,0
320,152,85372,5,4
296,184,85485,1,0
256,192,85598,1,0
216,200,85711,1,0
192,232,85824,1,8
192,272,85936,1,0
216,304,86049,1,0
256,320,86162,1,0
296,304,86275,5,4
320,272,86387,1,0
320,232,86500,1,0
296,200,86613,1,0
256,192,86726,2,0,B|256:152,3,40,4|0|0|0
256,128,87177,2,0,B|256:72,4,40,4|0|8|0|8
120,128,88079,5,4
160,16,88305,1,0
256,88,88530,1,8
352,16,88756,1,0
392,128,88981,2,0,B|472:128,1,80,2|0
408,232,89432,6,0,B|328:232,1,80,8|0
104,232,89884,2,0,B|184:232,1,80,2|0
120,128,90335,2,0,B|40:128,2,80,8|0|2
256,40,91011,1,0
256,40,91124,1,0
256,40,91237,1,8
392,128,91462,1,0
392,128,91688,6,0,B|360:168|368:224,1,80,2|0
320,328,92139,2,0,B|280:296|224:304,1,80,8|0
120,256,92590,2,0,B|152:216|144:160,1,80,2|0
184,72,93041,2,8,B|224:104|280:96,1,80,8|0
392,128,93493,5,2
320,328,93718,1,0
120,256,93944,1,8
184,72,94169,1,0
256,160,94395,1,2
328,72,94620,1,0
328,72,94733,1,0
328,72,94846,1,8
384,160,95071,1,0
128,160,95297,6,0,B|120:248,1,80,2|0
208,320,95748,2,0,B|216:232,1,80,8|0
296,240,96199,2,0,B|304:320,1,80,2|0
392,240,96650,2,0,B|385:161,1,80,8|0
432,48,97102,6,0,B|376:56|336:56,1,80,2|0
256,128,97553,2,0,B|200:136|160:136,1,80,8|0
80,48,98004,2,0,B|136:56|176:56,1,80,2|0
256,128,98455,2,0,B|312:136|352:136,1,80,8|0
397,242,98906,6,0,B|346:248|312:293,1,80,2|0
205,333,99357,2,0,B|199:282|154:248,1,80,8|0
114,141,99808,2,0,B|165:135|199:90,1,80,2|0
306,50,100259,2,0,B|312:101|357:135,1,80,8|0
397,242,100711,5,2
205,333,100936,1,0
114,141,101162,1,8
306,50,101387,1,0
306,50,101500,1,0
306,50,101613,5,2
336,168,101838,1,0
384,56,102064,1,8
280,120,102290,1,8
400,128,102515,1,2
256,192,102628,12,0,104320
