osu file format v9

[General]
AudioFilename: 15 - .mp3
AudioLeadIn: 0
PreviewTime: 59207
Countdown: 0
SampleSet: Normal
StackLeniency: 0.7
Mode: 0
LetterboxInBreaks: 1

[Editor]
Bookmarks: 102515
DistanceSpacing: 1.2
BeatDivisor: 4
GridSize: 8

[Metadata]
Title:Sayonara Trip
Artist:Dormir
Creator:BakaHuang
Version:Basic
Source:jubeat
Tags:Beren tutuhaha knit

[Difficulty]
HPDrainRate:2
CircleSize:3
OverallDifficulty:2
ApproachRate:2
SliderMultiplier:0.8
SliderTickRate:1

[Events]
//Background and Video events
0,0,"13461352.jpg"
//Break Periods
//Storyboard Layer 0 (Background)
//Storyboard Layer 1 (Fail)
//Storyboard Layer 2 (Pass)
//Storyboard Layer 3 (Foreground)
//Storyboard Sound Samples
//Background Colour Transformations
3,100,163,162,255

[TimingPoints]
8681,451.127819548872,4,2,1,70,1,0
9132,-100,4,1,1,50,0,0
9583,-100,4,2,1,70,0,0
10034,-100,4,1,1,50,0,0
10485,-100,4,2,1,70,0,0
10936,-100,4,1,1,50,0,0
11387,-100,4,2,1,70,0,0
11838,-100,4,1,1,50,0,0
12290,-100,4,2,1,70,0,0
12741,-100,4,1,1,50,0,0
13192,-100,4,2,1,70,0,0
13643,-100,4,1,1,50,0,0
13981,-100,4,2,1,50,0,0
15786,-100,4,2,1,70,0,0
16350,-100,4,1,1,50,0,0
16801,-100,4,2,1,70,0,0
17252,-100,4,1,1,50,0,0
17703,-100,4,2,1,70,0,0
18154,-100,4,1,1,50,0,0
18605,-100,4,2,1,70,0,0
19056,-100,4,1,1,50,0,0
19508,-100,4,2,1,70,0,0
19959,-100,4,1,1,50,0,0
20184,-100,4,2,1,70,0,0
20861,-100,4,1,1,50,0,0
21312,-100,4,2,1,70,0,0
21763,-100,4,1,1,50,0,0
22214,-100,4,2,1,70,0,0
22665,-100,4,1,1,50,0,0
22722,-100,4,2,1,70,0,0
22891,-100,4,1,1,50,0,0
23117,-100,4,2,1,70,0,0
23568,-100,4,1,1,50,0,0
24019,-100,4,2,1,70,0,0
24470,-100,4,1,1,50,0,0
24921,-100,4,2,1,70,0,0
25372,-100,4,1,1,50,0,0
25823,-100,4,2,1,70,0,0
26274,-100,4,1,1,50,0,0
26500,-100,4,2,1,70,0,0
27177,-100,4,1,1,50,0,0
27402,-100,4,2,1,70,0,0
28079,-100,4,1,1,50,0,0
28530,-100,4,2,1,70,0,0
28981,-100,4,1,1,50,0,0
29432,-100,4,2,1,70,0,0
29884,-100,4,1,1,50,0,0
29940,-100,4,2,1,70,0,0
30109,-100,4,1,1,50,0,0
30222,-100,4,2,1,80,0,0
30786,-100,4,1,1,50,0,0
31237,-100,4,2,1,80,0,0
31688,-100,4,1,1,50,0,0
32139,-100,4,2,1,80,0,0
32590,-100,4,1,1,50,0,0
33041,-100,4,2,1,80,0,0
33493,-100,4,1,1,50,0,0
33718,-100,4,2,1,80,0,0
34395,-100,4,1,1,50,0,0
34451,-100,4,2,1,80,0,0
35297,-100,4,1,1,50,0,0
35748,-100,4,2,1,80,0,0
36199,-100,4,1,1,50,0,0
36256,-100,4,2,1,80,0,0
37102,-100,4,1,1,50,0,0
37158,-100,4,2,1,80,0,0
37327,-100,4,1,1,50,0,0
37384,-100,4,2,1,80,0,0
38004,-100,4,1,1,50,0,0
38455,-100,4,2,1,80,0,0
38906,-100,4,1,1,50,0,0
39357,-100,4,2,1,80,0,0
39808,-100,4,1,1,50,0,0
40259,-100,4,2,1,80,0,0
40711,-100,4,1,1,50,0,0
40936,-100,4,2,1,80,0,0
41613,-100,4,1,1,50,0,0
41669,-100,4,2,1,80,0,0
42515,-100,4,1,1,50,0,0
42966,-100,4,2,1,80,0,0
43417,-100,4,2,1,80,0,0
43868,-100,4,2,1,5,0,0
44320,-100,4,1,1,50,0,0
44771,-100,4,2,1,50,0,0
58756,-100,4,1,1,50,0,0
58812,-100,4,2,1,50,0,0
58981,-100,4,1,1,50,0,0
59207,-100,4,2,1,100,0,1
59658,-100,4,1,1,50,0,1
59714,-100,4,2,1,100,0,1
60560,-100,4,1,1,50,0,1
61011,-100,4,2,1,100,0,1
61462,-100,4,1,1,50,0,1
61519,-100,4,2,1,100,0,1
62365,-100,4,1,1,50,0,1
62421,-100,4,2,1,100,0,1
63267,-100,4,1,1,50,0,1
63323,-100,4,2,1,100,0,1
64169,-100,4,1,1,50,0,1
64620,-100,4,2,1,100,0,1
65071,-100,4,1,1,50,0,1
66425,-100,4,2,1,100,0,1
66876,-100,4,1,1,50,0,1
67327,-100,4,2,1,100,0,1
67778,-100,4,1,1,50,0,1
68229,-100,4,2,1,100,0,1
68680,-100,4,1,1,50,0,1
69132,-100,4,2,1,100,0,1
69583,-100,4,1,1,50,0,1
70034,-100,4,2,1,100,0,1
70485,-100,4,1,1,50,0,1
70936,-100,4,2,1,100,0,1
71387,-100,4,1,1,50,0,1
71444,-100,4,2,1,100,0,1
72290,-100,4,1,1,50,0,1
72346,-100,4,2,1,100,0,1
72741,-100,4,1,1,50,0,1
73643,-100,4,2,1,100,0,0
88530,-100,4,1,1,50,0,0
88587,-100,4,2,1,100,0,0
89432,-100,4,1,1,50,0,0
89489,-100,4,2,1,100,0,0
90335,-100,4,1,1,50,0,0
90391,-100,4,2,1,100,0,0
91237,-100,4,1,1,50,0,0
91293,-100,4,2,1,100,0,0
92139,-100,4,1,1,50,0,0
92590,-100,4,2,1,100,0,0
93041,-100,4,1,1,50,0,0
93098,-100,4,2,1,100,0,0
93267,-100,4,1,1,50,0,0
93323,-100,4,2,1,100,0,0
93944,-100,4,1,1,50,0,0
94000,-100,4,2,1,100,0,0
94846,-100,4,1,1,50,0,0
95297,-100,4,2,1,100,0,0
95748,-100,4,1,1,50,0,0
95805,-100,4,2,1,100,0,0
96650,-100,4,1,1,50,0,0
96707,-100,4,2,1,100,0,0
97553,-100,4,1,1,50,0,0
97609,-100,4,2,1,100,0,0
98455,-100,4,1,1,50,0,0
98906,-100,4,2,1,100,0,0
99357,-100,4,1,1,50,0,0
99414,-100,4,2,1,100,0,0
100259,-100,4,1,1,50,0,0
100316,-100,4,2,1,100,0,0
101162,-100,4,1,1,50,0,0
101218,-100,4,2,1,100,0,0
102064,-100,4,1,1,50,0,0
102177,-100,4,2,1,70,0,0
102966,-100,4,2,1,40,0,0
103417,-100,4,2,1,30,0,0
104320,-100,4,2,1,20,0,0

[Colours]
Combo1 : 102,179,255
Combo2 : 255,255,255
Combo3 : 255,255,128
Combo4 : 128,255,128

[HitObjects]
344,192,8680,2,0,B|368:224|368:224|408:240,1,80,4|0
432,144,9583,2,0,B|408:112|408:112|368:96,1,80
344,192,10485,6,0,B|312:216|312:216|296:256,1,80,0|0
392,280,11388,2,0,B|424:256|424:256|440:216,1,80
416,128,12290,5,0
340,72,12741,1,0
256,120,13192,1,0
284,212,13643,1,0
380,220,14094,6,0,B|400:264,2,40,4|0|0
284,212,14996,2,0,B|304:256,2,40,2|0|2
224,288,15899,6,0,B|148:312,1,80,4|0
176,216,16801,2,0,B|100:240,1,80,0|0
128,144,17703,2,0,B|52:168,1,80,2|0
64,72,18605,6,0,B|140:48,1,80,0|0
128,144,19507,2,0,B|204:120,1,80,4|0
250,105,20184,1,0
296,92,20410,2,0,B|336:80,2,40,2|0|0
360,160,21312,6,0,B|356:204|392:236,1,80,2|0
452,300,22214,1,0
360,320,22665,2,0,B|328:344,1,40
280,356,23117,6,0,B|240:368|240:368|192:348,1,80,4|0
168,264,24019,2,0,B|208:252|208:252|256:272,1,80,0|0
328,224,24921,2,0,B|316:184|316:184|336:136,1,80,2|0
420,112,25823,6,0,B|432:152|432:152|412:200,1,80,0|0
400,232,26500,1,0
380,276,26726,2,0,B|340:352,1,80,4|0
296,352,27402,2,0,B|256:364|212:336,1,80
219,340,28079,1,0
140,284,28530,6,0,B|88:288,2,40,2|0|0
180,196,29432,2,0,B|128:200,2,40
120,120,30335,6,0,B|96:84|104:40,1,80,4|0
192,72,31237,2,0,B|216:108|208:152,1,80,0|0
200,248,32139,2,0,B|196:292|160:324,1,80,2|0
264,304,33041,6,0,B|304:296|344:320,1,80
380,352,33718,1,0
380,352,33944,1,4
448,284,34395,2,0,B|484:260|496:216,2,80
404,200,35748,2,0,B|368:224|356:268,2,80,2|0|0
392,104,37102,6,0,B|376:88|352:84,1,40
312,72,37553,2,0,B|272:56|232:76,1,80,4|0
200,164,38455,2,0,B|240:180|280:160,1,80,0|0
368,196,39357,6,0,B|408:216|420:268,1,80,2|0
380,344,40259,2,0,B|340:324|328:272,1,80,0|0
312,240,40936,1,0
288,200,41162,6,0,B|268:160|224:148,2,80,4|0|0
200,240,42515,1,0
128,304,42966,6,0,B|96:332,2,40,2|0|0
124,256,43643,2,0,B|140:196|104:140,1,120
44,64,44771,5,4
140,68,45222,2,0,B|196:60|252:88|272:152,1,160,0|0
312,228,46575,2,0,B|328:264|320:308,2,80,2|0|0
424,72,48380,5,4
392,164,48831,2,0,B|336:320,1,160
260,260,50184,2,0,B|316:104,1,160,2|0
124,72,51989,5,4
124,168,52440,2,0,B|144:208|136:248|136:248|172:256|196:296,1,160
112,340,53793,1,2
196,296,54244,1,0
216,200,54696,1,0
400,160,55598,5,4
340,84,56049,2,0,B|296:112|288:184|328:228,1,160
252,284,57402,2,0,B|248:328|200:352,1,80,2|0
112,368,58305,1,0
88,268,58756,2,0,B|104:224,1,40
116,184,59207,6,0,B|104:92,2,80,4|0|0
200,232,60560,1,0
280,284,61011,2,0,B|292:376,2,80,2|0|0
264,188,62365,6,0,B|272:140|312:116,1,80,0|4
400,132,63267,2,0,B|392:180|352:204,1,80,0|0
300,276,64169,1,0
204,288,64620,2,0,B|124:320,1,80,2|0
312,96,66425,6,0,B|392:64,1,80,0|0
460,128,67327,2,0,B|380:160,1,80
320,228,68229,2,0,B|308:272|344:304,1,80
412,236,69132,2,0,B|424:192|388:160,1,80
308,116,70034,5,0
212,112,70485,1,0
140,48,70936,1,0
108,140,71387,6,0,B|92:176,2,40
176,204,72290,2,0,B|160:240,2,40
212,116,73192,1,0
292,168,73643,6,0,B|300:200|300:200|368:180|428:232,1,160,4|0
236,280,75447,2,0,B|228:312|228:312|160:292|100:344,1,160,2|0
224,184,77252,6,0,B|232:128|192:72|136:68,1,160,2|0
44,236,79056,2,0,B|36:292|76:348|132:352,1,160,2|0
304,272,80861,6,0,B|340:200|340:200|404:152,1,160,2|0
220,208,82665,2,0,B|184:280|184:280|120:328,1,160,2|0
256,192,84470,12,4,88079
104,72,88530,6,0,B|124:152,1,80
208,104,89432,2,0,B|228:184,1,80,0|2
312,136,90335,2,0,B|332:216,1,80
408,272,91237,6,0,B|400:312|400:312|360:344,2,80,0|2|0
432,176,92590,1,0
416,80,93041,6,0,B|408:40,2,40,0|0|2
344,144,93944,2,0,B|320:176|272:176,1,80
176,160,94846,1,0
160,256,95297,6,0,B|144:336,2,80,2|0|0
248,216,96650,2,0,B|264:136,1,80,0|2
352,176,97553,2,0,B|368:96,1,80
384,0,98455,1,0
304,48,98906,6,0,B|232:96,2,80,2|0|0
384,104,100259,2,0,B|456:56,1,80,0|2
504,144,101162,2,0,B|432:192,2,80,0|0|0
256,192,102515,12,0,104320
