osu file format v9

[General]
AudioFilename: 15 - .mp3
AudioLeadIn: 0
PreviewTime: 59207
Countdown: 0
SampleSet: Soft
StackLeniency: 0.7
Mode: 0
LetterboxInBreaks: 1

[Editor]
Bookmarks: 84470,102515
DistanceSpacing: 1.1
BeatDivisor: 4
GridSize: 4

[Metadata]
Title:Sayonara Trip
Artist:Dormir
Creator:BakaHuang
Version:Advanced
Source:jubeat
Tags:Beren tutuhaha knit

[Difficulty]
HPDrainRate:5
CircleSize:4
OverallDifficulty:5
ApproachRate:6
SliderMultiplier:1.4
SliderTickRate:1

[Events]
//Background and Video events
0,0,"13461352.jpg"
//Break Periods
//Storyboard Layer 0 (Background)
//Storyboard Layer 1 (Fail)
//Storyboard Layer 2 (Pass)
//Storyboard Layer 3 (Foreground)
//Storyboard Sound Samples
//Background Colour Transformations
3,100,163,162,255

[TimingPoints]
8681,451.127819548872,4,2,0,40,1,0
8793,-100,4,2,1,60,0,0
10485,-100,4,2,2,60,0,0
10598,-100,4,2,1,60,0,0
14094,-100,4,2,1,60,0,0
15899,-100,4,2,2,60,0,0
44771,-100,4,2,2,60,0,0
44884,-100,4,2,1,60,0,0
48380,-100,4,2,2,60,0,0
48493,-100,4,2,1,60,0,0
51989,-100,4,2,2,60,0,0
52102,-100,4,2,1,60,0,0
55598,-100,4,2,1,40,0,0
55711,-100,4,2,1,60,0,0
57402,-100,4,2,1,60,0,0
59207,-100,4,2,2,70,0,1
59320,-100,4,2,1,70,0,1
61011,-100,4,2,2,70,0,1
61124,-100,4,2,1,70,0,1
62816,-100,4,2,2,70,0,1
62929,-100,4,2,1,70,0,1
64620,-100,4,2,2,70,0,1
64733,-100,4,2,1,70,0,1
66425,-100,4,2,2,70,0,1
66538,-100,4,2,1,70,0,1
68229,-100,4,2,2,70,0,1
68342,-100,4,2,1,70,0,1
70034,-100,4,2,2,70,0,1
70147,-100,4,2,1,70,0,1
71838,-100,4,2,2,70,0,1
71951,-100,4,2,1,70,0,1
73643,-100,4,2,1,70,0,0
75335,-100,4,2,2,40,0,0
75673,-100,4,2,0,40,0,0
77139,-100,4,2,2,50,0,0
77365,-100,4,2,0,50,0,0
78944,-100,4,2,2,60,0,0
79169,-100,4,2,0,60,0,0
80748,-100,4,2,2,70,0,0
80974,-100,4,2,0,70,0,0
82553,-100,4,2,2,70,0,0
82778,-100,4,2,0,70,0,0
88079,-100,4,2,2,70,0,0
88192,-100,4,2,1,70,0,0
89884,-100,4,2,2,70,0,0
89996,-100,4,2,1,70,0,0
91688,-100,4,2,2,70,0,0
91801,-100,4,2,1,70,0,0
93493,-100,4,2,2,70,0,0
93605,-100,4,2,1,70,0,0
95297,-100,4,2,2,70,0,0
95410,-100,4,2,1,70,0,0
97102,-100,4,2,2,70,0,0
97214,-100,4,2,1,70,0,0
98906,-100,4,2,2,70,0,0
99019,-100,4,2,1,70,0,0
100711,-100,4,2,2,70,0,0
100823,-100,4,2,1,70,0,0
102515,-100,4,2,2,30,0,0
104320,-100,4,2,2,10,0,0

[Colours]
Combo1 : 102,179,255
Combo2 : 255,255,255
Combo3 : 255,255,128
Combo4 : 128,255,128

[HitObjects]
72,112,8680,6,0,B|80:184|160:220,1,140,4|2
188,284,9357,1,0
256,320,9583,2,0,B|296:316|328:292,1,70,0|0
308,220,10034,2,0,B|336:200|388:200,1,70,2|0
428,144,10485,5,4
428,144,10936,1,2
412,68,11162,2,0,B|360:24|272:24,1,140
228,80,11838,2,0,B|188:148|112:172,1,140,2|0
72,316,12741,5,2
104,248,12966,2,0,B|252:248,1,140
284,316,13643,2,0,B|344:296|384:224,1,140,2|4
364,148,14320,5,2
312,92,14545,1,8
240,60,14771,1,2
164,56,14996,2,0,B|104:76|64:148,1,140,2|8
16,208,15673,1,2
72,264,15899,6,0,B|196:360,1,140,4|8
260,360,16575,1,0
312,304,16801,2,0,B|201:218,1,140,0|8
192,144,17477,1,0
204,68,17703,6,0,B|252:84|264:124,1,70,0|0
288,180,18154,2,0,B|308:216|348:224,1,70,8|0
416,248,18605,2,0,B|476:208|488:120,1,140,0|8
452,64,19282,1,0
392,16,19508,6,0,B|332:56|320:144,1,140,0|8
276,196,20184,1,0
220,248,20410,2,0,B|200:284|160:296,1,70
92,280,20861,2,0,B|64:308|24:320,1,70,8|0
16,240,21312,5,0
48,168,21538,1,0
112,124,21763,2,0,B|184:120|236:64,1,140,8|0
312,80,22440,2,0,B|384:80,2,70,0|8|0
328,156,23117,6,0,B|400:280,1,140,4|8
364,348,23793,1,0
300,304,24019,2,0,B|229:182,1,140,0|8
152,188,24696,1,0
120,260,24921,6,0,B|92:280|48:280,1,70
4,220,25372,2,0,B|32:200|76:200,1,70,8|0
84,124,25823,2,0,B|160:96|200:24,1,140,0|8
244,92,26500,1,0
256,168,26726,6,0,B|256:312,1,140,0|8
316,356,27402,1,0
332,280,27628,2,0,B|336:240|368:212,1,70
380,144,28079,2,0,B|408:120|456:112,1,70,8|0
408,48,28530,5,0
332,36,28756,1,0
260,68,28981,1,8
236,140,29207,1,0
228,216,29432,2,0,B|188:288|88:304,1,140,0|8
48,264,30109,1,0
4,200,30335,6,0,B|44:128|144:112,1,140,4|8
180,156,31011,1,0
228,216,31237,2,0,B|298:173|393:209,1,140,0|8
409,260,31914,1,0
460,316,32139,6,0,B|488:284|484:240,1,70
476,176,32590,2,0,B|476:92,1,70,8|0
424,52,33041,2,0,B|368:96|280:96,1,140,0|8
144,64,33944,5,0
144,64,34395,2,0,B|144:144,1,70,8|0
68,156,34846,2,0,B|80:196|112:216,1,70
104,288,35297,2,0,B|136:308|176:312,1,70,8|0
232,356,35748,2,0,B|256:288|340:256,1,140,0|8
436,148,36650,5,0
400,80,36876,1,0
336,36,37102,2,0,B|300:20|260:24,1,70,8|0
208,72,37553,6,0,B|192:136|112:168,1,140,4|8
92,240,38229,1,0
72,316,38455,2,0,B|128:364|212:364,1,140,0|8
248,304,39132,1,0
292,240,39357,6,0,B|364:248|424:320,1,140,0|8
476,264,40034,1,0
440,196,40259,2,0,B|416:164|416:120,1,70
368,72,40711,2,0,B|328:64|296:32,1,70,8|0
232,24,41162,5,0
156,40,41387,2,0,B|84:52|28:120,1,140,0|0
16,184,42064,2,0,B|20:220|52:248,1,70
124,260,42515,2,0,B|156:272|180:308,1,70,8|0
248,336,42966,6,0,B|320:352|396:320,1,140,0|8
424,248,43643,1,0
408,172,43868,2,0,B|384:148|376:100,2,70,0|0|8
456,112,44545,1,0
436,36,44771,6,0,B|376:8|280:40,1,140,4|2
240,84,45447,1,0
204,152,45673,1,0
204,228,45899,1,2
76,312,46350,1,0
148,284,46575,6,0,B|172:320|208:336,1,70,2|0
312,224,47252,2,0,B|328:140|408:104,1,140,2|0
356,44,47929,1,2
280,36,48154,1,0
208,64,48380,5,4
80,148,48831,1,2
152,120,49056,2,0,B|184:184|152:268,1,140
208,312,49733,1,2
284,332,49959,1,0
360,320,50184,6,0,B|392:312|420:272,2,70,0|0|2
344,244,50861,1,0
424,112,51312,1,2
280,60,51763,1,2
204,44,51989,6,0,B|120:72|96:148,1,140,4|2
64,200,52665,1,0
48,276,52891,2,0,B|60:320|88:352,1,70
152,316,53342,2,0,B|192:308|228:324,1,70,2|0
292,352,53793,5,0
368,332,54019,1,0
420,276,54244,1,2
456,208,54470,1,0
384,72,54921,1,2
232,44,55372,1,2
308,60,55598,6,0,B|284:92|284:136,1,70,4|0
324,192,56049,2,0,B|284:197|253:228,1,70,2|0
232,292,56500,2,0,B|200:268|156:268,1,70,0|0
100,308,56951,2,0,B|94:268|63:237,1,70,2|0
60,168,57402,5,4
108,108,57628,1,0
176,76,57853,1,8
252,72,58079,1,0
328,88,58305,5,8
328,88,58756,1,8
256,224,59207,6,0,B|272:264|312:288,1,70,4|0
352,336,59658,2,0,B|388:320|432:324,1,70,2|0
484,280,60109,2,0,B|472:200|392:152,1,140,0|2
336,152,60786,1,0
432,88,61011,6,0,B|384:32|288:32,1,140,4|2
240,72,61688,1,0
164,68,61914,2,0,B|144:104|104:124,1,70
112,196,62365,2,0,B|76:216|28:216,1,70,2|0
148,272,62816,6,0,B|224:272|276:332,1,140,4|2
348,344,63493,1,0
408,296,63718,2,0,B|436:276|452:240,1,70
356,172,64169,2,0,B|328:192|312:228,1,70,2|0
296,112,64620,5,4
228,148,64846,1,0
192,216,65071,1,2
192,216,65523,2,0,B|156:208|124:176,1,70,2|0
92,76,65974,2,0,B|128:84|160:116,1,70,2|0
52,168,66425,5,4
40,244,66650,1,0
68,316,66876,1,2
132,360,67102,1,0
208,356,67327,2,0,B|248:352|280:328,1,70
332,284,67778,2,0,B|344:252|384:228,1,70,2|0
464,156,68229,6,0,B|392:164|324:124,1,140,4|2
324,52,68906,1,0
248,60,69132,2,0,B|212:32|168:32,1,70
108,120,69583,2,0,B|144:148|188:148,1,70,2|0
64,188,70034,5,4
84,264,70259,1,0
148,308,70485,1,2
224,308,70711,1,0
284,260,70936,2,0,B|308:236|352:224,1,70
416,256,71387,2,0,B|424:216|460:200,1,70,2|0
356,148,71838,5,4
280,128,72064,1,0
204,144,72290,1,2
156,204,72515,2,0,B|120:268|132:348,1,140,0|2
52,256,73192,5,2
60,180,73417,1,0
108,120,73643,1,4
256,80,74094,5,2
256,80,74320,2,0,B|328:96|376:160,1,140
388,228,74996,1,2
388,304,75222,1,0
348,368,75447,1,2
252,244,75899,5,2
252,244,76124,2,0,B|180:212|152:124,1,140
104,88,76801,1,2
60,152,77026,1,0
56,228,77252,1,2
168,336,77703,5,2
168,336,77929,2,0,B|180:264|264:216,1,140
324,220,78605,1,2
396,248,78831,1,0
452,300,79056,2,0,B|488:272|496:240,1,70,2|0
476,172,79508,6,0,B|484:136|468:88,1,70,2|0
404,68,79959,1,0
328,52,80184,1,0
256,80,80410,1,2
228,152,80635,1,0
252,224,80861,1,2
180,360,81312,5,2
180,360,81538,2,0,B|116:320|116:232,1,140
140,168,82214,1,2
200,120,82440,1,0
276,104,82665,1,2
256,256,83117,5,2
256,256,83342,2,0,B|304:208|388:212|392:212,1,140
440,160,84019,1,2
452,84,84244,1,0
404,24,84470,1,4
264,92,84921,5,2
264,92,85147,2,0,B|192:92|132:36,1,140
88,100,85823,1,2
80,176,86049,1,0
112,248,86274,6,0,B|128:280|164:300,1,70,4|0
248,224,86726,2,0,B|232:192|196:172,1,70,2|0
316,176,87177,1,2
376,224,87402,1,0
404,296,87628,2,0,B|440:292|472:264,1,70,2|0
424,160,88079,6,0,B|396:96|316:80,1,140,4|2
244,52,88756,1,0
180,96,88981,2,0,B|144:80|132:40,1,70
124,160,89432,6,0,B|180:208|188:292,1,140,2|4
240,336,90109,1,0
316,336,90335,2,0,B|360:328|392:300,1,70,2|0
428,252,90786,1,0
444,176,91011,1,0
424,100,91237,1,2
368,48,91462,1,0
368,164,91688,6,0,B|320:104|236:96,1,140,4|2
172,92,92365,1,0
96,100,92590,2,0,B|56:112|32:144,1,70
96,236,93041,2,0,B|136:224|160:192,1,70,2|0
128,312,93493,5,4
204,296,93718,1,0
260,240,93944,1,2
292,168,94169,2,0,B|312:96|392:64,1,140
388,184,94846,6,0,B|372:256|304:304,1,140,2|4
236,308,95523,1,0
164,284,95748,2,0,B|156:244|116:220,1,70,2|0
152,156,96199,2,0,B|172:120|168:68,1,70
228,40,96650,1,2
304,28,96876,1,0
244,124,97102,6,0,B|288:184|380:188,1,140,4|2
436,216,97778,1,0
400,284,98004,2,0,B|364:264|320:264,1,70
272,364,98455,2,0,B|241:364|205:344,1,70,2|0
268,248,98906,5,4
192,232,99132,1,0
116,248,99357,1,2
60,300,99583,1,0
68,184,99808,6,0,B|104:152|116:120,1,70
156,68,100259,2,0,B|200:80|240:68,1,70,2|0
300,44,100711,1,4
368,80,100936,1,0
416,140,101162,1,2
444,212,101387,1,0
456,288,101613,1,0
456,288,102064,6,0,B|424:312|408:348,2,70,0|0|4
256,192,102628,12,4,104320
