osu file format v12

[General]
AudioFilename: Sayonara Trip.mp3
AudioLeadIn: 0
PreviewTime: 87402
Countdown: 0
SampleSet: Soft
StackLeniency: 0.7
Mode: 0
LetterboxInBreaks: 1
EpilepsyWarning: 1
WidescreenStoryboard: 0

[Editor]
Bookmarks: 1021,8691,15909,30345,37563,44781,59217,73653,88089
DistanceSpacing: 1.8
BeatDivisor: 4
GridSize: 4

[Metadata]
Title:Sayonara Trip
TitleUnicode:さよならトリップ
Artist:Dormir
ArtistUnicode:Dormir
Creator:Azure
Version:5 Colours
Source:jubeat
Tags:crimm TOMOSUKE colorful multicolored
BeatmapID:300962
BeatmapSetID:116693

[Difficulty]
HPDrainRate:5
CircleSize:4
OverallDifficulty:5
ApproachRate:6
SliderMultiplier:1.18
SliderTickRate:2

[Events]
//Background and Video events
0,0,"Sayanera BG.jpg",0,0
//Break Periods
//Storyboard Layer 0 (Background)
//Storyboard Layer 1 (Fail)
//Storyboard Layer 2 (Pass)
//Storyboard Layer 3 (Foreground)
//Storyboard Sound Samples
//Background Colour Transformations
3,100,163,162,255

[TimingPoints]
1466,451.127819548872,4,2,1,30,1,0
1466,-133.333333333333,4,2,1,30,0,0
8684,-133.333333333333,4,2,2,40,0,0
14097,-133.333333333333,4,2,3,30,0,0
14999,-133.333333333333,4,2,3,34,0,0
15902,-100,4,2,1,30,0,0
28533,-100,4,2,3,30,0,0
29435,-100,4,2,3,34,0,0
30338,-100,4,2,1,36,0,0
42969,-100,4,2,3,36,0,0
43872,-100,4,2,3,40,0,0
44774,-133.333333333333,4,2,1,55,0,0
55601,-133.333333333333,4,2,1,15,0,0
57405,-133.333333333333,4,2,1,35,0,0
59210,-100,4,2,4,60,0,1
70047,-100,4,2,3,40,0,1
72744,-100,4,2,3,48,0,1
73646,-100,4,2,1,50,0,0
74097,-133.333333333333,4,2,1,50,0,0
84473,-133.333333333333,4,2,1,15,0,0
86278,-133.333333333333,4,2,1,35,0,0
88082,-83.3333333333333,4,2,4,60,0,1
102518,-100,4,2,1,10,0,0

[Colours]
Combo1 : 206,174,217
Combo2 : 242,155,170
Combo3 : 255,227,142
Combo4 : 182,214,169
Combo5 : 160,213,222
SliderBorder : 255,255,255

[HitObjects]
472,200,1466,6,0,P|475:228|472:248,1,44.2500016880036,2|0,0:0|0:0,0:0:0:0:
392,268,1917,2,0,P|388:240|392:220,1,44.2500016880036
312,296,2368,2,0,P|314:317|310:339,1,44.2500016880036
229,315,2819,2,0,P|226:293|230:271,1,44.2500016880036
232,192,3270,6,0,L|172:192,3,44.2500016880036,2|0|0|0,0:0|0:0|0:0|0:0,0:0:0:0:
156,264,4172,2,0,L|108:264,3,44.2500016880036
96,184,5075,6,0,P|116:180|140:184,1,44.2500016880036,2|0,0:0|0:0,0:0:0:0:
148,104,5526,2,0,P|128:108|104:104,1,44.2500016880036
196,40,5977,2,0,P|217:36|239:40,1,44.2500016880036
272,112,6428,2,0,P|250:115|228:111,1,44.2500016880036
148,104,6879,6,0,L|148:152,3,44.2500016880036,2|0|0|0,0:0|0:0|0:0|0:0,0:0:0:0:
116,220,7781,2,0,L|116:264,3,44.2500016880036
200,252,8684,5,12,0:0:0:0:
60,308,9135,1,8,0:0:0:0:
4,168,9586,1,8,0:0:0:0:
144,112,10037,1,8,0:0:0:0:
100,208,10488,5,0,0:0:0:0:
248,184,10939,1,8,0:0:0:0:
220,36,11390,1,8,0:0:0:0:
72,60,11841,1,8,0:0:0:0:
248,184,12293,5,8,0:0:0:0:
396,168,12744,1,8,0:0:0:0:
416,316,13195,1,8,0:0:0:0:
268,332,13646,1,8,0:0:0:0:
268,332,14097,6,0,L|236:332,3,22.1250008440018,8|0|0|0,0:0|0:0|0:0|0:0,0:0:0:0:
208,324,14548,2,0,L|176:312,3,22.1250008440018,8|0|0|0,0:0|0:0|0:0|0:0,0:0:0:0:
156,296,14999,6,0,L|136:272,3,22.1250008440018,8|0|0|0,0:0|0:0|0:0|0:0,0:0:0:0:
124,244,15450,2,0,L|112:216,3,22.1250008440018,8|0|0|0,0:0|0:0|0:0|0:0,0:0:0:0:
100,192,15902,6,0,P|84:168|80:136,1,59,4|0,0:0|0:0,0:0:0:0:
140,84,16353,2,0,P|156:108|160:140,1,59,8|0,0:0|0:0,0:0:0:0:
244,132,16804,2,0,P|248:103|264:78,1,59,0|0,0:0|0:0,0:0:0:0:
324,133,17255,2,0,P|319:161|303:186,1,59,8|0,0:0|0:0,0:0:0:0:
224,212,17706,6,0,P|172:240|128:284,1,118,0|8,0:0|0:0,0:0:0:0:
52,304,18383,1,0,0:0:0:0:
68,224,18608,2,0,P|109:182|137:130,1,118,0|8,0:0|0:0,0:0:0:0:
128,48,19285,1,0,0:0:0:0:
60,96,19511,5,0,0:0:0:0:
137,130,19736,1,0,0:0:0:0:
204,84,19962,1,8,0:0:0:0:
268,136,20187,1,0,0:0:0:0:
268,136,20413,2,0,P|296:124|324:124,1,59,0|0,0:0|0:0,0:0:0:0:
380,64,20864,2,0,P|396:88|404:120,1,59,8|0,0:0|0:0,0:0:0:0:
484,140,21315,6,0,P|472:168|440:188,1,59,0|0,0:0|0:0,0:0:0:0:
444,268,21766,2,0,P|412:260|384:240,1,59,8|0,0:0|0:0,0:0:0:0:
328,192,22217,1,0,0:0:0:0:
260,144,22443,1,8,0:0:0:0:
260,144,22669,1,8,0:0:0:0:
260,240,22894,1,0,0:0:0:0:
186,269,23120,6,0,L|130:289,2,59,0|0|8,0:0|0:0|0:0,0:0:0:0:
260,240,23796,1,0,0:0:0:0:
196,188,24022,2,0,L|140:168,2,59,0|0|8,0:0|0:0|0:0,0:0:0:0:
260,240,24699,1,0,0:0:0:0:
324,292,24924,6,0,L|380:312,2,59,0|0|8,0:0|0:0|0:0,0:0:0:0:
260,240,25600,1,0,0:0:0:0:
336,212,25826,2,0,L|392:192,2,59,0|0|8,0:0|0:0|0:0,0:0:0:0:
260,240,26503,1,0,0:0:0:0:
184,276,26729,6,0,B|156:288|128:276|128:276|96:264|68:276,3,118,0|8|0|8,0:0|0:0|0:0|0:0,0:0:0:0:
88,196,28308,1,0,0:0:0:0:
160,152,28533,2,0,L|148:76,1,59,8|0,0:0|0:0,0:0:0:0:
232,80,28984,2,0,L|244:156,1,59,8|0,0:0|0:0,0:0:0:0:
276,212,29435,2,0,L|304:236,3,29.5,8|0|0|0,0:0|0:0|0:0|0:0,0:0:0:0:
332,248,29887,2,0,L|368:256,3,29.5,8|0|0|0,0:0|0:0|0:0|0:0,0:0:0:0:
396,260,30338,6,0,P|428:264|460:260,1,59,4|0,0:0|0:0,0:0:0:0:
424,184,30789,2,0,P|455:175|480:156,1,59,8|0,0:0|0:0,0:0:0:0:
412,104,31240,2,0,P|382:106|353:102,1,59
384,24,31691,2,0,P|355:16|331:0,1,59,8|0,0:0|0:0,0:0:0:0:
248,0,32142,6,0,P|223:16|195:24,1,59
224,104,32593,2,0,P|193:108|156:100,1,59,8|0,0:0|0:0,0:0:0:0:
80,180,33044,2,0,P|110:175|148:184,1,59
108,256,33496,2,0,P|136:263|160:280,1,59,8|0,0:0|0:0,0:0:0:0:
220,336,33947,6,0,P|280:340|340:336,1,118,0|8,0:0|0:0,0:0:0:0:
388,272,34623,1,0,0:0:0:0:
468,296,34849,2,0,P|472:236|468:176,1,118,0|8,0:0|0:0,0:0:0:0:
408,124,35526,1,0,0:0:0:0:
352,184,35751,6,0,P|348:216|352:248,3,59,0|0|8|0,0:0|0:0|0:0|0:0,0:0:0:0:
380,320,36653,2,0,L|316:320,1,59,0|8,0:0|0:0,0:0:0:0:
272,252,37105,2,0,L|208:252,1,59,8|0,0:0|0:0,0:0:0:0:
148,200,37556,6,0,P|144:140|148:80,1,118,0|8,0:0|0:0,0:0:0:0:
96,20,38232,1,0,0:0:0:0:
44,84,38458,2,0,P|48:144|44:204,1,118,0|8,0:0|0:0,0:0:0:0:
4,276,39135,1,0,0:0:0:0:
88,272,39360,6,0,P|148:268|212:272,1,118,0|8,0:0|0:0,0:0:0:0:
188,352,40037,1,0,0:0:0:0:
268,332,40262,2,0,P|328:336|392:332,1,118,0|8,0:0|0:0,0:0:0:0:
464,308,40939,1,0,0:0:0:0:
400,252,41165,6,0,P|396:224|400:192,1,59
464,140,41616,2,0,P|468:112|464:80,1,59,8|0,0:0|0:0,0:0:0:0:
384,68,42067,2,0,P|351:70|324:68,1,59
276,140,42518,2,0,P|243:137|216:140,1,59,8|0,0:0|0:0,0:0:0:0:
136,148,42969,5,8,0:0:0:0:
56,172,43195,1,0,0:0:0:0:
136,148,43420,1,8,0:0:0:0:
120,228,43646,1,0,0:0:0:0:
96,308,43872,2,0,L|80:340,3,29.5,8|0|0|0,0:0|0:0|0:0|0:0,0:0:0:0:
48,328,44323,2,0,L|32:360,3,29.5,8|0|0|0,0:0|0:0|0:0|0:0,0:0:0:0:
0,356,44774,5,4,0:0:0:0:
96,308,45225,6,0,L|156:308,2,44.2500016880036
120,228,45902,2,0,L|180:228,2,44.2500016880036
36,244,46578,2,0,P|4:164|36:84,1,177.000006752014,8|0,1:0|0:0,0:0:0:0:
160,16,47932,1,0,0:0:0:0:
288,76,48383,5,8,1:0:0:0:
236,208,48834,2,0,L|236:252,2,44.2500016880036
308,200,49511,2,0,L|308:156,2,44.2500016880036
312,272,50187,2,0,P|384:320|452:268,1,177.000006752014,8|0,1:0|0:0,0:0:0:0:
388,148,51541,1,0,0:0:0:0:
456,24,51992,5,8,1:0:0:0:
316,44,52443,2,0,L|272:44,2,44.2500016880036
280,116,53120,2,0,L|324:116,2,44.2500016880036
200,120,53796,2,0,P|180:200|104:256,1,177.000006752014,8|0,1:0|0:0,0:0:0:0:
60,120,55150,1,0,0:0:0:0:
256,192,55601,12,2,58759,1:0:0:0:
140,136,59210,6,0,L|204:136,1,59,4|0,0:0|0:0,0:0:0:0:
168,236,59661,2,0,L|109:236,1,59,8|0,0:0|0:0,0:0:0:0:
36,160,60112,2,0,P|32:128|40:100,1,59
143,78,60563,2,0,P|147:110|139:138,1,59,8|0,0:0|0:0,0:0:0:0:
168,236,61014,5,0,0:0:0:0:
132,336,61240,1,0,0:0:0:0:
64,256,61465,1,8,0:0:0:0:
168,236,61691,1,0,0:0:0:0:
272,208,61917,2,0,P|297:204|336:184,1,59
268,104,62368,2,0,P|293:75|304:52,1,59,8|0,0:0|0:0,0:0:0:0:
408,56,62819,6,0,P|421:81|442:103,1,59
440,208,63270,2,0,P|419:229|405:255,1,59,8|0,0:0|0:0,0:0:0:0:
360,352,63721,1,0,0:0:0:0:
360,352,63947,1,0,0:0:0:0:
260,316,64172,1,8,0:0:0:0:
260,316,64398,1,0,0:0:0:0:
156,328,64623,6,0,L|96:340,2,59,0|0|8,0:0|0:0|0:0,0:0:0:0:
200,232,65300,1,0,0:0:0:0:
200,232,65526,2,0,P|204:208|200:172,1,59,0|8,0:0|0:0,0:0:0:0:
300,136,65977,2,0,P|296:160|300:196,1,59,8|0,0:0|0:0,0:0:0:0:
372,272,66428,6,0,L|436:284,1,59
434,185,66879,2,0,L|492:196,2,59,8|0|0,0:0|0:0|0:0,0:0:0:0:
344,128,67556,1,0,0:0:0:0:
256,184,67781,1,8,0:0:0:0:
344,128,68007,1,0,0:0:0:0:
248,84,68232,6,0,L|188:56,1,59
132,144,68684,2,0,L|68:156,1,59,8|0,0:0|0:0,0:0:0:0:
28,252,69135,1,0,0:0:0:0:
60,352,69360,1,0,0:0:0:0:
136,276,69586,1,8,0:0:0:0:
208,352,69811,1,0,0:0:0:0:
232,252,70037,6,0,P|288:232|336:196,1,118,8|8,0:0|0:0,0:0:0:0:
384,104,70714,1,0,0:0:0:0:
280,84,70939,2,0,P|224:103|177:138,1,118,8|8,0:0|0:0,0:0:0:0:
124,232,71616,1,0,0:0:0:0:
192,312,71841,6,0,L|256:316,1,59,8|0,0:0|0:0,0:0:0:0:
320,236,72293,2,0,L|256:232,1,59,8|0,0:0|0:0,0:0:0:0:
192,152,72744,2,0,L|168:108,3,29.5,8|0|0|0,0:0|0:0|0:0|0:0,0:0:0:0:
148,100,73195,2,0,L|108:76,3,29.5,8|0|0|0,0:0|0:0|0:0|0:0,0:0:0:0:
92,84,73646,5,4,0:0:0:0:
24,188,74097,2,0,L|24:244,1,44.2500016880036
48,308,74548,2,0,L|48:344,2,22.1250008440018,2|2|0,0:0|0:0|0:0,0:0:0:0:
124,288,74999,2,0,P|148:292|168:288,1,44.2500016880036
144,212,75450,1,8,1:0:0:0:
276,236,75902,6,0,L|328:236,1,44.2500016880036
372,176,76353,2,0,L|372:144,2,22.1250008440018,2|2|0,0:0|0:0|0:0,0:0:0:0:
400,252,76804,2,0,P|396:276|400:300,1,44.2500016880036
476,276,77255,1,8,1:0:0:0:
480,112,77706,6,0,L|480:60,1,44.2500016880036
408,32,78157,2,0,L|384:24,2,22.1250008440018,2|2|0,0:0|0:0|0:0,0:0:0:0:
400,112,78608,2,0,P|380:128|356:136,1,44.2500016880036
284,140,79059,1,8,1:0:0:0:
152,52,79511,6,0,L|116:76,1,44.2500016880036
48,116,79962,2,0,L|24:116,2,22.1250008440018,2|2|0,0:0|0:0|0:0,0:0:0:0:
120,156,80413,2,0,P|124:180|120:204,1,44.2500016880036
80,268,80864,6,0,P|120:280|168:264,1,88.5000033760072,8|0,1:0|0:0,0:0:0:0:
220,212,81541,1,0,0:0:0:0:
276,268,81766,2,0,P|316:280|364:264,1,88.5000033760072
488,172,82669,6,0,P|484:128|488:80,1,88.5000033760072,8|0,1:0|0:0,0:0:0:0:
428,32,83345,1,0,0:0:0:0:
372,88,83571,2,0,P|376:132|372:180,1,88.5000033760072
256,192,84473,12,2,87631,1:0:0:0:
110,84,88082,6,0,P|106:119|110:154,1,70.7999978393555,4|0,0:0|0:0,0:0:0:0:
206,184,88533,2,0,P|209:148|205:113,1,70.7999978393555,8|0,0:0|0:0,0:0:0:0:
306,112,88984,2,0,P|302:147|305:182,1,70.7999978393555
401,152,89435,2,0,P|404:116|401:81,1,70.7999978393555,8|0,0:0|0:0,0:0:0:0:
336,204,89887,5,0,0:0:0:0:
348,304,90112,1,0,0:0:0:0:
256,264,90338,1,8,0:0:0:0:
180,204,90563,5,0,0:0:0:0:
164,304,90789,1,0,0:0:0:0:
256,264,91014,1,0,0:0:0:0:
256,164,91240,2,0,P|284:140|304:100,1,70.7999978393555,8|0,0:0|0:0,0:0:0:0:
256,164,91691,6,0,P|228:140|208:100,2,70.7999978393555,0|0|8,0:0|0:0|0:0,0:0:0:0:
156,172,92368,2,0,P|136:140|132:104,2,70.7999978393555
212,252,93044,1,8,0:0:0:0:
212,252,93270,1,0,0:0:0:0:
148,328,93496,6,0,L|80:356,1,70.7999978393555
28,272,93947,2,0,L|96:244,1,70.7999978393555,8|0,0:0|0:0,0:0:0:0:
92,144,94398,2,0,L|26:117,1,70.7999978393555,0|8,0:0|0:0,0:0:0:0:
81,34,94849,2,0,L|146:60,1,70.7999978393555,8|0,0:0|0:0,0:0:0:0:
236,100,95300,6,0,P|304:108|380:100,1,141.599995678711,0|8,0:0|0:0,0:0:0:0:
472,68,95977,1,0,0:0:0:0:
464,168,96202,2,0,P|456:236|464:312,1,141.599995678711,0|8,0:0|0:0,0:0:0:0:
376,352,96879,1,0,0:0:0:0:
288,308,97105,5,0,0:0:0:0:
196,340,97330,1,0,0:0:0:0:
136,260,97556,2,0,L|64:256,2,70.7999978393555,8|0|0,0:0|0:0|0:0,0:0:0:0:
228,228,98232,1,0,0:0:0:0:
304,164,98458,1,8,0:0:0:0:
288,64,98684,1,0,0:0:0:0:
304,164,98909,6,0,P|368:196|436:176,1,141.599995678711,0|8,0:0|0:0,0:0:0:0:
472,88,99586,2,0,P|444:56|404:44,2,70.7999978393555
433,178,100262,2,0,L|413:254,1,70.7999978393555,8|0,0:0|0:0,0:0:0:0:
352,324,100714,5,0,0:0:0:0:
272,268,100939,5,0,0:0:0:0:
188,320,101165,5,8,0:0:0:0:
96,284,101390,5,0,0:0:0:0:
52,196,101616,6,0,P|32:168|20:120,1,70.7999978393555
88,60,102067,2,0,P|108:88|120:136,2,70.7999978393555,8|0|4,0:0|0:0|0:0,0:0:0:0:
