osu file format v10

[General]
AudioFilename: Doppelman - Error!!.mp3
AudioLeadIn: 0
PreviewTime: 55581
Countdown: 0
SampleSet: Normal
StackLeniency: 0.7
Mode: 0
LetterboxInBreaks: 0
EpilepsyWarning: 1

[Editor]
Bookmarks: 22649,33628,44600,66542,77514,83000,83010,89857,100828,111800,133742,139247,144733,155685,166676
DistanceSpacing: 1
BeatDivisor: 2
GridSize: 8

[Metadata]
Title:Error!!
TitleUnicode:Error!!
Artist:Doppelman
ArtistUnicode:Doppelman
Creator:D33d
Version:Danger
Source:Touhou
Tags:utsuho reiuji okuu nuclear fusion OnosakiHito RandomJibberish Deed David
BeatmapID:153987
BeatmapSetID:50042

[Difficulty]
HPDrainRate:6
CircleSize:3
OverallDifficulty:6
ApproachRate:6
SliderMultiplier:1.6
SliderTickRate:2

[Events]
//Background and Video events
0,0,"BG.jpg"
//Break Periods
2,77724,81959
2,133952,138188
//Storyboard Layer 0 (Background)
//Storyboard Layer 1 (Fail)
//Storyboard Layer 2 (Pass)
//Storyboard Layer 3 (Foreground)
Sprite,Foreground,Centre,"Deedbg.jpg",320,240 L,55924,32 F,0,0,686,1,0 S,0,0,686,1,1.1 F,1,686,,0 L,145067,32 F,0,0,686,1,0 S,0,0,686,1,1.1 F,1,686,,0 F,0,22664,23014,1,0 S,1,22664,23014,1,1.1 F,0,24057,24393,1,0 S,1,24057,24393,1,1.1 F,0,24569,24922,1,0 S,1,24569,24922,1,1.05 F,0,28152,28495,1,0 S,1,28152,28495,1,1.1 F,0,89867,90210,1,0 S,1,89867,90210,1,1.1 F,0,91238,91581,1,0 S,1,91238,91581,1,1.1 F,0,91752,92095,1,0 S,1,91752,92095,1,1.05 F,0,95352,95695,1,0 S,1,95352,95695,1,1.1 F,0,167019,,0
Sprite,Foreground,Centre,"BGFLASH.jpg",320,240 S,0,628,,1 F,0,628,799,0.6,0.7 F,0,799,1313,0.7,0 F,0,3370,3542,0.6,0.7 F,0,3542,4056,0.7,0 F,0,6113,6285,0.6,0.7 F,0,6285,6799,0.7,0 F,0,8856,9028,0.6,0.7 F,0,9028,9542,0.7,0 F,0,11599,12970,0.3,0.6 F,0,12970,14342,0.6,0.3 F,0,14342,15713,0.3,0.6 F,0,15713,17085,0.6,0.3 F,0,17085,18464,0.3,0.6 F,0,18464,19851,0.6,0.3 F,0,19851,21246,0.3,1 F,0,21246,22649,1,0 F,1,23014,23102,0,0.5 F,2,23102,23541,0.5,0 F,2,25410,25752,0,0.4 F,1,25752,26095,0.4,0 F,2,26781,27124,0,0.4 F,1,27124,27467,0.4,0 F,1,28495,28581,0,0.5 F,2,28581,29010,0.5,0 F,2,30895,31238,0,0.4 F,1,31238,31581,0.4,0 F,2,32267,32610,0,0.4 F,1,32610,32952,0.4,0 F,0,52838,,0 F,2,52838,53524,0,0.6 F,0,53524,,0.6 F,0,53524,54210,0.6,0 F,0,54895,55581,1,0 F,1,90210,90295,0,0.4 F,2,90295,90552,0.4,0 F,2,92610,92952,0,0.4 F,1,92952,93295,0.4,0 F,2,93981,94324,0,0.4 F,1,94324,94667,0.4,0 F,1,95695,95781,0,0.5 F,2,95781,96038,0.5,0 F,2,98095,98438,0,0.4 F,1,98438,98781,0.4,0 F,2,99467,99810,0,0.4 F,1,99810,100152,0.4,0 F,0,141981,142667,0,0.6 F,0,142667,143352,0.6814955,0 F,0,144038,144724,1,0 M,0,172152,173524,320,240,320,235 F,0,172152,173524,0,0.5 M,0,173524,174895,320,235,320,240 F,0,173524,174895,0.5,0 M,0,174895,176267,320,240,320,235 F,0,174895,176267,0,0.5 M,0,176267,177638,320,235,320,240 F,0,176267,177638,0.5,0
Sprite,Foreground,Centre,"BGFLASH.jpg",320,240 M,0,172152,173524,320,240,320,245 F,0,172152,173524,0,0.5 M,0,173524,174895,320,245,320,240 F,0,173524,174895,0.5,0 M,0,174895,176267,320,240,320,245 F,0,174895,176267,0,0.5 M,0,176267,177638,320,245,320,240 F,0,176267,177638,0.5,0
Sprite,Foreground,Centre,"BGfade.jpg",320,240 F,0,43238,44610,0,0.6 F,0,50095,50438,0.6,0 F,0,54210,,1 F,0,54467,,0 F,0,54895,55581,0,1 F,0,55581,,0 F,0,100838,101010,0,1 F,0,101010,107095,1 F,0,107095,111810,1 F,0,111810,113181,1,0 F,0,143352,,1 F,0,143610,,0
Sprite,Foreground,Centre,"BGfade.jpg",320,240 F,0,44610,45467,1,0 S,1,44610,45467,1,1.1 F,0,47352,48210,1,0 S,1,47352,48210,1,1.1
Sprite,Foreground,Centre,"BGflame.jpg",320,240 L,34324,8 F,2,0,343,0,0.8 F,1,343,686,0.8,0 F,0,686,1372,0 F,2,26095,26438,0,0.6 F,1,26438,26781,0.6,0 F,2,27467,27810,0,0.6 F,1,27810,28152,0.6,0 F,2,31581,31924,0,0.6 F,1,31924,32267,0.6,0 F,2,32952,33295,0,0.6 F,1,33295,33638,0.6,0 F,0,54467,,1 F,0,54724,,0 F,0,89524,,1 F,0,89867,,0 F,2,93295,93638,0,0.6 F,1,93638,93981,0.6,0 F,2,94667,95010,0,0.6 F,1,95010,95352,0.6,0 F,2,98781,99124,0,0.6 F,1,99124,99467,0.6,0 F,2,100152,100495,0,0.6 F,1,100495,100838,0.6,0 F,0,110952,111038,0,1 F,0,111038,111467,1,0 F,0,143610,,1 F,0,143867,,0 T,HitSoundClap,100838,104952 F,0,0,86,0,1 F,0,0,600,1,0 T,HitSoundClap,106324,110438 F,0,0,86,0,1 F,0,0,600,1,0
Sprite,Foreground,Centre,"Border.png",320,240 F,0,110438,110952,1,0 T,HitSoundFinish,100667,109752 F,0,0,172,1,0
Sprite,Foreground,Centre,"dim.png",320,240 F,0,799,1313,0.4,1 F,0,3370,,0 F,0,3542,4056,0.4,1 F,0,6113,,0 F,0,6285,,0.4 F,0,6285,6799,0.4,1 F,0,8856,,0 F,0,9028,9542,0.4,1 F,0,11599,,0 F,0,45981,46324,0.8,0 F,0,46495,46838,0.8,0 F,0,48724,49067,0.8,0 F,0,49238,49581,0.8,0 F,0,50095,,0 F,0,50095,50438,0,1 F,0,50438,,1 F,0,50438,,1 F,0,51467,51810,0,1 F,0,51810,52838,1 F,0,52838,53524,1,0 F,0,89867,,0 F,0,105981,106152,1,0 F,0,139238,139581,0,1 F,0,140610,140952,0,1 F,0,140952,141981,1 F,0,141981,142667,1,0 F,0,142667,,0 F,0,177467,181752,1
Sprite,Foreground,Centre,"I CAN BE CYAN.jpg",320,240 L,33638,8 F,2,0,343,0,1 F,1,343,686,1,0 F,0,686,1372,0 L,112152,28 F,0,0,686,0.6,0 S,0,0,686,1,1.1 F,1,686,,0 F,0,24057,24393,0.6,0 F,0,25076,25252,0.4,0 F,0,29524,29867,0.6,0 F,0,30552,30724,0.8,0 F,0,91238,91581,0.6,0 F,0,92267,92438,0.4,0 F,0,96724,97238,0.6,0 F,0,97752,97924,0.8,0 F,0,105638,105810,0.8,0 F,1,133752,136495,1,0 S,0,133752,136495,1,1.5
Sprite,Foreground,Centre,"NuclearFins.png",320,240 F,0,49752,50095,0.7,0 F,0,55581,55752,0,0.4 S,0,55581,55752,0.1,1 R,0,55581,77514,0,10.496 S,49752,55582,1,1 F,0,55752,77514,0.468 F,0,77514,77524,0.468 R,0,77514,77524,10.496,18.85047 F,0,77524,78895,0.4,0 S,0,77524,78895,0.7,1.3 R,0,77524,78895,18.85047,29.41047 F,0,144724,144895,0,0.7919999 S,0,144724,144895,0.1,1.02 R,0,144724,166667,29.41047,39.02253 R,0,166667,166676,39.02253,39.02647 F,0,166667,168038,0.6,0 S,0,166667,168038,0.612,1.3 R,0,166676,168038,39.02647,47.18647
Sprite,Foreground,Centre,"NuclearCentre.png",320,240 F,0,55581,55752,0,0.75 S,0,55581,55752,0.1,1 R,0,55581,77514,0,-7.645112 S,0,55752,77514,1 F,0,55752,77524,0.75 S,0,77514,77524,1,0.7038201 R,0,77514,77524,-7.645112,-26.432 F,0,77524,78895,0.7560001,0 S,0,77524,78895,0.7038201,1.3 R,0,77524,78895,-26.432,-31.632 F,0,111810,113181,0 F,0,113181,144724,0 R,0,144724,144733,-31.632 F,0,144724,144895,0,0.8 S,0,144724,144895,0.1,1 R,0,144733,,-31.632 R,0,144733,166667,-31.632,-44.096 F,0,166667,168038,1,0 S,0,166667,168038,0.6159999,1.3 R,0,166667,168038,-44.096,-50
Sprite,Foreground,Centre,"BOOM.png",320,240 F,0,23541,,0.5 F,0,23541,,0.5 S,0,23541,,1 F,0,23541,23882,0.5,0 F,0,23882,,0 F,0,29010,29352,0.5,0 F,0,29352,,0 F,0,30038,30381,0.7,0 F,0,47010,47352,0.7,0 M,0,77524,78895,320,240,325,240 F,0,77524,78895,0,0.5 F,0,78895,80266,0.5,0 M,0,78895,80267,325,240,320,240 F,0,78895,80267,0.5,0 M,0,80267,81638,320,240,325,240 F,0,80267,81638,0,0.5 M,0,81638,83010,325,240,320,240 F,0,81638,83010,0.5,0 M,0,83010,84381,320,240,325,240 F,0,83010,84381,0,0.5 M,0,84381,85752,325,240,320,240 F,0,84381,85752,0.5,0 M,0,85752,87124,320,240,325,240 F,0,85752,87124,0,0.7 M,0,87124,88152,325,240,320,240 F,0,87124,88452,0.7,0 M,0,88152,89593,320,240 F,0,88452,,0 F,0,88495,89524,1,0 S,0,88495,89524,1.2,1 F,0,90724,91067,0.5,0 F,0,91067,,0 F,0,96210,96552,0.5,0 F,0,96552,,0 F,0,97238,97581,0.5,0 F,0,176952,,1 F,0,177124,,0 F,0,177295,,1 F,0,177467,,0
Sprite,Foreground,Centre,"BOOM.png",320,240 M,0,77524,78895,320,240,315,240 F,0,77524,78895,0,0.5 M,0,78895,80267,315,240,320,240 F,0,78895,80267,0.5,0 M,0,80267,81638,320,240,315,240 F,0,80267,81638,0,0.5 M,0,81638,83010,315,240,320,240 F,0,81638,83010,0.5,0 M,0,83010,84381,320,240,315,240 F,0,83010,84381,0,0.5 M,0,84381,85752,315,240,320,240 F,0,84381,85752,0.5,0 M,0,85752,87124,320,240,315,240 F,0,85752,87124,0,0.7 M,0,87124,88152,315,240,320,240 F,0,87124,88452,0.7,0 M,0,166667,168038,320,240,315,240 F,0,166667,168038,0,0.5 M,0,168038,169410,315,240,320,240 F,0,168038,169410,0.5,0 M,0,169410,170781,320,240,315,240 F,0,169410,170781,0,0.5 M,0,170781,172152,315,240,320,240 F,0,170781,172152,0.5,0
//Storyboard Sound Samples
//Background Colour Transformations
3,100,163,162,255

[TimingPoints]
628,342.857142857143,4,1,2,100,1,0
17085,344.827586206897,4,1,0,100,1,0
18464,346.820809248555,4,1,0,100,1,0
19851,348.837209302326,4,1,0,100,1,0
21246,350.877192982456,4,1,0,100,1,0
22664,350.877192982456,4,1,0,100,1,0
23531,-100,4,1,0,80,0,0
23882,350.877192982456,4,1,1,70,1,0
24057,350.877192982456,4,1,1,70,1,0
24393,352.941176470588,4,1,0,80,1,0
24569,-100,4,1,0,80,0,0
24900,352.941176470588,4,1,2,60,1,0
25076,-100,4,1,0,80,0,0
25410,342.857142857143,4,1,0,80,1,0
26428,-100,4,1,0,80,0,0
27457,-100,4,1,1,70,0,0
27800,-100,4,1,0,80,0,0
29000,-100,4,1,0,80,0,0
29514,-100,4,1,0,80,0,0
30028,-100,4,1,2,70,0,0
30542,-100,4,1,0,80,0,0
31571,-100,4,1,1,70,0,0
31742,-100,4,1,0,80,0,0
34314,-100,4,1,1,70,0,0
34485,-100,4,1,0,80,0,0
34828,-100,4,1,1,70,0,0
36028,-100,4,1,0,80,0,0
36885,-100,4,1,1,70,0,0
37410,-100,4,1,0,80,0,0
37742,-100,4,1,0,80,0,0
38600,-100,4,1,1,70,0,0
38771,-100,4,1,0,80,0,0
39800,-100,4,1,1,70,0,0
40142,-100,4,1,0,80,0,0
40485,-100,4,1,0,80,0,0
41514,-100,4,1,0,80,0,0
42542,-100,4,1,1,70,0,0
42714,-100,4,1,0,80,0,0
44257,-100,4,1,1,70,0,0
44600,-100,4,1,0,80,0,0
47010,-100,4,1,1,70,0,0
47352,-100,4,1,0,80,0,0
48200,-100,4,1,0,80,0,0
48724,-100,4,1,1,70,0,0
49228,-100,4,1,0,80,0,0
49571,-100,4,1,0,80,0,0
50438,-100,4,1,1,70,0,0
51457,-100,4,1,0,80,0,0
51810,-100,4,1,1,70,0,0
52485,-100,4,1,0,80,0,0
52838,-100,4,1,1,70,0,0
54210,-100,4,1,2,70,0,1
54252,-100,4,1,2,70,0,0
55581,-100,4,1,1,70,0,1
56600,-100,4,1,0,80,0,1
57628,-100,4,1,1,70,0,1
57714,-100,4,1,0,80,0,1
60381,-100,4,1,1,70,0,1
62085,-100,4,1,0,80,0,1
62600,-100,4,1,1,70,0,1
62771,-100,4,1,0,80,0,1
63124,-100,4,1,2,70,0,1
63467,-100,4,1,0,80,0,1
64657,-100,4,1,1,70,0,1
64828,-100,4,1,0,80,0,1
65171,-100,4,1,1,70,0,1
65942,-100,4,1,0,80,0,1
66371,-100,4,1,1,70,0,1
66542,-100,4,1,1,60,0,1
67571,-100,4,1,0,80,0,1
68600,-100,4,1,1,70,0,1
68685,-100,4,1,0,80,0,1
70657,-100,4,1,1,70,0,1
71000,-100,4,1,0,80,0,1
71342,-100,4,1,1,70,0,1
71428,-100,4,1,2,60,0,1
71942,-100,4,1,0,80,0,1
72200,-100,4,1,1,70,0,1
77342,-100,4,1,0,80,0,0
77524,-100,4,1,0,80,0,1
77685,-100,4,1,0,80,0,0
83000,-100,4,1,0,80,0,0
83514,-100,4,1,1,70,0,0
84200,-100,4,1,0,80,0,0
84724,-100,4,1,1,70,0,0
85228,-100,4,1,0,80,0,0
86267,-100,4,1,1,70,0,0
86428,-100,4,1,0,80,0,0
86600,-100,4,1,1,70,0,0
87800,-100,4,1,0,80,0,0
88495,-100,4,1,2,80,0,1
88518,-100,4,1,2,80,0,0
89837,-100,4,1,0,80,0,0
90694,-100,4,1,0,80,0,0
91060,-100,4,1,1,70,0,0
91712,-100,4,1,0,80,0,0
92085,-100,4,1,2,60,0,0
92256,-100,4,1,0,80,0,0
93627,-100,4,1,0,80,0,0
94656,-100,4,1,1,70,0,0
94999,-100,4,1,0,80,0,0
95170,-100,4,1,1,70,0,0
95341,-100,4,1,0,80,0,0
96199,-100,4,1,0,80,0,0
96713,-100,4,1,0,80,0,0
97227,-100,4,1,0,80,0,0
97741,-100,4,1,0,80,0,0
101684,-100,4,2,0,100,0,0
102199,-100,4,1,0,80,0,0
102724,-100,4,2,0,80,0,0
103570,-100,4,1,0,80,0,0
104256,-100,4,2,2,80,0,0
104427,-100,4,2,0,80,0,0
104941,-100,4,1,0,80,0,0
105627,-100,4,2,0,80,0,0
105970,-100,4,1,2,70,0,0
106313,-100,4,1,0,80,0,0
106999,-100,4,2,2,80,0,0
107684,-100,4,1,0,80,0,0
108370,-100,4,2,2,80,0,0
108713,-100,4,2,0,100,0,0
109056,-100,4,1,0,80,0,0
109741,-100,4,2,2,80,0,0
110427,-100,4,1,0,80,0,0
111456,-100,4,1,1,70,0,0
115227,-100,4,1,0,80,0,0
115913,-100,4,1,1,70,0,0
116599,-100,4,1,1,70,0,0
116599,-100,4,1,0,80,0,0
117970,-100,4,1,1,70,0,0
118313,-100,4,1,0,80,0,0
118827,-100,4,1,1,70,0,0
118999,-100,4,1,0,80,0,0
119170,-100,4,1,1,70,0,0
120027,-100,4,1,1,70,0,0
121741,-100,4,1,0,80,0,0
122427,-100,4,1,2,70,0,0
122770,-100,4,1,0,80,0,0
123284,-100,4,1,1,70,0,0
124141,-100,4,1,0,80,0,0
126027,-100,4,1,1,70,0,0
126884,-100,4,1,0,80,0,0
127056,-100,4,1,1,70,0,0
127227,-100,4,1,0,80,0,0
128256,-100,4,1,1,70,0,0
128770,-100,4,1,1,70,0,0
129284,-100,4,1,0,80,0,0
129456,-100,4,1,1,70,0,0
133741,-100,4,1,0,80,0,0
139395,-100,4,2,0,80,0,0
140256,-100,4,1,1,70,0,0
140599,-100,4,1,0,80,0,0
140756,-100,4,2,0,80,0,0
141613,-100,4,1,0,80,0,0
141970,-100,4,1,1,70,0,0
143352,-100,4,1,2,70,0,1
143384,-100,4,1,2,70,0,0
144724,-100,4,1,1,70,0,1
145741,-100,4,1,0,80,0,1
146770,-100,4,1,1,70,0,1
146856,-100,4,1,0,80,0,1
148141,-100,4,1,0,80,0,1
149513,-100,4,1,1,70,0,1
150199,-100,4,1,1,70,0,1
150884,-100,4,1,1,70,0,1
151227,-100,4,1,0,80,0,1
151913,-100,4,1,0,80,0,1
152256,-100,4,1,2,70,0,1
152599,-100,4,1,0,80,0,1
153799,-100,4,1,1,70,0,1
153970,-100,4,1,0,80,0,1
154313,-100,4,1,1,70,0,1
155610,-100,4,1,1,70,0,1
156713,-100,4,1,0,80,0,1
157741,-100,4,1,1,80,0,1
158084,-100,4,1,0,80,0,1
158438,-100,4,1,0,100,0,1
159627,-100,4,1,1,100,0,1
160141,-100,4,1,0,100,0,1
160313,-100,4,1,1,100,0,1
160570,-100,4,1,0,100,0,1
161170,-100,4,1,1,90,0,1
161524,-100,4,1,1,70,0,1
162552,-100,4,1,1,90,0,1
162895,-100,4,1,1,70,0,1
163313,-100,4,1,0,80,0,1
166624,-100,4,1,0,80,0,0
166667,-100,4,1,0,100,0,1
166710,-100,4,1,0,80,0,0

[Colours]
Combo1 : 255,201,13
Combo2 : 255,0,108
Combo3 : 15,87,255
Combo4 : 255,112,6
SliderBorder: 255,255,255

[HitObjects]
256,88,22664,5,4,0:0:0
256,88,23014,1,4,0:0:0
256,328,23541,1,8,0:0:0
480,272,24057,1,4,0:0:0
256,224,24569,1,4,0:0:0
32,176,25076,1,2,0:0:0
120,304,25410,6,0,B|204:393|374:392|460:245|424:128,1,480,4|0,0:0|0:0,0:0:0
296,36,26781,1,2,0:0:0
256,192,27124,1,8,0:0:0
256,192,27295,1,4,0:0:0
216,348,27638,1,0,0:0:0
216,348,27810,1,8,0:0:0
20,308,28152,5,4,0:0:0
20,308,28495,1,4,0:0:0
80,76,29010,1,8,0:0:0
320,76,29524,1,10,0:0:0
260,308,30038,1,8,0:0:0
468,192,30552,1,10,0:0:0
468,352,30895,6,0,B|376:204|200:168|48:268,1,480,4|8,0:0|0:0,0:0:0
24,112,32267,2,0,B|256:0|488:112,1,480,2|8,0:0|0:0,0:0:0
400,244,33638,6,0,B|344:308|232:276|280:212|168:180|112:244,1,320,4|0,0:0|0:0,0:0:0
180,296,34495,1,8,0:0:0
112,64,35010,2,0,B|168:0|280:32|232:96|344:128|400:64,1,320,2|0,0:0|0:0,0:0:0
356,220,36038,1,8,0:0:0
312,372,36381,6,0,B|120:356|72:192,1,320,4|0,0:0|0:0,0:0:0
176,72,37410,1,8,0:0:0
336,72,37752,1,2,0:0:0
440,192,38095,1,0,0:0:0
440,192,38267,1,8,0:0:0
336,316,38610,1,0,0:0:0
336,316,38781,1,8,0:0:0
336,156,39124,6,0,B|176:156,1,160,2|2,0:0|0:0,0:0:0
92,292,39810,1,0,0:0:0
8,156,40152,1,8,0:0:0
140,68,40495,2,0,B|256:15|372:68,2,240,2|0|8,0:0|0:0|0:0,0:0:0
48,200,41867,5,4,0:0:0
336,332,42552,1,0,0:0:0
176,332,42895,1,8,0:0:0
256,192,43238,1,2,0:0:0
96,192,43581,1,8,0:0:0
176,52,43924,1,8,0:0:0
336,52,44267,1,8,0:0:0
416,192,44610,5,6,0:0:0
416,192,44952,1,6,0:0:0
176,232,45467,1,0,0:0:0
376,368,45981,1,4,0:0:0
136,368,46495,1,4,0:0:0
336,232,47010,1,8,0:0:0
336,72,47352,5,6,0:0:0
176,72,47695,1,6,0:0:0
40,272,48210,1,8,0:0:0
256,376,48724,1,4,0:0:0
472,272,49238,1,4,0:0:0
256,168,49752,1,8,0:0:0
112,96,50095,6,0,B|16:224,1,160,4|0,0:0|0:0,0:0:0
80,372,50781,2,0,B|176:244,1,160,0|8,0:0|0:0,0:0:0
336,244,51467,2,0,B|432:372,1,160,4|0,0:0|0:0,0:0:0
496,224,52152,2,0,B|400:96,1,160,0|6,0:0|0:0,0:0:0
256,28,52838,6,0,B|240:108|140:168|40:108|24:28,2,320,4|2|4,0:0|0:0|0:0,0:0:0
80,232,55581,6,0,B|108:352|256:436|404:352|432:232,1,480,4|8,0:0|0:0,0:0:0
280,272,56952,2,10,B|196:304|96:192|196:80|280:112,1,320,6|8,0:0|0:0,0:0:0
416,192,57981,1,8,0:0:0
256,192,58324,5,4,0:0:0
336,52,58667,1,12,0:0:0
176,52,59010,1,4,0:0:0
176,52,59181,1,2,0:0:0
32,120,59524,2,0,B|-14:211|35:344|174:370|256:304,1,400,2|8,0:0|0:0,0:0:0
496,32,61067,6,0,B|176:32,1,320,4|0,0:0|0:0,0:0:0
16,32,62095,1,8,0:0:0
16,192,62438,1,4,0:0:0
176,192,62781,1,8,0:0:0
336,192,63124,1,8,0:0:0
496,192,63467,1,0,0:0:0
504,352,63810,6,0,B|476:260|356:260|328:352,2,240,4|4|8,0:0|0:0|0:0,0:0:0
468,196,65181,2,0,B|360:164|252:236|232:352,1,320,4|8,0:0|0:0,0:0:0
136,16,66552,6,0,B|16:44|-68:192|16:340|136:368,1,480,4|8,0:0|0:0,0:0:0
96,216,67924,2,10,B|64:132|176:32|288:132|256:216,1,320,6|8,0:0|0:0,0:0:0
176,352,68952,1,8,0:0:0
336,352,69295,5,4,0:0:0
416,216,69638,1,12,0:0:0
496,80,69981,1,4,0:0:0
496,80,70152,1,2,0:0:0
336,80,70495,2,0,B|208:80|208:80|148:80|116:132,1,240,6|8,0:0|0:0,0:0:0
108,292,71352,1,0,0:0:0
256,228,71695,1,8,0:0:0
336,368,72038,6,0,B|456:340|540:192|456:44|336:16,1,480,4|8,0:0|0:0,0:0:0
176,16,73409,2,0,B|56:44|-27:192|56:340|176:368,1,480,4|8,0:0|0:0,0:0:0
256,192,74781,12,4,77524,0:0:0
200,340,83009,22,2,B|84:132,1,240,4|0,0:0|0:0,0:0:0
136,60,83695,2,0,B|376:60,2,240,8|4|4,0:0|0:0|0:0,0:0:0
32,204,85067,1,8,0:0:0
312,340,85752,22,2,B|428:132,1,240,4|0,0:0|0:0,0:0:0
376,60,86438,2,0,B|136:60,2,240,8|4|8,0:0|0:0|0:0,0:0:0
256,192,87809,1,8,0:0:0
168,344,88152,1,8,0:0:0
256,344,88324,1,8,0:0:0
344,344,88495,1,4,0:0:0
256,88,89867,21,4,0:0:0
256,88,90209,1,4,0:0:0
256,328,90724,1,8,0:0:0
32,272,91238,1,4,0:0:0
256,224,91752,1,4,0:0:0
480,176,92267,1,2,0:0:0
392,304,92609,6,0,B|308:393|138:392|52:245|88:128,1,480,4|8,0:0|0:0,0:0:0
216,36,93981,1,2,0:0:0
256,192,94324,1,8,0:0:0
256,192,94495,1,4,0:0:0
296,348,94838,1,0,0:0:0
296,348,95009,1,8,0:0:0
492,308,95352,5,4,0:0:0
492,308,95695,1,4,0:0:0
432,76,96209,1,8,0:0:0
192,76,96724,1,10,0:0:0
252,308,97238,1,8,0:0:0
44,192,97752,1,10,0:0:0
44,352,98095,6,0,B|136:204|312:168|464:268,1,480,4|8,0:0|0:0,0:0:0
488,112,99467,2,0,B|256:0|24:112,1,480,2|8,0:0|0:0,0:0:0
24,272,100838,5,4,0:0:0
24,272,101181,2,0,B|256:336,1,240,4|2,0:0|0:0,0:0:0
256,96,102209,2,0,B|488:160,2,240,4|0|2,0:0|0:0|0:0,0:0:0
128,192,103581,5,4,0:0:0
128,192,103924,1,4,0:0:0
256,288,104267,1,8,0:0:0
256,288,104438,1,2,0:0:0
480,192,104952,1,4,0:0:0
480,192,105295,1,4,0:0:0
368,76,105638,1,8,0:0:0
256,192,105981,1,8,0:0:0
144,308,106324,6,0,B|56:288|16:192|56:96|144:76,1,320,4|8,0:0|0:0,0:0:0
368,308,107695,2,0,B|456:288|496:192|456:96|368:76,1,320,4|8,0:0|0:0,0:0:0
256,192,108724,1,2,0:0:0
256,352,109067,5,4,0:0:0
96,72,109752,1,8,0:0:0
416,72,110438,2,0,B|280:96|256:228,2,240,6|8|2,0:0|0:0|0:0,0:0:0
512,208,111809,6,0,B|444:360|256:438|68:360|0:208,2,640,4|8|4,0:0|0:0|0:0,0:0:0
110,171,115238,6,4,B|152:195|152:195|208:227|257:191,1,160,4|10,0:0|0:0,0:0:0
204,124,115752,2,4,B|252:87|308:119|308:119|419:183,1,240,0|8,0:0|0:0,0:0:0
280,288,116609,1,2,0:0:0
360,316,116781,2,4,B|336:372|272:372|272:372|222:372,1,160,4|0,0:0|0:0,0:0:0
135,368,117295,6,0,B|16:340|-68:192|16:44|136:16,1,480,4|8,0:0|0:0,0:0:0
256,120,118667,1,0,0:0:0
112,192,119009,1,8,0:0:0
256,264,119352,1,0,0:0:0
400,192,119695,1,8,0:0:0
375,15,120038,6,0,B|496:44|580:192|496:340|377:368,1,480,4|8,0:0|0:0,0:0:0
24,272,121752,1,8,0:0:0
24,112,122095,1,8,0:0:0
168,40,122438,1,8,0:0:0
112,192,122781,6,0,B|168:128|280:160|232:224|344:256|400:192,1,320,4|0,0:0|0:0,0:0:0
332,132,123638,2,0,B|402:66|506:126|484:219,1,240,2|4,0:0|0:0,0:0:0
408,360,124495,2,0,B|256:271|104:360,1,320,8|8,0:0|0:0,0:0:0
28,219,125524,6,0,B|6:126|110:66|180:132,1,240,4|0,0:0|0:0,0:0:0
116,192,126209,2,0,B|184:280|328:280|396:192,1,320,0|4,0:0|0:0,0:0:0
484,176,127067,1,0,0:0:0
464,260,127238,2,0,B|364:396|148:396|48:260,1,480,8|4,0:0|0:0,0:0:0
16,32,128952,6,0,B|112:160,1,160,0|8,0:0|0:0,0:0:0
208,32,129638,2,0,B|304:160,1,160,0|8,0:0|0:0,0:0:0
400,32,130324,2,0,B|496:160,1,160,0|8,0:0|0:0,0:0:0
256,192,131009,12,4,133752,0:0:0
400,96,139238,54,0,B|496:224,1,160,4|0,0:0|0:0,0:0:0
432,372,139924,2,0,B|336:244,1,160,0|8,0:0|0:0,0:0:0
176,244,140609,2,0,B|80:372,1,160,4|0,0:0|0:0,0:0:0
16,224,141295,2,0,B|112:96,1,160,0|6,0:0|0:0,0:0:0
256,28,141981,6,0,B|272:108|372:168|472:108|488:28,2,320,4|2|4,0:0|0:0|0:0,0:0:0
432,232,144724,6,0,B|404:352|256:436|108:352|80:232,1,480,4|8,0:0|0:0,0:0:0
232,272,146095,2,8,B|316:304|416:192|316:80|232:112,1,320,6|0,0:0|0:0,0:0:0
96,192,147124,1,8,0:0:0
256,192,147467,5,4,0:0:0
176,52,147809,1,12,0:0:0
336,52,148152,1,4,0:0:0
336,52,148324,1,2,0:0:0
480,120,148667,2,0,B|526:211|477:344|338:370|256:304,1,400,2|8,0:0|0:0,0:0:0
16,32,150209,6,4,B|336:32,1,320,4|0,0:0|0:0,0:0:0
496,32,151238,1,8,0:0:0
496,192,151581,1,4,0:0:0
336,192,151924,1,8,0:0:0
176,192,152267,1,8,0:0:0
16,192,152609,1,0,0:0:0
8,352,152952,6,0,B|36:260|156:260|184:352,2,240,4|4|8,0:0|0:0|0:0,0:0:0
44,196,154324,2,0,B|152:164|260:236|280:352,1,320,4|8,0:0|0:0,0:0:0
376,16,155695,6,0,B|496:44|580:192|496:340|376:368,1,480,4|8,0:0|0:0,0:0:0
416,216,157067,2,10,B|448:132|336:32|224:132|256:216,1,320,6|8,0:0|0:0,0:0:0
336,352,158095,1,8,0:0:0
176,352,158438,5,4,0:0:0
96,216,158781,1,4,0:0:0
16,80,159124,1,4,0:0:0
16,80,159295,1,2,0:0:0
176,80,159638,2,0,B|304:80|304:80|364:80|396:132,1,240,6|8,0:0|0:0,0:0:0
416,216,160324,1,0,0:0:0
440,304,160495,1,8,0:0:0
256,240,160838,1,8,0:0:0
72,304,161181,5,4,0:0:0
28,132,161524,1,8,0:0:0
72,56,161695,1,0,0:0:0
116,132,161867,1,0,0:0:0
256,56,162209,1,8,0:0:0
440,56,162552,5,4,0:0:0
396,228,162895,1,8,0:0:0
484,228,163067,1,0,0:0:0
440,304,163238,1,0,0:0:0
256,304,163581,1,8,0:0:0
256,192,163924,12,4,166667,0:0:0
