osu file format v12

[General]
AudioFilename: Ascension (MitiS Remix).mp3
AudioLeadIn: 0
PreviewTime: 66526
Countdown: 1
SampleSet: Soft
StackLeniency: 0.7
Mode: 0
LetterboxInBreaks: 1
WidescreenStoryboard: 0

[Editor]
Bookmarks: 45173,56467,112938,135526,146820,149644,214585
DistanceSpacing: 0.6
BeatDivisor: 4
GridSize: 4

[Metadata]
Title:Ascension (MitiS Remix)
TitleUnicode:Ascension (MitiS Remix)
Artist:Dope Arcade
ArtistUnicode:Dope Arcade
Creator:ebugers
Version:Insane
Source:
Tags:drumstep dubstep
BeatmapID:281177
BeatmapSetID:107273

[Difficulty]
HPDrainRate:7
CircleSize:4
OverallDifficulty:7
ApproachRate:9
SliderMultiplier:1.6
SliderTickRate:1

[Events]
//Background and Video events
0,0,"bg.jpg",0,0
//Break Periods
2,45373,55867
2,132902,134220
2,135726,146220
//Storyboard Layer 0 (Background)
//Storyboard Layer 1 (Fail)
//Storyboard Layer 2 (Pass)
//Storyboard Layer 3 (Foreground)
//Storyboard Sound Samples
//Background Colour Transformations
3,100,163,162,255

[TimingPoints]
1408.81395348837,352.941176470588,4,2,1,100,1,0
22497,-83.3333333333333,4,2,1,100,0,0
24702,-100,4,2,1,100,0,0
25761,-83.3333333333333,4,2,1,100,0,0
26114,-100,4,2,1,100,0,0
26644,-83.3333333333333,4,2,1,100,0,0
27526,-100,4,2,1,100,0,0
28232,-83.3333333333333,4,2,1,100,0,0
28938,-100,4,2,1,100,0,0
29997,-83.3333333333333,4,2,1,100,0,0
30348,-100,4,2,1,100,0,0
31055,-83.3333333333333,4,2,1,100,0,0
31761,-100,4,2,1,100,0,0
33349,-100,4,3,0,100,0,0
33526,-100,4,3,0,60,0,0
33702,-100,4,3,0,100,0,0
33879,-83.3333333333333,4,2,1,100,0,0
35997,-100,4,2,1,100,0,0
37055,-83.3333333333333,4,2,1,100,0,0
41291,-100,4,2,1,100,0,0
42526,-83.3333333333333,4,2,1,100,0,0
43055,-100,4,2,1,100,0,0
66526,-100,4,3,1,100,0,0
67673,-100,4,2,1,100,0,0
67761,-100,4,2,1,100,0,1
67849,-83.3333333333333,4,2,1,100,0,1
71291,-100,4,2,1,100,0,1
72173,-83.3333333333333,4,2,1,100,0,1
74114,-100,4,2,1,100,0,1
78526,-66.6666666666667,4,2,1,100,0,1
78614,-100,4,2,1,100,0,1
79144,-83.3333333333333,4,2,1,100,0,1
82585,-100,4,2,1,100,0,1
83467,-83.3333333333333,4,2,1,100,0,1
85408,-100,4,2,1,100,0,1
90614,-83.3333333333333,4,2,1,100,0,0
91055,-100,4,2,1,100,0,0
92997,-83.3333333333333,4,2,1,100,0,0
93879,-100,4,2,1,100,0,0
94408,-83.3333333333333,4,2,1,100,0,0
95291,-100,4,2,1,100,0,0
96173,-83.3333333333333,4,2,1,100,0,0
96702,-100,4,2,1,100,0,0
97232,-83.3333333333333,4,2,1,100,0,0
98119,-100,4,2,1,100,0,0
98644,-83.3333333333333,4,2,1,100,0,0
102349,-100,4,2,1,100,0,0
102879,-83.3333333333333,4,2,1,100,0,0
103761,-100,4,2,1,100,0,0
104644,-83.3333333333333,4,2,1,100,0,0
105173,-100,4,2,1,100,0,0
105702,-83.3333333333333,4,2,1,100,0,0
107997,-100,4,2,1,100,0,0
158114,-100,4,2,1,100,0,1
158202,-83.3333333333333,4,2,1,100,0,1
161644,-100,4,2,1,100,0,1
162526,-83.3333333333333,4,2,1,100,0,1
164467,-100,4,2,1,100,0,1
168879,-66.6666666666667,4,2,1,100,0,1
168967,-100,4,2,1,100,0,1
169497,-83.3333333333333,4,2,1,100,0,1
169597,-83.3333333333333,4,2,1,100,0,1
172938,-100,4,2,1,100,0,1
173820,-83.3333333333333,4,2,1,100,0,1
175761,-100,4,2,1,100,0,1
180791,-83.3333333333333,4,2,1,100,0,0
181408,-100,4,2,1,100,0,0
183349,-83.3333333333333,4,2,1,100,0,0
184232,-100,4,2,1,100,0,0
184761,-83.3333333333333,4,2,1,100,0,0
185644,-100,4,2,1,100,0,0
186526,-83.3333333333333,4,2,1,100,0,0
187055,-100,4,2,1,100,0,0
187585,-83.3333333333333,4,2,1,100,0,0
188467,-100,4,2,1,100,0,0
188997,-83.3333333333333,4,2,1,100,0,0
192702,-100,4,2,1,100,0,0
193232,-83.3333333333333,4,2,1,100,0,0
194114,-100,4,2,1,100,0,0
194997,-83.3333333333333,4,2,1,100,0,0
195526,-100,4,2,1,100,0,0
196055,-83.3333333333333,4,2,1,100,0,0
198349,-100,4,2,1,100,0,0

[HitObjects]
48,192,10585,2,0,P|88:120|176:104,1,160
144,192,11291,1,0,0:0:0:0:
464,192,11644,1,0,0:0:0:0:
464,192,11820,2,0,P|424:264|336:280,1,160
368,184,12349,2,0,P|293:206|257:275,1,160
257,275,12879,1,0,0:0:0:0:
368,184,13408,1,0,0:0:0:0:
368,184,13761,6,0,P|296:136|344:112,1,160
144,200,14467,1,0,0:0:0:0:
144,200,14644,2,0,P|216:248|168:272,1,160
320,120,15173,2,0,L|320:312,1,160
240,200,15702,2,0,L|240:392,1,160
320,280,16232,1,0,0:0:0:0:
240,200,16585,1,0,0:0:0:0:
240,356,16938,6,0,P|152:320|144:240,1,160
216,280,17467,2,0,L|184:104,1,160
100,128,17997,2,0,P|140:56|240:56,1,160
188,124,18526,2,0,B|296:144|296:144|320:152|324:184,1,160
324,180,19055,1,0,0:0:0:0:
480,276,19408,1,0,0:0:0:0:
328,364,19761,1,0,0:0:0:0:
326,189,20114,5,0,0:0:0:0:
326,189,20291,2,0,P|312:272|232:320,1,160
185,194,20820,2,0,P|200:112|280:64,1,160
258,68,21349,1,0,0:0:0:0:
256,192,21438,12,0,22232,0:0:0:0:
336,184,22585,5,2,0:0:0:0:
352,96,22761,1,0,0:0:0:0:
448,48,22938,2,0,P|448:104|400:168,1,95.9999970703126
336,184,23291,2,0,P|336:128|384:64,1,95.9999970703126,8|0,0:0|0:0,0:0:0:0:
432,140,23644,1,0,0:0:0:0:
268,128,23820,1,0,0:0:0:0:
424,184,23997,1,0,0:0:0:0:
268,128,24173,1,0,0:0:0:0:
400,220,24349,1,0,0:0:0:0:
268,128,24526,1,2,0:0:0:0:
372,252,24702,2,0,P|284:248|224:308,1,160,8|0,0:0|0:0,0:0:0:0:
120,268,25232,1,0,0:0:0:0:
48,164,25408,5,2,0:0:0:0:
120,76,25585,1,0,0:0:0:0:
136,188,25761,2,0,P|192:168|228:104,1,95.9999970703126
276,48,26114,2,0,L|304:220,1,160,8|0,0:0|0:0,0:0:0:0:
332,336,26644,2,0,P|332:292|372:236,1,95.9999970703126
464,328,26997,1,2,0:0:0:0:
356,248,27173,1,2,0:0:0:0:
356,248,27526,2,0,P|296:288|192:300,1,160,8|0,0:0|0:0,0:0:0:0:
112,252,28055,5,0,0:0:0:0:
0,176,28232,2,0,L|124:128,1,95.9999970703126,2|0,0:0|0:0,0:0:0:0:
204,216,28585,2,0,L|80:264,1,95.9999970703126
88,140,28938,2,0,L|268:72,1,160,8|0,0:0|0:0,0:0:0:0:
348,100,29467,1,0,0:0:0:0:
388,204,29644,1,0,0:0:0:0:
308,280,29820,1,0,0:0:0:0:
200,252,29997,2,0,P|172:216|152:136,1,95.9999970703126,0|2,0:0|0:0,0:0:0:0:
268,160,30349,2,0,P|320:232|344:336,1,160,8|0,0:0|0:0,0:0:0:0:
328,76,30879,1,0,0:0:0:0:
328,76,31055,6,0,P|372:94|408:125,1,95.9999970703126,2|0,0:0|0:0,0:0:0:0:
280,164,31408,2,0,P|235:145|199:114,1,95.9999970703126
180,220,31761,2,0,P|96:232|36:316,1,160,8|0,0:0|0:0,0:0:0:0:
148,320,32291,1,0,0:0:0:0:
180,220,32467,2,0,P|208:192|224:144,1,80,0|2,0:0|0:0,0:0:0:0:
332,96,32820,1,2,0:0:0:0:
332,96,33173,5,8,0:0:0:0:
224,64,33349,1,8,0:0:0:0:
128,124,33526,1,8,0:0:0:0:
124,236,33702,1,4,0:0:0:0:
208,308,33879,2,0,L|316:272,1,95.9999970703126,2|0,0:0|0:0,0:0:0:0:
352,156,34232,2,0,L|216:200,1,95.9999970703126,0|2,0:0|0:0,0:0:0:0:
164,88,34585,2,0,P|116:152|112:236,1,143.999995605469,8|0,0:0|0:0,0:0:0:0:
112,232,34938,2,0,P|128:280|112:340,1,95.9999970703126
240,268,35291,2,0,P|224:220|240:160,1,95.9999970703126
360,216,35644,5,0,0:0:0:0:
252,136,35820,1,2,0:0:0:0:
380,96,35997,2,0,P|448:136|492:232,1,160,8|0,0:0|0:0,0:0:0:0:
408,288,36526,1,0,0:0:0:0:
488,204,36702,1,2,0:0:0:0:
408,288,36879,1,0,0:0:0:0:
308,240,37055,2,0,P|258:266|160:268,1,143.999995605469
152,264,37408,2,0,P|104:248|36:264,1,95.9999970703126,8|0,0:0|0:0,0:0:0:0:
20,124,37761,5,0,0:0:0:0:
108,28,37938,1,0,0:0:0:0:
240,60,38114,1,0,0:0:0:0:
236,188,38291,1,2,0:0:0:0:
108,228,38467,2,0,P|100:280|144:360,1,143.999995605469,2|0,0:0|0:0,0:0:0:0:
144,376,38820,2,0,B|192:364|192:364|268:384,1,95.9999970703126,8|0,0:0|0:0,0:0:0:0:
260,284,39173,2,0,B|304:295|304:295|352:283,1,95.9999970703126
388,196,39526,2,0,P|432:168|460:96,1,95.9999970703126,2|0,0:0|0:0,0:0:0:0:
432,36,39879,2,0,P|388:64|360:136,1,95.9999970703126
272,164,40232,2,0,P|192:148|128:96,1,143.999995605469,8|0,0:0|0:0,0:0:0:0:
128,100,40585,2,0,L|96:220,1,95.9999970703126
204,140,40938,2,0,L|172:260,1,95.9999970703126
280,180,41291,2,0,P|288:248|240:312,1,120,0|2,0:0|0:0,0:0:0:0:
252,300,41644,2,0,P|228:324|212:376,1,80,8|0,0:0|0:0,0:0:0:0:
324,380,41997,5,0,0:0:0:0:
424,336,42173,1,0,0:0:0:0:
476,236,42349,1,2,0:0:0:0:
452,124,42526,2,0,P|432:168|376:216,1,95.9999970703126
324,92,42879,1,2,0:0:0:0:
324,92,43055,2,0,P|284:128|252:224,1,120,8|0,0:0|0:0,0:0:0:0:
256,204,43408,1,0,0:0:0:0:
156,256,43585,1,2,0:0:0:0:
52,220,43761,1,2,0:0:0:0:
24,112,43938,1,2,0:0:0:0:
104,32,44114,1,2,0:0:0:0:
328,48,44467,2,0,P|388:60|464:116,1,120,8|0,0:0|0:0,0:0:0:0:
448,100,44820,1,2,0:0:0:0:
464,196,44997,1,2,0:0:0:0:
416,280,45173,1,2,0:0:0:0:
80,136,56467,6,2,L|80:192,3,40
152,152,56820,6,0,L|152:96,3,40
228,136,57173,6,2,L|228:192,3,40
304,152,57526,6,0,L|304:96,3,40
380,136,57879,6,2,L|380:192,3,40
456,152,58232,6,0,L|456:96,3,40
452,172,58585,1,0,0:0:0:0:
440,188,58673,1,0,0:0:0:0:
424,200,58761,1,0,0:0:0:0:
404,208,58849,2,0,L|336:228,1,40,0|4,0:0|0:0,0:0:0:0:
164,120,59291,5,2,0:0:0:0:
144,136,59379,1,2,0:0:0:0:
132,156,59467,1,2,0:0:0:0:
124,180,59555,1,2,0:0:0:0:
124,204,59644,2,0,L|52:236,3,40
132,224,59997,1,2,0:0:0:0:
148,244,60085,1,2,0:0:0:0:
168,256,60173,1,2,0:0:0:0:
192,264,60261,1,2,0:0:0:0:
216,268,60349,2,0,L|272:276,3,40
364,348,60702,5,2,0:0:0:0:
380,328,60791,1,2,0:0:0:0:
388,308,60879,1,2,0:0:0:0:
392,284,60967,1,2,0:0:0:0:
392,260,61055,2,0,L|380:200,3,40
288,180,61408,5,0,0:0:0:0:
272,160,61497,1,0,0:0:0:0:
264,140,61585,1,0,0:0:0:0:
260,116,61673,1,0,0:0:0:0:
260,92,61761,1,4,0:0:0:0:
432,96,62114,5,0,0:0:0:0:
420,116,62203,1,0,0:0:0:0:
400,132,62291,1,0,0:0:0:0:
380,140,62379,1,0,0:0:0:0:
356,144,62467,2,0,L|288:132,1,40
240,116,62644,1,0,0:0:0:0:
80,136,62820,5,0,0:0:0:0:
60,148,62909,1,0,0:0:0:0:
44,168,62997,1,0,0:0:0:0:
36,188,63085,1,0,0:0:0:0:
32,212,63173,2,0,L|44:280,1,40
60,328,63350,1,0,0:0:0:0:
216,300,63526,5,0,0:0:0:0:
228,280,63615,1,0,0:0:0:0:
248,264,63703,1,0,0:0:0:0:
268,256,63791,1,0,0:0:0:0:
292,252,63879,2,0,L|360:264,1,40
408,280,64056,1,0,0:0:0:0:
248,264,64232,5,0,0:0:0:0:
228,252,64321,1,0,0:0:0:0:
212,232,64409,1,0,0:0:0:0:
204,212,64497,1,0,0:0:0:0:
200,188,64585,2,0,L|212:120,1,40
228,72,64762,1,0,0:0:0:0:
376,104,64937,1,0,0:0:0:0:
396,116,65025,1,0,0:0:0:0:
412,132,65114,1,0,0:0:0:0:
424,152,65202,1,0,0:0:0:0:
432,176,65289,1,0,0:0:0:0:
416,196,65379,1,0,0:0:0:0:
396,208,65467,1,0,0:0:0:0:
380,224,65556,1,0,0:0:0:0:
368,244,65644,1,0,0:0:0:0:
360,268,65731,1,0,0:0:0:0:
344,288,65820,1,0,0:0:0:0:
320,296,65908,1,0,0:0:0:0:
296,292,65997,1,0,0:0:0:0:
276,280,66085,1,0,0:0:0:0:
260,264,66174,1,0,0:0:0:0:
248,244,66262,1,0,0:0:0:0:
240,220,66349,1,4,0:0:0:0:
320,100,66526,6,0,L|284:144,1,40
412,136,66702,2,0,L|444:96,1,40
372,228,66879,1,0,0:0:0:0:
108,152,67055,6,0,L|56:132,1,40
68,252,67232,2,0,L|24:260,1,40
160,296,67408,2,0,P|232:244|260:156,1,160,0|2,0:0|0:0,0:0:0:0:
388,172,67938,2,0,P|416:216|424:284,1,95.9999970703126,0|0,0:0|0:0,0:0:0:0:
292,260,68291,1,0,0:0:0:0:
480,188,68467,1,8,0:0:0:0:
356,132,68644,2,0,P|304:152|224:144,1,95.9999970703126
340,44,68997,1,0,0:0:0:0:
212,80,69173,1,2,0:0:0:0:
176,208,69349,6,0,P|212:244|224:320,1,95.9999970703126
92,308,69702,1,0,0:0:0:0:
68,176,69879,1,8,0:0:0:0:
196,216,70055,1,0,0:0:0:0:
116,324,70232,1,2,0:0:0:0:
60,204,70408,1,0,0:0:0:0:
196,216,70585,1,2,0:0:0:0:
292,308,70761,2,0,P|336:336|416:332,1,95.9999970703126
384,208,71114,1,0,0:0:0:0:
384,208,71291,2,0,P|409:142|376:36,1,160,8|0,0:0|0:0,0:0:0:0:
304,128,71820,5,2,0:0:0:0:
392,56,71997,1,2,0:0:0:0:
304,128,72173,2,0,P|264:104|184:96,1,95.9999970703126
92,148,72526,2,0,P|132:172|212:180,1,95.9999970703126,0|8,0:0|0:0,0:0:0:0:
316,184,72879,1,2,0:0:0:0:
236,292,73055,1,0,0:0:0:0:
344,208,73232,1,0,0:0:0:0:
264,316,73408,1,2,0:0:0:0:
400,320,73585,2,0,P|440:292|472:232,1,95.9999970703126
344,208,73938,1,0,0:0:0:0:
244,92,74114,2,0,P|312:140|344:228,1,160,8|0,0:0|0:0,0:0:0:0:
228,204,74644,5,0,0:0:0:0:
128,156,74820,1,2,0:0:0:0:
56,240,74997,1,0,0:0:0:0:
116,336,75173,1,0,0:0:0:0:
228,312,75349,1,0,0:0:0:0:
228,204,75526,2,0,P|288:152|396:156,1,160,8|2,0:0|0:0,0:0:0:0:
292,60,76055,2,0,P|264:40|192:36,1,80,0|2,0:0|0:0,0:0:0:0:
132,104,76408,5,0,0:0:0:0:
240,136,76585,1,0,0:0:0:0:
212,32,76761,1,0,0:0:0:0:
156,128,76938,1,8,0:0:0:0:
268,136,77114,1,0,0:0:0:0:
352,64,77291,1,0,0:0:0:0:
452,112,77467,1,0,0:0:0:0:
444,224,77644,6,0,L|392:300,1,80,2|0,0:0|0:0,0:0:0:0:
296,340,77997,1,0,0:0:0:0:
296,340,78085,1,0,0:0:0:0:
296,340,78173,2,0,L|184:304,1,80
132,244,78526,2,0,L|124:128,1,60.0000022888184
176,164,78702,2,0,P|192:72|276:68,1,160,0|2,0:0|0:0,0:0:0:0:
124,212,79232,6,0,P|96:168|88:100,1,95.9999970703126,0|0,0:0|0:0,0:0:0:0:
220,124,79585,1,0,0:0:0:0:
32,196,79761,1,8,0:0:0:0:
156,252,79938,2,0,P|208:232|288:240,1,95.9999970703126
172,340,80291,1,0,0:0:0:0:
300,304,80467,1,2,0:0:0:0:
336,176,80643,6,0,P|300:140|288:64,1,95.9999970703126
420,76,80996,1,0,0:0:0:0:
444,208,81173,1,8,0:0:0:0:
316,168,81349,1,0,0:0:0:0:
396,60,81526,1,2,0:0:0:0:
452,180,81702,1,0,0:0:0:0:
316,168,81879,1,2,0:0:0:0:
220,76,82055,2,0,P|176:48|96:52,1,95.9999970703126
128,176,82408,1,0,0:0:0:0:
128,176,82585,2,0,P|102:241|136:348,1,160,8|0,0:0|0:0,0:0:0:0:
208,256,83114,5,2,0:0:0:0:
120,328,83291,1,2,0:0:0:0:
208,256,83467,2,0,P|248:280|328:288,1,95.9999970703126
420,236,83820,2,0,P|380:212|300:204,1,95.9999970703126,0|8,0:0|0:0,0:0:0:0:
196,200,84173,1,2,0:0:0:0:
276,92,84349,1,0,0:0:0:0:
168,176,84526,1,0,0:0:0:0:
248,68,84702,1,2,0:0:0:0:
112,64,84879,2,0,P|72:92|40:152,1,95.9999970703126
168,176,85232,1,0,0:0:0:0:
268,292,85408,2,0,P|200:244|168:156,1,160,8|0,0:0|0:0,0:0:0:0:
284,180,85938,5,0,0:0:0:0:
384,228,86114,1,2,0:0:0:0:
456,144,86291,1,0,0:0:0:0:
396,48,86467,1,0,0:0:0:0:
284,72,86643,1,0,0:0:0:0:
284,180,86820,2,0,P|224:232|116:228,1,160,8|2,0:0|0:0,0:0:0:0:
220,324,87349,6,0,P|248:344|320:348,1,80,0|2,0:0|0:0,0:0:0:0:
380,280,87702,1,0,0:0:0:0:
272,248,87879,1,0,0:0:0:0:
300,352,88055,1,0,0:0:0:0:
356,256,88232,1,8,0:0:0:0:
244,248,88408,1,0,0:0:0:0:
160,320,88585,1,0,0:0:0:0:
60,272,88761,1,2,0:0:0:0:
80,160,88938,6,0,L|76:60,1,80,2|0,0:0|0:0,0:0:0:0:
188,104,89291,2,0,L|184:4,1,80
327,24,89644,2,0,L|324:104,1,80
435,80,89997,2,0,L|432:160,1,80
428,272,90349,2,0,L|428:304,3,20
272,356,90702,5,2,0:0:0:0:
152,292,90879,1,0,0:0:0:0:
168,160,91055,2,0,P|216:88|316:64,1,160,8|0,0:0|0:0,0:0:0:0:
284,176,91585,1,0,0:0:0:0:
388,212,91761,1,2,0:0:0:0:
460,124,91938,1,0,0:0:0:0:
380,44,92114,2,0,B|360:80|360:80|356:144,1,80
284,176,92467,2,0,P|224:132|132:124,1,160,8|2,0:0|0:0,0:0:0:0:
16,176,92997,6,0,P|48:208|124:228,1,95.9999970703126,0|2,0:0|0:0,0:0:0:0:
144,352,93349,2,0,P|109:318|65:301,1,95.9999970703126
65,301,93702,1,0,0:0:0:0:
200,288,93879,2,0,P|292:284|368:232,1,160,8|0,0:0|0:0,0:0:0:0:
296,128,94408,2,2,P|272:168|272:228,1,95.9999970703126
364,196,94761,1,0,0:0:0:0:
188,148,94938,1,0,0:0:0:0:
272,44,95114,1,0,0:0:0:0:
188,148,95291,2,0,P|196:224|144:308,1,160,8|0,0:0|0:0,0:0:0:0:
92,204,95820,5,0,0:0:0:0:
188,148,95997,1,2,0:0:0:0:
196,280,96173,2,0,P|248:288|316:268,1,95.9999970703126
420,240,96526,1,0,0:0:0:0:
360,144,96702,2,0,P|308:204|292:288,1,160,8|0,0:0|0:0,0:0:0:0:
204,212,97232,2,0,P|224:160|268:108,1,95.9999970703126,0|2,0:0|0:0,0:0:0:0:
163,91,97585,2,0,P|136:130|120:176,1,95.9999970703126,0|0,0:0|0:0,0:0:0:0:
180,296,97938,1,0,0:0:0:0:
312,284,98114,2,0,P|380:236|416:128,1,191.999994140625,8|2,0:0|0:0,0:0:0:0:
320,40,98644,6,2,B|292:80|292:80|280:156,1,95.9999970703126,0|2,0:0|0:0,0:0:0:0:
160,176,98997,2,0,B|188:136|188:136|200:60,1,95.9999970703126,0|2,0:0|0:0,0:0:0:0:
60,84,99349,1,2,0:0:0:0:
8,208,99526,1,8,0:0:0:0:
256,304,100232,6,0,P|276:252|316:208,1,95.9999970703126
436,180,100585,1,0,0:0:0:0:
432,152,100673,1,0,0:0:0:0:
416,128,100761,1,0,0:0:0:0:
288,164,100938,1,0,0:0:0:0:
260,160,101026,1,0,0:0:0:0:
236,144,101114,1,0,0:0:0:0:
220,120,101202,1,0,0:0:0:0:
196,104,101291,1,0,0:0:0:0:
96,192,101467,5,0,0:0:0:0:
168,308,101644,2,0,P|220:328|284:324,1,95.9999970703126,2|0,0:0|0:0,0:0:0:0:
380,272,101997,1,0,0:0:0:0:
260,328,102173,1,2,0:0:0:0:
356,236,102349,2,0,P|380:157|352:52,1,160,8|0,0:0|0:0,0:0:0:0:
232,72,102879,2,2,P|216:112|216:168,1,95.9999970703126
148,280,103232,2,0,P|131:235|131:187,1,95.9999970703126,2|0,0:0|0:0,0:0:0:0:
28,104,103585,1,0,0:0:0:0:
152,56,103761,2,0,P|212:88|252:196,1,160,8|2,0:0|0:0,0:0:0:0:
140,168,104291,5,0,0:0:0:0:
68,256,104467,1,2,0:0:0:0:
136,344,104644,2,0,B|188:344|188:344|248:368,1,95.9999970703126
336,276,104997,1,2,0:0:0:0:
224,272,105173,2,0,P|216:188|268:104,1,160,8|0,0:0|0:0,0:0:0:0:
376,76,105702,2,2,B|344:116|344:116|324:196,1,95.9999970703126
456,216,106055,2,0,B|445:259|445:259|413:299,1,95.9999970703126,2|0,0:0|0:0,0:0:0:0:
288,352,106408,1,0,0:0:0:0:
168,292,106585,2,0,P|160:244|104:188,1,95.9999970703126,8|0,0:0|0:0,0:0:0:0:
40,304,106938,5,0,0:0:0:0:
100,184,107114,1,2,0:0:0:0:
224,132,107291,2,0,B|268:116|268:116|356:128,1,95.9999970703126,2|0,0:0|0:0,0:0:0:0:
284,252,107644,1,0,0:0:0:0:
224,132,107820,1,0,0:0:0:0:
248,24,107997,2,0,P|308:76|324:176,1,160,8|0,0:0|0:0,0:0:0:0:
140,272,108702,1,2,0:0:0:0:
344,180,109055,1,2,0:0:0:0:
128,236,109408,2,0,P|132:156|184:68,1,160,8|0,0:0|0:0,0:0:0:0:
344,180,110026,6,2,L|368:216,1,40
380,260,110291,1,2,0:0:0:0:
364,304,110467,1,2,0:0:0:0:
324,332,110644,1,2,0:0:0:0:
140,240,110820,1,8,0:0:0:0:
104,208,110997,1,2,0:0:0:0:
96,160,111173,1,2,0:0:0:0:
116,116,111349,1,2,0:0:0:0:
244,96,111526,6,10,L|272:48,1,40
208,168,111702,2,10,L|184:208,1,40
320,132,111879,2,10,L|348:84,1,40
284,204,112055,2,10,L|260:244,1,40
396,168,112232,2,10,L|424:120,1,40
360,240,112408,2,10,L|336:280,1,40
324,292,112585,1,10,0:0:0:0:
304,304,112673,1,10,0:0:0:0:
280,308,112761,1,10,0:0:0:0:
256,308,112849,1,10,0:0:0:0:
232,304,112938,1,0,0:0:0:0:
256,192,113026,12,0,113997,0:0:0:0:
200,128,114349,5,0,0:0:0:0:
328,120,115761,5,0,0:0:0:0:
80,256,117879,5,0,0:0:0:0:
160,160,118585,1,0,0:0:0:0:
320,328,119997,5,0,0:0:0:0:
432,216,121408,5,0,0:0:0:0:
312,64,123526,5,0,0:0:0:0:
224,200,124232,1,0,0:0:0:0:
72,136,125644,5,0,0:0:0:0:
176,232,126879,6,0,L|268:224,1,80
256,192,129173,2,0,L|340:108,4,80
112,136,131114,5,0,0:0:0:0:
144,96,131291,1,0,0:0:0:0:
400,248,132525,5,0,0:0:0:0:
368,288,132702,1,0,0:0:0:0:
256,192,134820,5,0,0:0:0:0:
240,76,135173,1,0,0:0:0:0:
104,72,135526,1,0,0:0:0:0:
164,264,146820,5,2,0:0:0:0:
144,248,146908,1,2,0:0:0:0:
132,228,146996,1,2,0:0:0:0:
124,204,147084,1,2,0:0:0:0:
124,180,147173,2,0,L|52:148,3,40
132,160,147526,1,2,0:0:0:0:
148,140,147614,1,2,0:0:0:0:
168,128,147702,1,2,0:0:0:0:
192,120,147790,1,2,0:0:0:0:
216,116,147879,2,0,L|272:108,3,40
364,36,148231,5,2,0:0:0:0:
380,56,148320,1,2,0:0:0:0:
388,76,148408,1,2,0:0:0:0:
392,100,148496,1,2,0:0:0:0:
392,124,148584,2,0,L|380:184,3,40
288,204,148937,5,0,0:0:0:0:
272,224,149026,1,0,0:0:0:0:
264,244,149114,5,0,0:0:0:0:
260,268,149202,1,0,0:0:0:0:
260,292,149290,1,4,0:0:0:0:
348,264,149644,5,2,0:0:0:0:
368,248,149732,1,2,0:0:0:0:
380,228,149820,1,2,0:0:0:0:
388,204,149908,1,2,0:0:0:0:
388,180,149997,2,0,L|460:148,3,40
380,160,150350,1,2,0:0:0:0:
364,140,150438,1,2,0:0:0:0:
344,128,150526,1,2,0:0:0:0:
320,120,150614,1,2,0:0:0:0:
296,116,150702,2,0,L|240:108,3,40
148,36,151055,5,2,0:0:0:0:
132,56,151144,1,2,0:0:0:0:
124,76,151232,1,2,0:0:0:0:
120,100,151320,1,2,0:0:0:0:
120,124,151408,2,0,L|132:184,3,40
224,204,151761,5,0,0:0:0:0:
240,224,151850,1,0,0:0:0:0:
248,244,151938,1,0,0:0:0:0:
252,268,152026,1,0,0:0:0:0:
252,292,152114,1,4,0:0:0:0:
80,288,152467,5,0,0:0:0:0:
92,268,152556,1,0,0:0:0:0:
112,252,152644,1,0,0:0:0:0:
132,244,152732,1,0,0:0:0:0:
156,240,152820,2,0,L|224:252,1,40
272,268,152997,1,0,0:0:0:0:
432,248,153173,5,0,0:0:0:0:
452,236,153262,1,0,0:0:0:0:
468,216,153350,1,0,0:0:0:0:
476,196,153438,1,0,0:0:0:0:
480,172,153526,2,0,L|468:104,1,40
452,56,153703,1,0,0:0:0:0:
296,84,153879,5,0,0:0:0:0:
284,104,153968,1,0,0:0:0:0:
264,120,154056,1,0,0:0:0:0:
244,128,154144,1,0,0:0:0:0:
220,132,154232,2,0,L|152:120,1,40
104,104,154409,1,0,0:0:0:0:
264,120,154585,5,0,0:0:0:0:
284,132,154674,1,0,0:0:0:0:
300,152,154762,1,0,0:0:0:0:
308,172,154850,1,0,0:0:0:0:
312,196,154938,2,0,L|300:264,1,40
284,312,155115,1,0,0:0:0:0:
108,352,155291,5,0,0:0:0:0:
132,348,155379,1,0,0:0:0:0:
156,340,155467,1,0,0:0:0:0:
180,332,155555,1,0,0:0:0:0:
200,320,155644,1,0,0:0:0:0:
220,304,155732,1,0,0:0:0:0:
240,288,155820,1,0,0:0:0:0:
256,272,155908,1,0,0:0:0:0:
268,252,155997,1,0,0:0:0:0:
276,228,156085,1,0,0:0:0:0:
292,248,156173,1,0,0:0:0:0:
308,264,156261,1,0,0:0:0:0:
332,272,156349,1,0,0:0:0:0:
356,276,156438,1,0,0:0:0:0:
380,280,156526,1,0,0:0:0:0:
404,280,156614,1,0,0:0:0:0:
428,280,156702,1,4,0:0:0:0:
352,88,157761,6,0,P|280:140|252:228,1,160,0|2,0:0|0:0,0:0:0:0:
388,212,158291,6,0,P|416:168|424:100,1,95.9999970703126,0|0,0:0|0:0,0:0:0:0:
292,124,158644,1,0,0:0:0:0:
480,196,158820,1,8,0:0:0:0:
356,252,158997,2,0,P|304:232|224:240,1,95.9999970703126
340,340,159350,1,0,0:0:0:0:
212,304,159526,1,2,0:0:0:0:
176,176,159702,6,0,P|212:140|224:64,1,95.9999970703126
92,76,160055,1,0,0:0:0:0:
68,208,160232,1,8,0:0:0:0:
196,168,160408,1,0,0:0:0:0:
116,60,160585,1,2,0:0:0:0:
60,180,160761,1,0,0:0:0:0:
196,168,160938,1,2,0:0:0:0:
292,76,161114,2,0,P|336:48|416:52,1,95.9999970703126
384,176,161467,1,0,0:0:0:0:
384,176,161644,2,0,P|409:242|376:348,1,160,8|0,0:0|0:0,0:0:0:0:
304,256,162173,5,2,0:0:0:0:
392,328,162350,1,2,0:0:0:0:
304,256,162526,2,0,P|264:280|184:288,1,95.9999970703126
92,236,162879,2,0,P|132:212|212:204,1,95.9999970703126,0|8,0:0|0:0,0:0:0:0:
316,200,163232,1,2,0:0:0:0:
236,92,163408,1,0,0:0:0:0:
344,176,163585,1,0,0:0:0:0:
264,68,163761,1,2,0:0:0:0:
400,64,163938,2,0,P|440:92|472:152,1,95.9999970703126
344,176,164291,1,0,0:0:0:0:
244,292,164467,2,0,P|312:244|344:156,1,160,8|0,0:0|0:0,0:0:0:0:
228,180,164997,5,0,0:0:0:0:
128,228,165173,1,2,0:0:0:0:
56,144,165350,1,0,0:0:0:0:
116,48,165526,1,0,0:0:0:0:
228,72,165702,1,0,0:0:0:0:
228,180,165879,2,0,P|288:232|396:228,1,160,8|2,0:0|0:0,0:0:0:0:
292,324,166408,2,0,P|264:344|192:348,1,80,0|2,0:0|0:0,0:0:0:0:
132,280,166761,5,0,0:0:0:0:
240,248,166938,1,0,0:0:0:0:
212,352,167114,1,0,0:0:0:0:
156,256,167291,1,8,0:0:0:0:
268,248,167467,1,0,0:0:0:0:
352,320,167644,1,0,0:0:0:0:
452,272,167820,1,0,0:0:0:0:
444,160,167997,6,0,L|392:84,1,80,2|0,0:0|0:0,0:0:0:0:
296,44,168350,1,0,0:0:0:0:
296,44,168438,1,0,0:0:0:0:
296,44,168526,2,0,L|184:80,1,80
132,140,168879,2,0,L|124:248,1,60.0000022888184
176,220,169055,2,0,P|192:312|276:316,1,160,0|2,0:0|0:0,0:0:0:0:
124,172,169585,6,0,P|96:216|88:284,1,95.9999970703126,0|0,0:0|0:0,0:0:0:0:
220,260,169938,1,0,0:0:0:0:
32,188,170114,1,8,0:0:0:0:
156,132,170291,2,0,P|208:152|288:144,1,95.9999970703126
172,44,170644,1,0,0:0:0:0:
300,80,170820,1,2,0:0:0:0:
336,208,170996,6,0,P|300:244|288:320,1,95.9999970703126
420,308,171349,1,0,0:0:0:0:
444,176,171526,1,8,0:0:0:0:
316,216,171702,1,0,0:0:0:0:
396,324,171879,1,2,0:0:0:0:
452,204,172055,1,0,0:0:0:0:
316,216,172232,1,2,0:0:0:0:
220,308,172408,2,0,P|176:336|96:332,1,95.9999970703126
128,208,172761,1,0,0:0:0:0:
128,208,172938,2,0,P|102:143|136:36,1,160,8|0,0:0|0:0,0:0:0:0:
208,128,173467,5,2,0:0:0:0:
120,56,173644,1,2,0:0:0:0:
208,128,173820,2,0,P|248:104|328:96,1,95.9999970703126
420,148,174173,2,0,P|380:172|300:180,1,95.9999970703126,0|8,0:0|0:0,0:0:0:0:
196,184,174526,1,2,0:0:0:0:
276,292,174702,1,0,0:0:0:0:
168,208,174879,1,0,0:0:0:0:
248,316,175055,1,2,0:0:0:0:
112,320,175232,2,0,P|72:292|40:232,1,95.9999970703126
168,208,175585,1,0,0:0:0:0:
268,92,175761,2,0,P|200:140|168:228,1,160,8|0,0:0|0:0,0:0:0:0:
284,204,176291,5,0,0:0:0:0:
384,156,176467,1,2,0:0:0:0:
456,240,176644,1,0,0:0:0:0:
396,336,176820,1,0,0:0:0:0:
284,312,176996,1,0,0:0:0:0:
284,204,177173,2,0,P|224:152|116:156,1,160,8|2,0:0|0:0,0:0:0:0:
220,60,177702,6,0,P|248:40|320:36,1,80,0|2,0:0|0:0,0:0:0:0:
380,104,178055,1,0,0:0:0:0:
272,136,178232,1,0,0:0:0:0:
300,32,178408,1,0,0:0:0:0:
356,128,178585,1,8,0:0:0:0:
244,136,178761,1,0,0:0:0:0:
160,64,178938,1,0,0:0:0:0:
60,112,179114,1,2,0:0:0:0:
80,224,179291,6,0,L|76:324,1,80,2|0,0:0|0:0,0:0:0:0:
188,280,179644,2,0,L|184:380,1,80
327,360,179997,2,0,L|324:280,1,80
435,304,180350,2,0,L|432:224,1,80
428,112,180702,2,0,L|428:80,3,20
240,28,181055,5,2,0:0:0:0:
360,92,181232,1,0,0:0:0:0:
344,224,181408,2,0,P|296:296|196:320,1,160,8|0,0:0|0:0,0:0:0:0:
228,208,181938,1,0,0:0:0:0:
124,172,182114,1,2,0:0:0:0:
52,260,182291,1,0,0:0:0:0:
132,340,182467,2,0,B|152:304|152:304|156:240,1,80
228,208,182820,2,0,P|288:252|380:260,1,160,8|2,0:0|0:0,0:0:0:0:
496,208,183350,6,0,P|464:176|388:156,1,95.9999970703126,0|2,0:0|0:0,0:0:0:0:
368,32,183702,2,0,P|402:65|446:82,1,95.9999970703126
446,82,184055,1,0,0:0:0:0:
312,96,184232,2,0,P|220:100|144:152,1,160,8|0,0:0|0:0,0:0:0:0:
216,256,184761,2,2,P|240:216|240:156,1,95.9999970703126
148,188,185114,1,0,0:0:0:0:
324,236,185291,1,0,0:0:0:0:
240,340,185467,1,0,0:0:0:0:
324,236,185644,2,0,P|316:160|368:76,1,160,8|0,0:0|0:0,0:0:0:0:
420,180,186173,5,0,0:0:0:0:
324,236,186350,1,2,0:0:0:0:
316,104,186526,2,0,P|264:96|196:116,1,95.9999970703126
92,144,186879,1,0,0:0:0:0:
152,240,187055,2,0,P|204:180|220:96,1,160,8|0,0:0|0:0,0:0:0:0:
308,172,187585,2,0,P|288:224|244:276,1,95.9999970703126,2|2,0:0|0:0,0:0:0:0:
348,292,187938,2,0,P|375:253|392:208,1,95.9999970703126
332,88,188291,1,0,0:0:0:0:
200,100,188467,2,0,P|132:148|96:244,1,160,8|2,0:0|0:0,0:0:0:0:
192,344,188997,6,0,B|220:304|220:304|232:228,1,95.9999970703126,0|2,0:0|0:0,0:0:0:0:
352,208,189350,2,0,B|324:248|324:248|312:324,1,95.9999970703126,0|2,0:0|0:0,0:0:0:0:
452,300,189702,1,2,0:0:0:0:
504,176,189879,1,8,0:0:0:0:
256,80,190585,6,0,P|236:132|196:176,1,95.9999970703126
76,204,190938,1,0,0:0:0:0:
80,232,191026,1,0,0:0:0:0:
96,256,191114,1,0,0:0:0:0:
224,220,191291,1,0,0:0:0:0:
252,224,191379,1,0,0:0:0:0:
276,240,191467,1,0,0:0:0:0:
292,264,191555,1,0,0:0:0:0:
316,280,191644,1,0,0:0:0:0:
416,192,191820,1,0,0:0:0:0:
344,76,191997,6,0,P|292:56|228:60,1,95.9999970703126,2|0,0:0|0:0,0:0:0:0:
132,112,192350,1,0,0:0:0:0:
252,56,192526,1,2,0:0:0:0:
156,148,192702,2,0,P|131:226|160:332,1,160,8|0,0:0|0:0,0:0:0:0:
280,312,193232,2,2,P|296:272|296:216,1,95.9999970703126
364,104,193585,2,0,P|380:148|380:196,1,95.9999970703126,2|0,0:0|0:0,0:0:0:0:
484,280,193938,1,0,0:0:0:0:
360,328,194114,2,0,P|300:296|260:188,1,160,8|2,0:0|0:0,0:0:0:0:
372,216,194644,5,0,0:0:0:0:
444,128,194820,1,2,0:0:0:0:
376,40,194997,2,0,B|324:40|324:40|264:16,1,95.9999970703126
176,108,195350,1,2,0:0:0:0:
288,112,195526,2,0,P|296:196|244:280,1,160,8|0,0:0|0:0,0:0:0:0:
136,308,196055,2,2,B|168:268|168:268|188:188,1,95.9999970703126
56,168,196408,2,0,B|66:124|66:124|98:84,1,95.9999970703126,2|0,0:0|0:0,0:0:0:0:
224,32,196761,1,2,0:0:0:0:
344,92,196938,2,0,P|352:140|408:196,1,95.9999970703126,8|0,0:0|0:0,0:0:0:0:
472,80,197291,5,0,0:0:0:0:
412,200,197467,1,2,0:0:0:0:
288,252,197644,2,0,B|244:268|244:268|156:256,1,95.9999970703126,2|0,0:0|0:0,0:0:0:0:
228,132,197997,1,2,0:0:0:0:
288,252,198173,1,0,0:0:0:0:
264,360,198350,2,0,P|204:308|188:208,1,160,8|2,0:0|0:0,0:0:0:0:
372,112,199055,1,2,0:0:0:0:
168,204,199408,1,2,0:0:0:0:
384,148,199761,2,0,P|380:228|328:316,1,160,8|2,0:0|0:0,0:0:0:0:
168,204,200379,6,2,L|144:168,1,40
132,124,200644,1,2,0:0:0:0:
148,80,200820,1,2,0:0:0:0:
188,52,200997,1,2,0:0:0:0:
372,144,201173,5,8,0:0:0:0:
408,176,201350,1,2,0:0:0:0:
416,224,201526,1,2,0:0:0:0:
396,268,201702,1,2,0:0:0:0:
268,288,201879,6,10,L|240:336,1,40
304,216,202055,2,10,L|328:176,1,40
192,252,202232,2,10,L|164:300,1,40
228,180,202408,2,10,L|252:140,1,40
116,216,202585,2,10,L|88:264,1,40
152,144,202761,2,10,L|176:104,1,40
188,92,202938,1,10,0:0:0:0:
208,80,203026,1,10,0:0:0:0:
232,76,203114,1,10,0:0:0:0:
256,76,203202,1,10,0:0:0:0:
280,80,203291,1,2,0:0:0:0:
72,72,203997,5,8,0:0:0:0:
144,264,205232,5,2,0:0:0:0:
176,280,205408,1,8,0:0:0:0:
400,120,206114,5,2,0:0:0:0:
400,296,206820,5,8,0:0:0:0:
176,152,207702,5,2,0:0:0:0:
192,120,207879,1,2,0:0:0:0:
360,88,208232,5,8,0:0:0:0:
408,136,208408,1,0,0:0:0:0:
424,200,208585,1,0,0:0:0:0:
400,264,208761,1,0,0:0:0:0:
344,304,208938,1,2,0:0:0:0:
88,248,209644,5,8,0:0:0:0:
168,72,210173,5,0,0:0:0:0:
208,56,210349,1,0,0:0:0:0:
336,224,210879,5,2,0:0:0:0:
304,256,211055,1,8,0:0:0:0:
80,112,211585,5,0,0:0:0:0:
120,88,211762,1,2,0:0:0:0:
392,120,212467,5,8,0:0:0:0:
304,272,213349,5,2,0:0:0:0:
200,216,213526,1,2,0:0:0:0:
256,192,213702,12,0,218114,0:0:0:0:
