osu file format v12

[General]
AudioFilename: Dope Arcade - Ascension (MitiS Remix).mp3
AudioLeadIn: 0
PreviewTime: 66364
Countdown: 0
SampleSet: Soft
StackLeniency: 0.4
Mode: 0
LetterboxInBreaks: 1
WidescreenStoryboard: 1

[Editor]
Bookmarks: 19775,33893,45216
DistanceSpacing: 0.6
BeatDivisor: 4
GridSize: 4

[Metadata]
Title:Ascension (MitiS Remix)
TitleUnicode:Ascension (MitiS Remix)
Artist:Dope Arcade
ArtistUnicode:Dope Arcade
Creator:TheRebellion
Version:The Bridge
Source:
Tags:ascension mitis remix dope arcade drumstep
BeatmapID:345147
BeatmapSetID:138178

[Difficulty]
HPDrainRate:5
CircleSize:4
OverallDifficulty:5
ApproachRate:7
SliderMultiplier:1.4
SliderTickRate:1

[Events]
//Background and Video events
0,0,"0.jpg",0,0
//Break Periods
2,45387,55581
2,132917,133934
2,135740,145934
//Storyboard Layer 0 (Background)
//Storyboard Layer 1 (Fail)
//Storyboard Layer 2 (Pass)
//Storyboard Layer 3 (Foreground)
//Storyboard Sound Samples
//Background Colour Transformations
3,100,163,162,255

[TimingPoints]
11.237,352.941176470588,4,2,1,69,1,0
38128,-83.3333333333333,4,2,1,69,0,0
39187,-100,4,2,1,69,0,0
45187,-100,4,2,0,69,0,0
56481,-83.3333333333333,4,2,1,69,0,0
62128,-100,4,2,1,69,0,0
66364,-100,4,3,0,69,0,0
67334,-100,4,1,1,69,0,0
67775,-100,4,2,1,69,0,1
77657,-100,4,3,0,69,0,0
79069,-100,4,2,1,69,0,1
88952,-100,4,3,0,69,0,0
90717,-100,4,2,1,69,0,1
100234,-100,4,3,0,69,0,0
101657,-100,4,2,1,69,0,1
111540,-100,4,1,1,30,0,0
114186,-200,4,2,1,30,0,0
129187,-100,4,2,1,30,0,0
129893,-200,4,2,1,30,0,0
134834,-100,4,2,1,69,0,0
146818,-83.3333333333333,4,2,1,69,0,0
152481,-100,4,2,1,69,0,0
155305,-76.9230769230769,4,2,1,69,0,0
157775,-100,4,1,0,69,0,0
158127,-100,4,2,1,69,0,1
168011,-100,4,3,0,69,0,0
169421,-100,4,2,1,69,0,1
179305,-100,4,3,0,69,0,0
181068,-100,4,2,1,69,0,1
190597,-100,4,3,0,69,0,0
192009,-100,4,2,1,69,0,1
201884,-100,4,1,1,30,0,0
203481,-200,4,2,1,40,0,0
208246,-100,4,2,1,40,0,0
208952,-200,4,2,1,40,0,0
214599,-200,4,2,1,5,0,0

[Colours]
Combo1 : 64,255,255
Combo2 : 85,149,244
Combo3 : 255,62,158
Combo4 : 199,199,199

[HitObjects]
256,192,19775,12,4,22246,1:0:0:0:
448,104,22599,6,0,B|408:72|408:72|344:80|312:56,1,140
256,64,23128,1,0,0:0:0:0:
192,64,23305,2,0,B|169:82|105:74|105:74|65:106,1,140
160,248,24011,2,0,L|144:288|128:328,2,70
224,216,24540,1,0,0:0:0:0:
288,200,24717,2,0,L|312:120,2,70
388,260,25423,5,0,0:0:0:0:
436,200,25599,2,0,L|480:64,1,140
408,44,26128,2,0,L|376:132,1,70
336,176,26481,2,0,P|288:176|224:108,1,140
152,72,27011,1,0,0:0:0:0:
152,72,27187,1,0,0:0:0:0:
60,208,27540,6,0,P|96:268|172:304,1,140
248,260,28246,2,0,P|208:196|128:152,1,140
155,160,28952,1,0,0:0:0:0:
224,44,29305,2,0,L|300:60,1,70
368,32,29658,2,0,P|388:88|352:184,1,140
304,200,30187,1,0,0:0:0:0:
236,232,30364,2,0,L|92:204,1,140
152,328,31070,6,0,P|212:344|308:308,2,140
80,264,32128,2,0,L|168:148,1,140
232,200,32658,2,0,L|276:128,1,70
280,28,33187,1,4,0:0:0:0:
240,56,33364,1,0,0:0:0:0:
204,84,33540,1,4,0:0:0:0:
164,112,33717,1,0,0:0:0:0:
128,140,33893,1,4,0:0:0:0:
116,240,34246,6,0,P|152:296|236:324,1,140
280,272,34775,2,0,L|360:284,2,70
212,240,35305,2,0,B|192:172|192:172|236:108,1,140
312,108,35834,2,0,B|312:152|312:152|288:184,1,70
180,176,36364,6,0,B|124:120|124:120|128:48,1,140
212,84,36893,1,0,0:0:0:0:
300,59,37070,2,0,B|304:120|304:120|248:176,1,140
300,248,37599,2,0,L|364:188,1,70
404,140,37952,1,0,0:0:0:0:
368,64,38128,2,0,P|272:88|224:168,1,167.999994873047
208,240,38834,2,0,P|280:228|340:140,1,167.999994873047
392,284,39540,6,0,L|296:316,1,83.9999974365235
248,356,39893,2,0,P|212:316|236:224,1,140
296,208,40423,1,0,0:0:0:0:
360,160,40599,2,0,L|280:40,1,140
200,64,41128,2,0,L|244:132,1,70
204,184,41481,1,0,0:0:0:0:
132,164,41658,2,0,P|76:176|56:264,1,140
240,324,42364,6,0,L|240:244,1,70
324,184,42717,2,0,L|320:348,1,140
240,324,43246,1,0,0:0:0:0:
200,244,43423,2,0,P|168:188|76:184,1,140
64,256,43952,2,0,L|152:284,1,70
232,216,44305,2,0,L|156:184,1,70
260,124,44658,2,0,L|328:152,1,70
428,100,45011,2,0,L|360:68,1,70
68,152,56481,6,0,L|68:40,2,83.9999974365235
152,200,57187,6,0,L|152:92,2,83.9999974365235
236,240,57893,6,0,L|236:144,2,83.9999974365235
324,284,58599,6,0,L|324:192,2,83.9999974365235
216,336,59305,6,0,L|104:336,1,83.9999974365235
56,336,59658,1,0,0:0:0:0:
268,240,60011,6,0,L|148:240,1,83.9999974365235
104,240,60364,1,0,0:0:0:0:
332,148,60717,6,0,L|212:148,1,83.9999974365235
168,148,61070,1,0,0:0:0:0:
388,68,61423,6,0,L|268:68,1,83.9999974365235
224,68,61776,1,0,0:0:0:0:
72,72,62128,5,0,0:0:0:0:
72,168,62481,1,0,0:0:0:0:
72,256,62834,1,0,0:0:0:0:
68,352,63187,1,0,0:0:0:0:
164,356,63540,1,0,0:0:0:0:
264,356,63893,1,0,0:0:0:0:
360,356,64246,1,0,0:0:0:0:
456,352,64599,1,0,0:0:0:0:
384,224,64952,6,0,L|436:156,2,70
312,212,65481,1,0,0:0:0:0:
240,192,65658,2,0,L|180:264,2,70
200,124,66187,1,0,0:0:0:0:
120,104,66364,6,0,P|100:160|140:248,1,140
212,228,66893,2,0,L|284:264,1,70
356,256,67246,1,0,0:0:0:0:
408,196,67423,1,0,0:0:0:0:
280,124,67775,6,0,P|268:56|204:36,1,140,4|0,1:0|0:0,0:0:0:0:
128,48,68305,1,0,0:0:0:0:
136,128,68481,2,0,P|128:184|104:216,1,70
48,192,68834,2,0,P|44:244|124:300,1,140
236,280,69540,2,0,P|240:228|176:168,1,140
284,72,70246,6,0,P|332:32|404:64,2,140,4|4|0,0:0|0:0|0:0,0:0:0:0:
232,132,71128,1,0,0:0:0:0:
156,112,71305,2,0,P|88:116|40:176,1,140
48,248,71834,2,4,L|88:308,1,70
256,272,72364,2,0,B|284:248|284:248|324:288|400:272,1,140
444,224,72893,1,4,0:0:0:0:
180,156,73423,6,0,L|28:156,2,140
256,192,74481,1,0,0:0:0:0:
336,232,74834,2,0,L|504:232,2,140
268,204,75717,2,0,L|192:236,1,70
168,300,76070,1,0,0:0:0:0:
104,264,76246,2,0,B|80:292|80:292|0:248|-4:196,1,140,4|0,0:0|0:0,0:0:0:0:
96,120,76952,2,4,B|120:92|120:92|200:136|204:188,1,140
332,216,77658,6,0,P|396:184|396:120,1,140
372,48,78187,1,0,0:0:0:0:
296,48,78364,2,0,L|204:64,1,70
160,96,78717,1,0,0:0:0:0:
64,264,79070,6,0,B|104:312|104:312|176:316|196:328,1,140,4|0,1:0|0:0,0:0:0:0:
256,288,79599,1,0,0:0:0:0:
331,321,79775,2,0,B|336:316|408:312|408:312|448:264,1,140
376,232,80305,2,0,L|328:168,1,70
344,104,80658,1,0,0:0:0:0:
304,44,80834,2,0,P|232:64|200:116,1,140
52,176,81540,6,4,L|184:248,1,140
216,320,82070,1,0,0:0:0:0:
296,328,82246,2,0,L|364:292,1,70
420,252,82599,1,8,0:0:0:0:
456,184,82775,2,0,L|444:104,1,70
404,36,83128,2,0,P|357:97|364:160,1,140
312,216,83658,1,0,0:0:0:0:
232,228,83834,1,0,0:0:0:0:
232,228,84011,2,0,L|140:204,1,70
316,56,84717,6,0,P|384:80|432:136,2,140
248,112,85599,2,0,L|296:188,1,70
256,240,85952,1,0,0:0:0:0:
192,280,86128,2,0,P|124:256|76:200,2,140
408,304,87187,6,0,L|412:148,1,140
356,104,87717,1,0,0:0:0:0:
280,64,87893,2,0,L|280:228,1,140
228,264,88423,2,0,P|192:280|136:304,1,70
64,44,88952,6,0,L|64:132,1,70
144,92,89305,2,0,L|144:164,1,70
224,148,89658,2,0,L|224:218,1,70
304,200,90011,2,0,L|304:270,1,70
380,304,90364,1,0,0:0:0:0:
252,328,90717,6,0,P|192:312|144:240,1,140
136,200,91246,1,0,0:0:0:0:
104,144,91423,1,0,0:0:0:0:
276,92,91775,6,0,L|352:104,1,70
396,112,92128,1,0,0:0:0:0:
256,232,92481,6,0,L|176:272,1,70
136,288,92834,1,0,0:0:0:0:
344,328,93187,6,0,P|412:264|416:196,1,140
380,152,93717,1,0,0:0:0:0:
304,128,93893,2,0,L|164:168,1,140
104,112,94423,2,0,P|72:136|64:180,1,70
96,236,94775,1,0,0:0:0:0:
156,288,94952,2,0,P|252:276|292:236,2,140
252,92,96011,6,0,P|312:80|396:128,2,140
168,100,96893,2,0,L|144:176,1,70
176,240,97246,1,0,0:0:0:0:
248,284,97423,2,0,P|304:252|332:168,1,140
212,56,98128,2,0,P|156:88|128:172,1,140
304,144,98834,6,0,L|428:244,1,140
368,296,99364,1,0,0:0:0:0:
296,328,99540,2,0,L|224:332,2,70
84,216,100246,6,0,B|136:176|168:252|240:184,1,140
280,144,100775,2,0,L|360:172,1,70
328,248,101128,2,0,L|400:300,1,70
196,312,101658,6,0,P|136:288|96:216,1,140
140,164,102187,1,0,0:0:0:0:
200,112,102364,2,0,L|292:108,1,70
340,112,102717,2,0,P|384:160|364:240,1,140
328,284,103246,1,0,0:0:0:0:
136,224,103775,6,0,P|92:168|100:88,1,140
144,40,104305,1,0,0:0:0:0:
224,60,104481,2,0,P|276:116|288:176,1,140
224,280,105187,6,0,L|388:280,1,140
416,224,105717,2,0,L|488:188,1,70
440,120,106070,1,0,0:0:0:0:
372,64,106246,2,0,P|312:96|284:168,1,140
256,232,106775,1,0,0:0:0:0:
124,140,107305,6,4,L|204:280,1,140
388,244,108011,2,4,L|308:104,1,140,8|4,0:0|0:0,0:0:0:0:
186,254,108717,6,4,L|308:324,1,140
325,129,109423,2,4,L|204:60,1,140,8|4,0:0|0:0,0:0:0:0:
424,40,110128,6,4,L|336:68,1,70
360,124,110481,2,4,L|284:164,1,70
308,212,110834,2,4,L|240:256,1,70,8|4,0:0|0:0,0:0:0:0:
256,308,111187,2,4,L|188:344,1,70
128,340,111540,6,0,L|80:340,6,35
68,260,112246,6,0,L|112:260,6,35
24,192,112952,5,0,0:0:0:0:
124,164,114364,5,2,0:0:0:0:
160,120,115775,5,0,0:0:0:0:
352,92,117893,5,0,0:0:0:0:
320,176,118599,1,2,0:0:0:0:
284,224,120011,5,2,0:0:0:0:
252,272,121423,5,0,0:0:0:0:
96,172,123540,6,0,P|104:120|176:76,1,140,0|2,0:0|0:0,0:0:0:0:
416,208,125658,6,0,P|408:260|336:304,1,140,2|0,0:0|0:0,0:0:0:0:
200,260,126893,5,2,0:0:0:0:
156,220,127070,1,0,0:0:0:0:
240,96,129187,6,0,L|312:60,1,70
312,172,129540,2,0,L|236:208,1,70
164,172,129893,1,0,0:0:0:0:
380,112,131128,5,2,0:0:0:0:
380,172,131305,1,0,0:0:0:0:
200,256,132540,5,0,0:0:0:0:
144,232,132717,1,2,0:0:0:0:
144,104,134834,6,0,L|288:104,1,140,2|0,0:0|0:0,0:0:0:0:
368,176,135540,1,2,0:0:0:0:
444,232,146834,6,0,L|444:344,2,83.9999974365235
360,184,147540,6,0,L|360:292,2,83.9999974365235
276,144,148246,6,0,L|276:240,2,83.9999974365235
188,100,148952,6,0,L|188:192,2,83.9999974365235
296,48,149658,6,0,L|408:48,1,83.9999974365235
456,48,150011,1,0,0:0:0:0:
244,144,150364,6,0,L|364:144,1,83.9999974365235
408,144,150717,1,0,0:0:0:0:
180,236,151070,6,0,L|300:236,1,83.9999974365235
344,236,151423,1,0,0:0:0:0:
124,316,151776,6,0,L|244:316,1,83.9999974365235
288,316,152129,1,0,0:0:0:0:
440,312,152481,5,0,0:0:0:0:
440,216,152834,1,0,0:0:0:0:
440,128,153187,1,0,0:0:0:0:
444,32,153540,1,0,0:0:0:0:
348,28,153893,1,0,0:0:0:0:
248,28,154246,1,0,0:0:0:0:
152,28,154599,1,0,0:0:0:0:
56,32,154952,1,0,0:0:0:0:
88,128,155305,5,0,0:0:0:0:
144,172,155481,1,0,0:0:0:0:
216,188,155658,2,0,L|256:136,2,45.4999979171754
280,244,156011,2,0,L|340:240,2,45.4999979171754
292,328,156364,2,0,L|344:348,2,45.4999979171754
220,332,156717,1,0,0:0:0:0:
292,196,157775,5,0,0:0:0:0:
232,260,158128,6,0,P|244:328|308:348,1,140,4|0,1:0|0:0,0:0:0:0:
380,324,158658,1,0,0:0:0:0:
376,256,158834,2,0,P|384:200|408:168,1,70
464,192,159187,2,0,P|468:140|388:84,1,140
276,104,159893,2,0,P|272:156|336:216,1,140
228,312,160599,6,0,P|180:352|108:320,2,140,4|4|0,0:0|0:0|0:0,0:0:0:0:
280,252,161481,1,0,0:0:0:0:
356,272,161658,2,0,P|424:268|472:208,1,140
464,136,162187,2,4,L|424:76,1,70
256,112,162717,2,0,B|228:136|228:136|188:96|112:112,1,140,0|8,0:0|0:0,0:0:0:0:
68,160,163246,1,4,0:0:0:0:
332,228,163776,6,0,L|484:228,2,140
256,192,164834,1,0,0:0:0:0:
176,152,165187,2,0,L|8:152,2,140
244,180,166070,2,0,L|320:148,1,70
344,84,166423,1,0,0:0:0:0:
408,120,166599,2,0,B|432:92|432:92|512:136|516:188,1,140,4|0,0:0|0:0,0:0:0:0:
416,264,167305,2,4,B|392:292|392:292|312:248|308:196,1,140
180,168,168011,6,0,P|116:200|116:264,1,140
140,336,168540,1,0,0:0:0:0:
216,336,168717,2,0,L|308:320,1,70
352,288,169070,1,0,0:0:0:0:
448,120,169423,6,0,B|408:72|408:72|336:68|316:56,1,140,4|0,1:0|0:0,0:0:0:0:
256,96,169952,1,0,0:0:0:0:
181,63,170128,2,0,B|176:68|104:72|104:72|64:120,1,140
136,152,170658,2,0,L|184:216,1,70
168,280,171011,1,0,0:0:0:0:
208,340,171187,2,0,P|280:320|312:268,1,140
460,208,171893,6,4,L|328:136,1,140
296,64,172423,1,0,0:0:0:0:
216,56,172599,2,0,L|148:92,1,70
92,132,172952,1,8,0:0:0:0:
56,200,173128,2,0,L|68:280,1,70
108,348,173481,2,0,P|155:287|148:224,1,140
200,168,174011,1,0,0:0:0:0:
280,156,174187,5,0,0:0:0:0:
280,156,174364,2,0,L|372:180,1,70
196,328,175070,6,0,P|128:304|80:248,2,140
264,272,175952,2,0,L|216:196,1,70
256,144,176305,1,0,0:0:0:0:
320,104,176481,2,0,P|388:128|436:184,2,140
104,80,177540,6,0,L|100:236,1,140
156,280,178070,1,0,0:0:0:0:
232,320,178246,2,0,L|232:156,1,140
284,120,178776,2,0,P|320:104|376:80,1,70
448,340,179305,6,0,L|448:252,1,70
368,292,179658,2,0,L|368:220,1,70
288,236,180011,2,0,L|288:166,1,70
208,184,180364,2,0,L|208:114,1,70
208,44,180717,1,0,0:0:0:0:
260,56,181070,6,0,P|320:72|368:144,1,140
376,184,181599,1,0,0:0:0:0:
408,240,181776,1,0,0:0:0:0:
236,292,182128,6,0,L|160:280,1,70
116,272,182481,1,0,0:0:0:0:
256,152,182834,6,0,L|336:112,1,70
376,96,183187,1,0,0:0:0:0:
168,56,183540,6,0,P|100:120|96:188,1,140
132,232,184070,1,0,0:0:0:0:
208,256,184246,2,0,L|348:216,1,140
408,272,184776,2,0,P|440:248|448:204,1,70
416,148,185128,1,0,0:0:0:0:
356,96,185305,2,0,P|260:108|220:148,2,140
260,292,186364,6,0,P|200:304|116:256,2,140
344,284,187246,2,0,L|368:208,1,70
336,144,187599,1,0,0:0:0:0:
264,100,187776,2,0,P|208:132|180:216,1,140
300,328,188481,2,0,P|356:296|384:212,1,140
208,240,189187,6,0,L|84:140,1,140
144,88,189717,1,0,0:0:0:0:
216,56,189893,2,0,L|288:52,2,70
428,168,190599,6,0,B|376:208|344:132|272:200,1,140
232,240,191128,2,0,L|152:212,1,70
184,136,191481,2,0,L|112:84,1,70
316,72,192011,6,0,P|376:96|416:168,1,140,4|0,1:0|0:0,0:0:0:0:
372,220,192540,1,0,0:0:0:0:
312,272,192717,2,0,L|220:276,1,70
172,272,193070,2,0,P|128:224|148:144,1,140
184,100,193599,1,0,0:0:0:0:
376,160,194128,6,0,P|420:216|412:296,1,140
368,344,194658,1,0,0:0:0:0:
288,324,194834,2,0,P|236:268|224:208,1,140
288,104,195540,6,0,L|124:104,1,140
96,160,196070,2,0,L|24:196,1,70
72,264,196423,1,0,0:0:0:0:
140,320,196599,2,0,P|200:288|228:216,1,140
252,148,197128,1,0,0:0:0:0:
388,244,197658,6,4,L|308:104,1,140
124,140,198364,2,4,L|204:280,1,140,8|4,0:0|0:0,0:0:0:0:
326,130,199070,6,4,L|204:60,1,140
187,255,199776,2,4,L|308:324,1,140,8|4,0:0|0:0,0:0:0:0:
88,344,200481,6,4,L|176:316,1,70
152,260,200834,2,4,L|228:220,1,70
204,172,201187,2,4,L|272:128,1,70,8|4,0:0|0:0,0:0:0:0:
256,76,201540,2,4,L|324:40,1,70
384,44,201893,2,0,L|432:44,16,35,0|0|0|0|0|0|0|0|0|0|0|0|0|0|0|0|4,0:0|0:0|0:0|0:0|0:0|0:0|0:0|0:0|0:0|0:0|0:0|0:0|0:0|0:0|0:0|0:0|1:0,3:3:0:0:
256,188,204011,5,0,0:0:0:0:
104,124,204717,5,0,0:0:0:0:
296,56,205246,5,0,0:0:0:0:
324,84,205423,2,0,L|444:184,2,140
248,140,207717,5,0,0:0:0:0:
208,172,207893,1,0,0:0:0:0:
328,304,208246,6,0,L|368:232,4,70,2|0|2|2|2,0:0|0:0|0:0|0:0|0:0,0:0:0:0:
176,268,209658,5,0,0:0:0:0:
88,112,210187,5,0,0:0:0:0:
108,56,210364,1,0,0:0:0:0:
248,140,210893,5,0,0:0:0:0:
276,172,211070,2,0,L|384:280,2,140
380,88,213364,5,0,0:0:0:0:
376,152,213540,1,0,0:0:0:0:
208,136,213893,5,0,0:0:0:0:
128,216,214246,5,0,0:0:0:0:
256,192,214599,12,0,218834,0:0:0:0:
