osu file format v5

[General]
AudioFilename: China Grove.mp3
AudioLeadIn: 0
PreviewTime: -1
Countdown: 1
SampleSet: Normal
StackLeniency: 0.7
Mode: 0

[Metadata]
Title:China Grove
Artist:Doobie Brothers
Creator:darkbluetornado
Version:

[Difficulty]
HPDrainRate:5
CircleSize:5
OverallDifficulty:5
SliderMultiplier:1.4
SliderTickRate:2

[Events]
//Background and Video events
//Break Periods
2,39447,48219
2,74091,82724
//Storyboard Layer 0 (Background)
//Storyboard Layer 1 (Failing)
//Storyboard Layer 2 (Passing)
//Storyboard Layer 3 (Foreground)
//Storyboard Sound Samples
//Background Colour Transformations
3,100,163,162,255

[TimingPoints]
6867,408.697499999998,4,1,0,62
27700,405.164199999997,4,1,0,62
46529,411.463281574775,4,1,0,62
81658,412.163281574776,4,1,0,62
113892,417.363281574777,4,1,0,62
130289,414.963281574776,4,1,0,62
145204,411.363281574775,4,1,0,62
178271,411.363281574775,4,1,0,62

[HitObjects]
256,192,13406,1,6
256,192,13814,1,6
256,96,15040,1,6
256,96,15449,1,6
352,96,16675,1,0
416,256,17288,1,0
256,256,17901,1,0
96,64,18719,2,0,B|256:64,1,140
128,256,19945,6,6,B|288:256,1,140
96,160,21580,2,6,B|256:160,1,140
128,256,23214,1,0
256,160,23827,1,0
384,64,24440,1,6
96,192,27608,5,0
96,192,27801,1,0
96,256,28003,2,0,B|128:288|160:288|224:288|224:224,1,140
288,128,28915,2,0,B|320:96|352:96|416:96|416:128|416:160,1,140
384,256,29725,1,0
352,224,29928,1,0
320,256,30130,1,0
288,224,30333,1,0
256,256,30536,1,0
128,96,31346,6,0,B|288:96,1,140
288,192,32156,1,0
192,192,32561,1,0
192,192,32764,1,2
352,256,34182,5,0
352,256,34385,1,0
352,192,34587,2,2,B|352:128|352:96|288:64,1,140
256,64,35195,2,2,B|192:64|192:192,1,140
192,224,35803,1,0
256,288,36208,1,0
320,288,36411,1,0
384,288,36613,1,6
384,160,37829,6,2,B|384:128|352:64|288:64|224:64|192:64,1,210
160,160,38842,1,0
256,160,39247,1,6
96,96,49409,5,0
160,96,49614,1,0
224,96,49820,1,0
320,96,50232,2,2,B|384:96|416:160|416:256|384:288,1,210
352,288,51055,2,2,B|288:288|192:256|160:192,1,210
320,192,52083,5,0
320,192,52289,1,0
320,192,52495,1,4
256,64,54346,2,6,B|256:288,1,210
192,192,55375,1,2
256,192,55581,1,2
320,192,55786,1,6
160,288,57638,5,2
224,256,57844,1,2
320,192,58255,1,6
256,192,59387,12,6,60936
128,128,62164,1,0
192,128,62370,1,0
256,128,62576,2,0,B|352:128,1,70
384,128,62987,5,0
384,192,63193,1,0
384,256,63398,2,0,B|288:256,1,70
192,256,64016,2,0,B|128:256|64:224|96:160|96:96,1,210
160,128,64839,1,0
224,128,65044,1,0
384,288,65867,5,0
384,224,66073,1,0
384,160,66279,1,0
384,96,66484,2,2,B|160:96,1,210
224,192,67513,1,6
128,288,68748,1,0
192,256,68953,1,0
256,224,69159,2,0,B|352:224,1,70
320,160,69570,2,0,B|224:160,1,70
256,96,69982,2,0,B|384:96|384:96|384:192,1,210
384,288,71011,1,0
256,288,71422,1,0
256,96,72039,5,0
256,96,72245,1,0
192,128,72451,2,0,B|352:128,1,140
288,192,73068,1,6
160,192,73479,1,6
224,288,73891,1,6
256,96,83924,5,6
352,96,84337,1,0
352,160,84543,1,4
352,224,84749,1,2
352,288,84955,2,6,B|288:288|256:256|224:256|192:160,1,210
224,128,85779,2,6,B|288:128|320:160|352:192|384:256,1,210
416,192,86810,5,4
352,192,87016,1,0
288,192,87222,1,4
416,288,89076,2,2,B|416:64,1,210
352,64,90107,1,4
288,64,90313,1,0
224,64,90519,1,4
256,64,92374,5,6
256,128,92580,1,6
256,224,92992,1,6
256,192,94022,12,0,95671
