osu file format v14

[General]
AudioFilename: Hideyuki Tanaka - Shin Jidai no Saga.mp3
AudioLeadIn: 0
PreviewTime: 88234
Countdown: 0
SampleSet: Soft
StackLeniency: 0.7
Mode: 0
LetterboxInBreaks: 0
WidescreenStoryboard: 0

[Editor]
DistanceSpacing: 1.3
BeatDivisor: 8
GridSize: 8
TimelineZoom: 8

[Metadata]
Title:Shinjidai no Saga
TitleUnicode:新時代のサーガ
Artist:Donquixote Doflamingo (Hideyuki Tanaka)
ArtistUnicode:ドンキホーテ·ドフラミンご(田中秀幸)
Creator:CircleChu
Version:Joker
Source:ONE PIECE
Tags:Marathon Family One Piece Nippon Judan! 47 Cruise CD Saga Perfecture New World Dressrosa Spanish Guitar Folk Instrumental Flamenco Metal Flametal
BeatmapID:1456033
BeatmapSetID:687970

[Difficulty]
HPDrainRate:5.6
CircleSize:4
OverallDifficulty:9
ApproachRate:9.6
SliderMultiplier:1.8
SliderTickRate:1

[Events]
//Background and Video events
0,0,"Doffy.jpg",0,0
//Break Periods
2,214363,218113
//Storyboard Layer 0 (Background)
//Storyboard Layer 1 (Fail)
//Storyboard Layer 2 (Pass)
//Storyboard Layer 3 (Foreground)
//Storyboard Sound Samples

[TimingPoints]
720,638.297872340426,4,2,1,25,1,0
959,-100,4,2,1,5,0,0
1035,533.333333333333,3,2,1,25,1,0
3568,441.176470588235,4,2,1,25,1,0
3898,-100,4,2,1,5,0,0
3954,-100,4,2,1,25,0,0
4174,-100,4,2,1,5,0,0
4229,571.428571428571,4,2,1,25,1,0
4514,535.714285714286,4,2,1,25,1,0
6924,480,4,2,1,25,1,0
7104,-100,4,2,1,5,0,0
7164,-100,4,2,1,25,0,0
7404,615.384615384615,4,2,1,25,1,0
7711,535.714285714286,3,2,1,25,1,0
10925,545.454545454546,4,2,1,25,1,0
12288,515.021459227468,5,2,1,25,1,0
14863,250,3,2,1,50,1,0
14863,-133.333333333333,3,2,1,50,0,0
18050,-133.333333333333,3,2,1,5,0,0
18113,-133.333333333333,3,2,1,50,0,0
26863,-100,3,2,1,60,0,0
31550,-100,3,2,1,5,0,0
31738,-100,3,2,1,60,0,0
31800,-100,3,2,1,5,0,0
31988,-100,3,2,1,60,0,0
35863,-133.333333333333,3,2,1,50,0,0
38863,-100,3,2,1,60,0,0
64363,-133.333333333333,3,2,1,50,0,0
76363,-166.666666666667,3,2,1,40,0,0
85988,-166.666666666667,3,2,1,5,0,0
86113,-166.666666666667,3,2,1,40,0,0
86738,-166.666666666667,3,2,1,5,0,0
86863,-166.666666666667,3,2,1,40,0,0
91363,-100,3,2,1,70,0,1
115363,-133.333333333333,3,2,1,50,0,0
116300,-133.333333333333,3,2,1,5,0,0
116363,-133.333333333333,3,2,1,50,0,0
116550,-133.333333333333,3,2,1,5,0,0
116613,-133.333333333333,3,2,1,50,0,0
116800,-133.333333333333,3,2,1,5,0,0
116863,-133.333333333333,3,2,1,50,0,0
121363,-100,3,2,1,60,0,0
126050,-100,3,2,1,5,0,0
126238,-100,3,2,1,60,0,0
126300,-100,3,2,1,5,0,0
126488,-100,3,2,1,60,0,0
130363,-133.333333333333,3,2,1,50,0,0
133363,-100,3,2,1,60,0,0
158863,-133.333333333333,3,2,1,50,0,0
170863,-166.666666666667,3,2,1,40,0,0
180488,-166.666666666667,3,2,1,5,0,0
180613,-166.666666666667,3,2,1,40,0,0
181238,-166.666666666667,3,2,1,5,0,0
181363,-166.666666666667,3,2,1,40,0,0
185800,-166.666666666667,3,2,1,5,0,0
185863,-100,3,2,1,70,0,1
209863,-133.333333333333,3,2,1,50,0,0
210800,-133.333333333333,3,2,1,5,0,0
210863,-133.333333333333,3,2,1,50,0,0
211050,-133.333333333333,3,2,1,5,0,0
211113,-133.333333333333,3,2,1,50,0,0
211300,-133.333333333333,3,2,1,5,0,0
211363,-133.333333333333,3,2,1,50,0,0
218863,-166.666666666667,3,2,1,40,0,0
220238,-166.666666666667,3,2,1,5,0,0
220363,-166.666666666667,3,2,1,40,0,0
226363,-133.333333333333,3,2,1,50,0,0
232363,-133.333333333333,3,2,1,55,0,0
242113,-166.666666666667,3,2,1,60,0,0
242550,-166.666666666667,3,2,1,5,0,0
242613,-166.666666666667,3,2,1,60,0,0
242863,-100,3,2,1,70,0,1
251800,-100,3,2,1,5,0,1
251863,-100,3,2,1,70,0,1
266863,-133.333333333333,3,2,1,50,0,0
267800,-133.333333333333,3,2,1,5,0,0
267863,-133.333333333333,3,2,1,50,0,0
268050,-133.333333333333,3,2,1,5,0,0
268113,-133.333333333333,3,2,1,50,0,0
268300,-133.333333333333,3,2,1,5,0,0
268363,-133.333333333333,3,2,1,50,0,0
275113,-100,3,2,1,60,0,0
278113,-133.333333333333,3,2,1,50,0,0
284654,-133.333333333333,3,2,1,25,0,0
284821,-100,3,2,1,5,0,0
284863,508.474576271186,3,2,1,25,1,0
287913,487.80487804878,3,2,1,25,1,0
289376,480,3,2,1,25,1,0
290816,461.538461538462,3,2,1,25,1,0
290931,461.538461538462,3,2,1,25,1,0
291623,500,3,2,1,25,1,0
302873,508.474576271186,3,2,1,20,1,0
304461,521.739130434783,3,2,1,20,1,0
305765,428.571428571429,3,2,1,20,1,0
305979,375,3,2,1,15,1,0
306354,508.474576271186,3,2,1,15,1,0
307625,480,3,2,1,10,1,0
308885,-100,3,2,1,5,0,0
308945,500,3,2,1,10,1,0

[Colours]
Combo1 : 254,112,215
Combo2 : 143,0,159
Combo3 : 250,5,165
Combo4 : 242,40,71

[HitObjects]
144,192,720,6,0,P|143:158|159:129,1,67.5
144,192,1035,6,0,P|147:236|169:275,1,90,2|0,0:0|0:0,0:0:0:0:
256,320,1568,1,0,0:0:0:0:
342,275,1834,2,0,P|364:236|368:192,1,90,2|0,0:0|0:0,0:0:0:0:
344,104,2367,1,0,0:0:0:0:
256,64,2634,1,2,0:0:0:0:
415,74,3568,5,0,0:0:0:0:
415,74,3650,2,0,P|365:66|332:29,1,101.25
332,29,3954,2,0,P|299:58|255:63,1,90
256,64,4229,6,0,L|153:67,1,90,2|0,0:0|0:0,0:0:0:0:
86,107,4714,2,0,L|60:108,1,22.5
149,170,5049,2,0,L|252:173,1,90,2|0,0:0|0:0,0:0:0:0:
319,213,5585,1,0,0:0:0:0:
402,178,5853,1,2,0:0:0:0:
317,299,6924,6,0,P|323:343|319:372,1,67.5
317,299,7164,2,0,P|307:255|318:212,1,90
402,178,7506,6,0,P|400:148|395:118,1,60,2|0,0:0|0:0,0:0:0:0:
356,37,7978,1,0,0:0:0:0:
283,89,8246,2,0,P|267:131|271:176,2,90,2|0|0,0:0|0:0|0:0,0:0:0:0:
339,218,8916,5,0,0:0:0:0:
283,279,9050,6,0,P|267:320|272:365,1,90,2|0,0:0|0:0,0:0:0:0:
191,324,9586,1,0,0:0:0:0:
109,365,9853,2,0,P|114:321|99:279,1,90,2|0,0:0|0:0,0:0:0:0:
98,278,10188,6,0,L|118:207,1,67.5,2|0,0:0|0:0,0:0:0:0:
233,58,10590,2,0,L|213:123,1,67.5,2|0,0:0|0:0,0:0:0:0:
213,122,10925,6,0,L|224:216,2,90,2|0|0,0:0|0:0|0:0,0:0:0:0:
223,211,12015,6,0,L|216:251,4,22.5
102,33,14734,1,0,0:0:0:0:
102,33,14798,1,0,0:0:0:0:
102,33,14863,6,0,L|91:108,1,67.5000025749208,4|0,0:0|0:0,0:0:0:0:
102,194,15113,2,0,L|91:269,2,67.5000025749208,8|0|8,0:0|0:0|0:0,0:0:0:0:
92,99,15488,1,0,0:0:0:0:
179,137,15613,2,0,L|187:203,1,67.5000025749208,8|0,0:0|0:0,0:0:0:0:
281,185,15863,2,0,L|272:251,1,67.5000025749208,8|0,0:0|0:0,0:0:0:0:
366,244,16113,2,0,L|340:306,1,67.5000025749208,8|0,0:0|0:0,0:0:0:0:
325,351,16300,1,0,0:0:0:0:
325,350,16363,6,0,P|292:358|258:359,1,67.5000025749208,4|0,0:0|0:0,0:0:0:0:
180,305,16613,2,0,P|147:297|113:296,2,67.5000025749208,8|0|8,0:0|0:0|0:0,0:0:0:0:
258,359,16988,1,0,0:0:0:0:
304,277,17113,2,0,P|306:238|297:193,1,67.5000025749208,8|0,0:0|0:0,0:0:0:0:
269,121,17363,2,0,P|242:92|204:66,1,67.5000025749208,8|0,0:0|0:0,0:0:0:0:
129,47,17613,2,0,P|89:45|45:54,1,67.5000025749208,8|0,0:0|0:0,0:0:0:0:
21,73,17800,1,0,0:0:0:0:
21,73,17863,6,0,P|10:122|16:179,1,101.250003862381,4|0,0:0|0:0,0:0:0:0:
43,214,18113,2,0,L|39:285,1,67.5000025749208,8|0,0:0|0:0,0:0:0:0:
163,190,18363,2,0,L|159:122,1,67.5000025749208,8|0,0:0|0:0,0:0:0:0:
253,271,18613,2,0,L|249:342,1,67.5000025749208,8|0,0:0|0:0,0:0:0:0:
320,157,18863,2,0,L|316:89,1,67.5000025749208,8|0,0:0|0:0,0:0:0:0:
418,284,19113,2,0,L|414:355,1,67.5000025749208,8|0,0:0|0:0,0:0:0:0:
471,135,19363,5,4,0:0:0:0:
432,109,19613,2,0,L|414:70,3,33.7500012874604,8|0|0|0,0:0|0:0|0:0|0:0,0:0:0:0:
383,49,19863,2,0,L|365:10,3,33.7500012874604,8|0|0|0,0:0|0:0|0:0|0:0,0:0:0:0:
471,135,20113,1,8,0:0:0:0:
246,213,20863,5,4,0:0:0:0:
246,213,21113,2,0,L|256:137,1,67.5000025749208,8|0,0:0|0:0,0:0:0:0:
334,196,21363,2,0,L|342:262,1,67.5000025749208,8|0,0:0|0:0,0:0:0:0:
143,284,21613,2,0,L|172:213,1,67.5000025749208,8|0,0:0|0:0,0:0:0:0:
232,290,21863,2,0,L|223:356,1,67.5000025749208,8|0,0:0|0:0,0:0:0:0:
26,316,22113,2,0,L|72:255,1,67.5000025749208,8|0,0:0|0:0,0:0:0:0:
143,284,22300,1,0,0:0:0:0:
143,284,22363,5,4,0:0:0:0:
143,284,22613,2,0,P|175:292|226:290,1,67.5000025749208,8|0,0:0|0:0,0:0:0:0:
341,224,22863,2,0,P|308:233|275:233,1,67.5000025749208,8|0,0:0|0:0,0:0:0:0:
188,194,23113,1,8,0:0:0:0:
254,147,23238,1,0,0:0:0:0:
179,115,23363,1,8,0:0:0:0:
245,69,23488,1,0,0:0:0:0:
320,98,23613,5,8,0:0:0:0:
275,233,23738,1,0,0:0:0:0:
275,233,23800,1,0,0:0:0:0:
275,233,23863,5,4,0:0:0:0:
275,233,24113,2,0,L|266:315,1,67.5000025749208,8|0,0:0|0:0,0:0:0:0:
343,168,24363,2,0,L|356:249,1,67.5000025749208,8|0,0:0|0:0,0:0:0:0:
363,315,24613,1,8,0:0:0:0:
304,370,24738,1,0,0:0:0:0:
224,364,24863,1,8,0:0:0:0:
174,300,24988,1,0,0:0:0:0:
103,164,25113,5,8,0:0:0:0:
104,180,25175,1,0,0:0:0:0:
106,197,25238,1,0,0:0:0:0:
107,214,25300,1,0,0:0:0:0:
109,231,25363,6,0,L|99:283,2,45.0000017166138,12|0|0,0:0|0:0|0:0,0:0:0:0:
192,178,25613,2,0,L|182:230,2,45.0000017166138,8|0|0,0:0|0:0|0:0,0:0:0:0:
275,125,25863,2,0,L|265:177,2,45.0000017166138,8|0|0,0:0|0:0|0:0,0:0:0:0:
358,72,26113,5,10,0:0:0:0:
417,230,26529,1,2,0:0:0:0:
226,179,26779,1,2,0:0:0:0:
226,179,26863,6,0,P|207:145|202:91,1,90,12|0,0:0|0:0,0:0:0:0:
297,225,27113,2,0,P|335:225|385:248,1,90
221,265,27363,2,0,P|201:298|156:329,1,90,2|0,0:0|0:0,0:0:0:0:
382,245,27613,6,0,L|376:334,1,90,8|0,0:0|0:0,0:0:0:0:
291,135,27863,2,0,L|296:224,1,90
186,36,28113,2,0,L|201:123,1,90
106,28,28363,5,8,0:0:0:0:
18,131,28488,1,0,0:0:0:0:
134,202,28613,2,0,P|128:246|110:287,1,90
244,350,28863,2,0,P|226:308|220:264,1,90
226,137,29113,5,8,0:0:0:0:
304,26,29238,1,0,0:0:0:0:
333,157,29363,1,2,0:0:0:0:
411,46,29488,1,2,0:0:0:0:
508,197,29613,5,2,0:0:0:0:
333,157,29738,1,2,0:0:0:0:
161,213,29863,6,0,P|158:257|175:298,1,90,12|0,0:0|0:0,0:0:0:0:
226,137,30113,2,0,P|242:95|240:51,1,90
291,206,30363,2,0,P|288:250|305:292,1,90
137,131,30613,6,0,P|99:154|81:194,1,90,8|0,0:0|0:0,0:0:0:0:
106,328,30863,1,0,0:0:0:0:
241,347,30988,2,0,P|281:329|304:291,2,90
19,283,31363,5,8,0:0:0:0:
19,283,31488,2,0,L|17:239,1,45,2|0,0:0|0:0,0:0:0:0:
258,181,31738,2,0,L|256:137,1,45,2|0,0:0|0:0,0:0:0:0:
182,339,31988,1,2,0:0:0:0:
182,339,32113,6,0,L|165:250,1,90,8|0,0:0|0:0,0:0:0:0:
256,137,32363,2,0,L|239:226,1,90
165,152,32613,1,0,0:0:0:0:
160,129,32675,1,0,0:0:0:0:
156,107,32738,1,0,0:0:0:0:
152,85,32800,1,0,0:0:0:0:
148,63,32863,5,12,0:0:0:0:
148,63,33113,2,0,L|165:152,1,90
256,137,33363,2,0,L|239:226,1,90
330,244,33613,6,0,L|282:320,2,90,8|0|0,0:0|0:0|0:0,0:0:0:0:
343,109,33988,1,0,0:0:0:0:
454,185,34113,1,0,0:0:0:0:
330,244,34238,1,0,0:0:0:0:
164,151,34363,6,0,P|121:138|76:143,1,90,8|0,0:0|0:0,0:0:0:0:
127,316,34613,2,0,P|169:328|214:323,1,90
355,202,34863,5,0,0:0:0:0:
315,333,34988,1,0,0:0:0:0:
222,235,35113,1,8,0:0:0:0:
355,202,35238,1,0,0:0:0:0:
266,100,35363,5,2,0:0:0:0:
191,150,35488,1,2,0:0:0:0:
101,154,35613,1,2,0:0:0:0:
23,108,35738,1,2,0:0:0:0:
101,154,35863,6,0,P|116:194|90:282,1,135.000005149842,2|0,0:0|0:0,0:0:0:0:
23,336,36238,1,0,0:0:0:0:
91,279,36363,2,0,L|159:286,1,67.5000025749208,2|0,0:0|0:0,0:0:0:0:
264,200,36613,2,0,L|197:207,1,67.5000025749208,2|0,0:0|0:0,0:0:0:0:
225,339,36863,2,0,L|293:346,1,67.5000025749208,2|0,0:0|0:0,0:0:0:0:
362,263,37113,5,2,0:0:0:0:
408,189,37238,1,2,0:0:0:0:
494,180,37363,1,2,0:0:0:0:
271,146,37613,6,0,L|258:189,2,45.0000017166138,8|0|0,0:0|0:0|0:0,0:0:0:0:
408,189,37863,2,0,L|394:146,2,45.0000017166138,8|0|0,0:0|0:0|0:0,0:0:0:0:
459,52,38113,5,8,0:0:0:0:
459,52,38863,6,0,L|458:231,1,180,12|0,0:0|0:0,0:0:0:0:
352,255,39238,2,0,P|353:208|373:162,2,90
262,357,39613,6,0,P|234:273|156:233,1,180,8|0,0:0|0:0,0:0:0:0:
65,175,39988,2,0,P|48:133|48:88,2,90
181,107,40363,6,0,L|371:100,1,180,8|0,0:0|0:0,0:0:0:0:
451,40,40738,1,0,0:0:0:0:
451,40,40863,1,0,0:0:0:0:
451,40,40988,1,0,0:0:0:0:
410,168,41113,6,0,P|404:210|418:271,1,90,8|0,0:0|0:0,0:0:0:0:
329,364,41363,2,0,P|337:319|331:275,1,90
167,239,41613,1,2,0:0:0:0:
242,290,41738,1,2,0:0:0:0:
204,146,41863,6,0,L|15:139,1,180,8|0,0:0|0:0,0:0:0:0:
51,52,42238,1,0,0:0:0:0:
130,94,42363,1,0,0:0:0:0:
211,54,42488,1,0,0:0:0:0:
343,175,42613,6,0,P|317:257|234:278,1,180,8|0,0:0|0:0,0:0:0:0:
256,190,42988,1,0,0:0:0:0:
422,121,43113,2,0,P|431:164|433:209,1,90
407,343,43363,5,8,0:0:0:0:
407,343,43488,1,2,0:0:0:0:
336,45,43738,1,2,0:0:0:0:
189,271,43988,1,2,0:0:0:0:
189,271,44113,6,0,L|192:181,1,90,8|0,0:0|0:0,0:0:0:0:
106,39,44363,2,0,L|110:139,1,90
192,181,44613,1,0,0:0:0:0:
65,303,44738,1,0,0:0:0:0:
65,303,44800,1,0,0:0:0:0:
64,302,44863,6,0,P|128:364|216:366,1,180,8|0,0:0|0:0,0:0:0:0:
300,335,45238,1,0,0:0:0:0:
256,256,45363,1,0,0:0:0:0:
175,297,45488,1,0,0:0:0:0:
351,263,45613,6,0,L|355:83,1,180,8|0,0:0|0:0,0:0:0:0:
434,125,45988,1,0,0:0:0:0:
266,191,46113,2,0,L|271:101,1,90
142,229,46363,6,0,P|78:168|81:81,1,180,8|0,0:0|0:0,0:0:0:0:
172,69,46738,6,0,L|175:129,1,60,2|0,0:0|0:0,0:0:0:0:
198,83,46863,2,0,L|201:143,1,60,2|0,0:0|0:0,0:0:0:0:
226,94,46988,2,0,L|228:153,1,60,2|0,0:0|0:0,0:0:0:0:
217,229,47113,6,0,L|211:333,1,90,8|0,0:0|0:0,0:0:0:0:
302,160,47363,2,0,L|308:264,1,90
389,358,47613,1,0,0:0:0:0:
389,358,47738,1,0,0:0:0:0:
210,317,47863,6,0,P|124:294|35:303,1,180,8|0,0:0|0:0,0:0:0:0:
35,303,48238,1,2,0:0:0:0:
35,81,48488,5,2,0:0:0:0:
35,80,48614,2,0,P|124:89|210:66,1,180,8|0,0:0|0:0,0:0:0:0:
412,192,49113,5,2,0:0:0:0:
412,192,49613,2,0,P|454:166|479:129,1,90,8|0,0:0|0:0,0:0:0:0:
298,111,49863,2,0,P|262:137|239:176,1,90,8|0,0:0|0:0,0:0:0:0:
341,332,50113,5,8,3:0:0:0:
341,332,50363,1,8,3:0:0:0:
341,332,50863,6,0,L|251:340,1,90,8|0,0:0|0:0,0:0:0:0:
293,259,51113,1,0,0:0:0:0:
410,137,51238,2,0,L|461:210,1,90,8|0,0:0|0:0,0:0:0:0:
370,215,51488,1,0,0:0:0:0:
206,175,51613,6,0,L|243:93,1,90,8|0,0:0|0:0,0:0:0:0:
292,168,51863,1,2,0:0:0:0:
255,246,51988,1,2,0:0:0:0:
169,253,52113,1,2,0:0:0:0:
119,183,52238,1,2,0:0:0:0:
39,22,52363,6,0,L|36:211,1,180,12|0,0:0|0:0,0:0:0:0:
21,290,52738,1,0,0:0:0:0:
105,260,52863,1,0,0:0:0:0:
36,201,52988,1,0,0:0:0:0:
180,308,53113,6,0,L|182:118,1,180,8|0,0:0|0:0,0:0:0:0:
198,40,53488,1,0,0:0:0:0:
114,70,53613,1,0,0:0:0:0:
183,129,53738,1,0,0:0:0:0:
39,22,53863,6,0,L|36:211,1,180,8|0,0:0|0:0,0:0:0:0:
105,260,54238,1,0,0:0:0:0:
105,260,54363,1,0,0:0:0:0:
140,83,54488,1,2,0:0:0:0:
286,187,54613,6,0,L|396:181,1,90,10|2,0:0|0:0,0:0:0:0:
507,59,54863,2,0,L|397:53,1,90,2|0,0:0|0:0,0:0:0:0:
341,103,55113,1,0,0:0:0:0:
270,47,55238,1,0,0:0:0:0:
165,193,55363,6,0,L|170:382,1,180,8|0,0:0|0:0,0:0:0:0:
263,317,55738,2,0,P|306:306|351:306,2,90
85,358,56113,6,0,P|64:319|56:275,1,90,8|0,0:0|0:0,0:0:0:0:
68,185,56363,1,0,0:0:0:0:
126,116,56488,1,0,0:0:0:0:
255,213,56613,5,2,0:0:0:0:
359,88,56738,1,2,0:0:0:0:
468,231,56863,6,0,L|454:334,1,90,8|0,0:0|0:0,0:0:0:0:
349,173,57113,2,0,L|361:262,1,90
242,125,57363,1,2,0:0:0:0:
144,276,57488,1,2,0:0:0:0:
24,142,57613,6,0,P|39:100|72:70,1,90,8|0,0:0|0:0,0:0:0:0:
242,125,57863,2,0,P|204:149|160:152,1,90
68,308,58113,1,2,0:0:0:0:
68,308,58238,1,2,0:0:0:0:
291,335,58363,6,0,P|377:347|444:291,1,180,8|0,0:0|0:0,0:0:0:0:
442,200,58738,1,0,0:0:0:0:
365,247,58863,1,0,0:0:0:0:
444,291,58988,1,0,0:0:0:0:
438,70,59113,6,0,P|351:57|284:113,1,180,8|0,0:0|0:0,0:0:0:0:
284,201,59488,1,0,0:0:0:0:
364,158,59613,1,0,0:0:0:0:
285,114,59738,1,0,0:0:0:0:
82,41,59863,6,0,P|38:118|50:205,1,180,8|0,0:0|0:0,0:0:0:0:
135,281,60238,6,0,L|193:274,1,60,2|0,0:0|0:0,0:0:0:0:
219,292,60363,2,0,L|278:284,1,60,2|0,0:0|0:0,0:0:0:0:
304,300,60488,1,2,0:0:0:0:
135,281,60613,6,0,P|126:235|138:189,1,90,8|0,0:0|0:0,0:0:0:0:
263,56,60863,2,0,P|272:102|260:148,1,90
135,281,61113,1,2,0:0:0:0:
157,141,61238,1,2,0:0:0:0:
304,300,61363,6,0,P|358:229|356:141,1,180,8|0,0:0|0:0,0:0:0:0:
356,141,61738,1,2,0:0:0:0:
156,141,61988,5,2,0:0:0:0:
157,141,62113,2,0,P|155:229|209:300,1,180,8|0,0:0|0:0,0:0:0:0:
256,192,62613,1,2,0:0:0:0:
256,191,63113,6,0,P|252:147|231:107,1,90,8|0,0:0|0:0,0:0:0:0:
76,202,63363,2,0,P|101:237|139:262,1,90,8|0,0:0|0:0,0:0:0:0:
105,84,63613,5,8,3:0:0:0:
105,84,63863,1,8,3:0:0:0:
352,114,64238,1,8,3:0:0:0:
255,191,64363,6,0,P|258:224|269:256,1,67.5000025749208,12|0,0:0|0:0,0:0:0:0:
329,321,64613,1,0,0:0:0:0:
411,349,64738,1,0,0:0:0:0:
336,302,64863,1,0,0:0:0:0:
259,345,64988,1,0,0:0:0:0:
406,274,65113,6,0,P|403:240|392:208,1,67.5000025749208,8|0,0:0|0:0,0:0:0:0:
333,144,65363,1,0,0:0:0:0:
251,116,65488,1,0,0:0:0:0:
326,163,65613,1,0,0:0:0:0:
403,120,65738,1,0,0:0:0:0:
257,29,65863,6,0,P|223:28|193:42,1,67.5000025749208,8|0,0:0|0:0,0:0:0:0:
193,42,66050,1,2,0:0:0:0:
193,42,66113,1,2,0:0:0:0:
154,135,66238,1,2,0:0:0:0:
57,103,66363,1,2,0:0:0:0:
107,14,66488,1,2,0:0:0:0:
243,116,66613,6,0,P|276:116|306:130,1,67.5000025749208,8|0,0:0|0:0,0:0:0:0:
307,129,66800,1,2,0:0:0:0:
307,129,66863,1,2,0:0:0:0:
346,222,66988,1,2,0:0:0:0:
443,190,67113,1,2,0:0:0:0:
393,101,67238,1,2,0:0:0:0:
252,208,67363,6,0,L|257:275,1,67.5000025749208,8|0,0:0|0:0,0:0:0:0:
301,345,67613,1,0,0:0:0:0:
199,229,67738,2,0,L|204:162,1,67.5000025749208
174,86,67988,1,0,0:0:0:0:
72,202,68113,6,0,L|77:269,1,67.5000025749208,8|0,0:0|0:0,0:0:0:0:
47,345,68363,1,0,0:0:0:0:
125,223,68489,2,0,L|130:156,1,67.5000025749208
174,86,68738,1,0,0:0:0:0:
243,223,68863,6,0,P|267:201|286:173,1,67.5000025749208,8|0,0:0|0:0,0:0:0:0:
286,173,69050,1,2,0:0:0:0:
286,173,69113,1,2,0:0:0:0:
395,94,69238,1,2,0:0:0:0:
359,225,69363,1,2,0:0:0:0:
475,157,69488,1,2,0:0:0:0:
239,156,69613,6,0,L|243:223,1,67.5000025749208,8|0,0:0|0:0,0:0:0:0:
243,223,69800,1,2,0:0:0:0:
243,223,69863,1,2,0:0:0:0:
149,320,69988,1,2,0:0:0:0:
282,298,70113,1,2,0:0:0:0:
161,237,70238,1,2,0:0:0:0:
347,344,70363,6,0,P|360:313|360:279,1,67.5000025749208,8|0,0:0|0:0,0:0:0:0:
335,195,70613,1,0,0:0:0:0:
329,107,70738,1,0,0:0:0:0:
377,34,70863,1,0,0:0:0:0:
464,27,70988,1,0,0:0:0:0:
329,107,71113,6,0,P|298:120|264:120,1,67.5000025749208,8|0,0:0|0:0,0:0:0:0:
180,95,71363,1,0,0:0:0:0:
92,89,71488,1,0,0:0:0:0:
19,137,71613,1,0,0:0:0:0:
12,224,71738,1,0,0:0:0:0:
124,370,71863,6,0,P|136:339|136:306,1,67.5000025749208,8|0,0:0|0:0,0:0:0:0:
136,306,72050,1,2,0:0:0:0:
136,306,72113,1,2,0:0:0:0:
98,176,72238,1,2,0:0:0:0:
52,303,72363,1,2,0:0:0:0:
164,227,72488,1,2,0:0:0:0:
322,187,72613,6,0,P|309:218|309:251,1,67.5000025749208,8|0,0:0|0:0,0:0:0:0:
309,251,72800,1,2,0:0:0:0:
309,251,72863,1,2,0:0:0:0:
396,353,72988,1,2,0:0:0:0:
476,244,73113,1,2,0:0:0:0:
388,141,73238,1,2,0:0:0:0:
229,231,73363,6,0,L|225:299,1,67.5000025749208,8|0,0:0|0:0,0:0:0:0:
151,332,73612,1,0,0:0:0:0:
18,299,73738,2,0,L|22:231,1,67.5000025749208
96,198,73987,1,0,0:0:0:0:
236,155,74113,6,0,L|155:148,1,67.5000025749208,8|0,0:0|0:0,0:0:0:0:
96,198,74363,1,0,0:0:0:0:
167,72,74488,2,0,L|248:65,1,67.5000025749208
307,115,74738,1,0,0:0:0:0:
412,254,74863,6,0,P|414:219|428:179,1,67.5000025749208,8|0,0:0|0:0,0:0:0:0:
423,188,75050,1,2,0:0:0:0:
423,188,75113,1,2,0:0:0:0:
300,244,75238,1,2,0:0:0:0:
384,349,75363,1,2,0:0:0:0:
300,244,75488,1,2,0:0:0:0:
175,296,75613,5,8,0:0:0:0:
423,188,75863,1,2,0:0:0:0:
119,38,76113,5,2,0:0:0:0:
44,106,76238,1,2,0:0:0:0:
119,38,76363,6,0,L|226:28,1,107.999996704102,12|0,0:0|0:0,0:0:0:0:
264,129,76863,1,0,0:0:0:0:
305,28,77113,2,0,L|412:37,1,107.999996704102
444,82,77488,6,0,L|431:125,1,35.9999989013672,2|0,0:0|0:0,0:0:0:0:
462,93,77613,2,0,L|452:127,1,35.9999989013672,2|0,0:0|0:0,0:0:0:0:
481,106,77738,2,0,L|468:149,1,35.9999989013672,2|0,0:0|0:0,0:0:0:0:
412,185,77863,6,0,L|425:292,1,107.999996704102,8|0,0:0|0:0,0:0:0:0:
503,328,78238,1,0,0:0:0:0:
339,264,78363,2,0,L|333:211,1,53.9999983520508
243,107,78613,6,0,P|195:85|142:89,2,107.999996704102,2|0|0,0:0|0:0|0:0,0:0:0:0:
120,265,79363,6,0,P|89:220|84:167,1,107.999996704102,8|0,0:0|0:0,0:0:0:0:
177,178,79863,1,0,0:0:0:0:
278,102,80113,6,0,P|331:102|380:80,1,107.999996704102,2|0,0:0|0:0,0:0:0:0:
431,21,80488,1,0,0:0:0:0:
431,163,80613,2,0,L|417:205,2,35.9999989013672
457,94,80863,5,8,0:0:0:0:
334,185,81113,1,0,0:0:0:0:
307,335,81363,1,0,0:0:0:0:
425,308,81613,5,2,0:0:0:0:
334,185,81863,1,0,0:0:0:0:
184,158,82113,1,0,0:0:0:0:
52,254,82363,6,0,P|55:307|77:356,2,107.999996704102,8|0|0,0:0|0:0|0:0,0:0:0:0:
52,129,83113,2,0,P|55:76|77:27,2,107.999996704102,2|0|0,0:0|0:0|0:0,0:0:0:0:
153,192,83863,6,0,L|272:192,1,107.999996704102,8|0,0:0|0:0,0:0:0:0:
360,188,84238,6,0,L|391:170,1,35.9999989013672,2|0,0:0|0:0,0:0:0:0:
355,168,84363,2,0,L|386:150,1,35.9999989013672,2|0,0:0|0:0,0:0:0:0:
350,145,84488,2,0,L|381:127,1,35.9999989013672,2|0,0:0|0:0,0:0:0:0:
458,138,84613,6,0,P|470:189|452:240,2,107.999996704102,2|0|0,0:0|0:0|0:0,0:0:0:0:
360,187,85363,6,0,P|240:211|141:98,1,269.999991760254,8|0,0:0|0:0,0:0:0:0:
366,113,86113,2,0,P|278:208|151:187,1,269.999991760254,8|0,0:0|0:0,0:0:0:0:
367,112,86863,6,0,P|416:134|438:182,1,107.999996704102,8|0,0:0|0:0,0:0:0:0:
256,288,87363,1,0,0:0:0:0:
143,112,87613,2,0,P|94:134|72:182,1,107.999996704102,8|0,0:0|0:0,0:0:0:0:
256,64,88113,5,0,0:0:0:0:
151,187,88238,1,0,0:0:0:0:
151,187,88363,6,0,L|143:257,2,53.9999983520508,8|0|0,0:0|0:0|0:0,0:0:0:0:
256,288,88738,5,0,0:0:0:0:
109,315,88863,1,0,0:0:0:0:
273,174,88988,1,0,0:0:0:0:
37,153,89113,5,2,0:0:0:0:
296,352,89363,1,2,0:0:0:0:
176,48,89613,1,2,0:0:0:0:
151,187,89863,1,2,0:0:0:0:
151,187,91363,6,0,P|208:120|204:32,1,180,12|0,0:0|0:0,0:0:0:0:
91,0,91738,1,0,0:0:0:0:
204,32,91863,1,0,0:0:0:0:
318,8,91988,1,0,0:0:0:0:
361,197,92113,6,0,P|303:263|307:351,1,180,8|0,0:0|0:0,0:0:0:0:
421,384,92488,1,0,0:0:0:0:
308,352,92613,1,0,0:0:0:0:
194,376,92738,1,0,0:0:0:0:
80,240,92863,6,0,L|105:41,1,180,8|0,0:0|0:0,0:0:0:0:
211,18,93238,1,0,0:0:0:0:
177,130,93363,1,0,0:0:0:0:
214,240,93488,1,0,0:0:0:0:
432,240,93613,6,0,L|407:41,1,180,8|0,0:0|0:0,0:0:0:0:
301,18,93988,1,0,0:0:0:0:
335,130,94113,1,0,0:0:0:0:
298,240,94238,1,0,0:0:0:0:
95,137,94363,6,0,P|176:120|266:176,1,180,8|0,0:0|0:0,0:0:0:0:
253,315,94738,1,0,0:0:0:0:
139,285,94863,1,0,0:0:0:0:
30,329,94988,1,0,0:0:0:0:
139,285,95113,6,0,P|165:250|170:206,1,90,10|0,0:0|0:0,0:0:0:0:
42,69,95363,2,0,P|59:110|94:136,1,90,2|0,0:0|0:0,0:0:0:0:
271,92,95613,2,0,P|226:86|186:104,1,90,2|0,0:0|0:0,0:0:0:0:
81,220,95863,5,8,0:0:0:0:
81,220,95988,5,2,2:0:0:0:
123,328,96113,1,2,2:0:0:0:
231,372,96238,1,2,2:0:0:0:
347,357,96363,1,2,2:0:0:0:
440,286,96488,1,2,2:0:0:0:
454,169,96613,6,0,L|438:80,1,90,10|0,0:0|0:0,0:0:0:0:
263,37,96863,2,0,L|278:125,1,90,2|0,0:0|0:0,0:0:0:0:
488,184,97113,1,2,0:0:0:0:
425,11,97238,1,2,0:0:0:0:
224,72,97363,6,0,L|257:258,1,180,8|0,0:0|0:0,0:0:0:0:
278,363,97738,1,0,0:0:0:0:
169,320,97863,1,0,0:0:0:0:
255,249,97988,1,0,0:0:0:0:
406,343,98113,6,0,L|372:156,1,180,8|0,0:0|0:0,0:0:0:0:
352,52,98488,1,0,0:0:0:0:
461,95,98613,1,0,0:0:0:0:
373,165,98738,1,0,0:0:0:0:
223,71,98863,6,0,P|180:59|136:62,1,90,8|0,0:0|0:0,0:0:0:0:
131,198,99113,2,0,P|91:219|62:253,1,90,0|2,0:0|0:0,0:0:0:0:
144,361,99363,1,2,0:0:0:0:
221,223,99488,1,2,0:0:0:0:
348,349,99613,5,8,0:0:0:0:
348,349,99863,2,0,P|387:330|432:333,1,90,2|0,0:0|0:0,0:0:0:0:
509,222,100113,2,0,P|469:202|424:205,1,90,2|0,0:0|0:0,0:0:0:0:
281,92,100363,6,0,L|461:72,1,180,8|0,0:0|0:0,0:0:0:0:
357,129,100738,1,0,0:0:0:0:
244,160,100863,1,0,0:0:0:0:
185,58,100988,1,0,0:0:0:0:
244,160,101113,6,0,P|235:204|213:242,1,90,8|0,0:0|0:0,0:0:0:0:
18,146,101363,5,2,0:0:0:0:
133,126,101488,1,2,0:0:0:0:
244,160,101613,1,2,0:0:0:0:
333,240,101738,1,2,0:0:0:0:
375,351,101863,1,10,0:0:0:0:
375,351,102113,6,0,L|263:344,1,90,2|0,0:0|0:0,0:0:0:0:
109,307,102363,2,0,L|221:300,1,90,2|0,0:0|0:0,0:0:0:0:
419,249,102613,2,0,L|307:242,1,90,10|0,0:0|0:0,0:0:0:0:
67,168,102863,2,0,L|179:161,1,90,2|0,0:0|0:0,0:0:0:0:
463,84,103113,2,0,L|351:77,1,90,2|0,0:0|0:0,0:0:0:0:
50,13,103363,6,0,P|20:94|67:168,1,180,12|0,0:0|0:0,0:0:0:0:
154,245,103738,1,0,0:0:0:0:
255,187,103863,1,0,0:0:0:0:
154,128,103988,1,0,0:0:0:0:
80,301,104113,6,0,P|161:333|235:288,1,180,8|0,0:0|0:0,0:0:0:0:
255,187,104488,1,0,0:0:0:0:
225,73,104613,1,0,0:0:0:0:
120,19,104738,1,0,0:0:0:0:
255,187,104863,6,0,P|334:153|354:68,1,180,8|0,0:0|0:0,0:0:0:0:
454,6,105238,1,0,0:0:0:0:
431,120,105363,1,0,0:0:0:0:
477,227,105488,1,0,0:0:0:0:
235,370,105613,6,0,L|325:377,1,90,10|0,0:0|0:0,0:0:0:0:
311,295,105863,2,0,L|401:302,1,90,2|0,0:0|0:0,0:0:0:0:
387,220,106113,2,0,L|477:227,1,90,2|0,0:0|0:0,0:0:0:0:
234,369,106363,6,0,P|160:324|145:238,1,180,8|0,0:0|0:0,0:0:0:0:
181,125,106738,1,0,0:0:0:0:
276,56,106863,1,0,0:0:0:0:
370,124,106988,1,0,0:0:0:0:
180,124,107113,6,0,P|166:82|166:37,1,90,10|0,0:0|0:0,0:0:0:0:
369,124,107363,2,0,P|370:168|356:211,1,90,2|0,0:0|0:0,0:0:0:0:
198,298,107613,2,0,P|183:255|184:210,1,90,2|0,0:0|0:0,0:0:0:0:
353,298,107863,5,8,0:0:0:0:
353,298,107988,5,2,0:0:0:0:
271,214,108113,1,2,0:0:0:0:
277,97,108238,1,2,0:0:0:0:
369,25,108363,1,2,0:0:0:0:
484,42,108488,1,2,0:0:0:0:
277,97,108613,6,0,L|189:74,1,90,10|0,0:0|0:0,0:0:0:0:
112,280,108863,2,0,L|199:257,1,90,2|0,0:0|0:0,0:0:0:0:
199,126,109113,1,2,0:0:0:0:
23,166,109238,1,2,0:0:0:0:
181,313,109362,6,0,L|355:268,1,180,8|0,0:0|0:0,0:0:0:0:
448,194,109738,1,0,0:0:0:0:
381,97,109863,1,0,0:0:0:0:
480,36,109988,1,0,0:0:0:0:
368,177,110113,6,0,P|302:122|324:39,1,180,8|0,0:0|0:0,0:0:0:0:
208,14,110488,1,0,0:0:0:0:
120,92,110613,1,0,0:0:0:0:
229,134,110738,1,0,0:0:0:0:
68,34,110863,6,0,P|46:116|111:171,1,180,8|0,0:0|0:0,0:0:0:0:
205,242,111238,1,0,0:0:0:0:
167,352,111363,1,0,0:0:0:0:
98,256,111488,1,0,0:0:0:0:
293,186,111613,6,0,P|304:229|303:274,1,90,10|0,0:0|0:0,0:0:0:0:
290,95,111863,2,0,P|328:117|359:149,1,90,2|0,0:0|0:0,0:0:0:0:
223,32,112113,2,0,P|266:20|311:21,1,90,2|0,0:0|0:0,0:0:0:0:
389,225,112363,6,0,P|361:161|407:61,1,180,8|0,0:0|0:0,0:0:0:0:
508,15,112738,1,0,0:0:0:0:
496,131,112863,1,0,0:0:0:0:
402,64,112988,1,0,0:0:0:0:
223,32,113113,6,0,L|227:211,1,180,8|0,0:0|0:0,0:0:0:0:
161,309,113488,1,0,0:0:0:0:
112,194,113613,1,0,0:0:0:0:
141,84,113738,1,0,0:0:0:0:
312,137,113863,6,0,P|340:219|299:297,1,180,8|0,0:0|0:0,0:0:0:0:
227,211,114238,1,0,0:0:0:0:
61,282,114363,2,0,L|68:371,1,90
112,194,114613,5,8,0:0:0:0:
91,79,114738,1,2,0:0:0:0:
194,24,114863,1,2,0:0:0:0:
279,106,114988,1,2,0:0:0:0:
227,211,115113,5,2,0:0:0:0:
267,35,115238,1,2,0:0:0:0:
91,79,115363,5,8,0:0:0:0:
432,32,115613,1,2,0:0:0:0:
112,194,115863,1,0,0:0:0:0:
453,167,116113,6,0,L|445:289,1,101.250003862381,8|0,0:0|0:0,0:0:0:0:
365,334,116363,2,0,L|371:232,1,101.250003862381,8|0,0:0|0:0,0:0:0:0:
300,156,116613,2,0,L|290:256,1,101.250003862381,8|0,0:0|0:0,0:0:0:0:
283,347,116863,5,8,3:0:0:0:
453,167,117113,1,8,3:0:0:0:
225,80,117363,1,8,3:0:0:0:
225,78,118363,6,0,P|162:100|100:78,1,135.000005149842,8|0,0:0|0:0,0:0:0:0:
37,16,118738,1,0,0:0:0:0:
18,101,118863,1,0,0:0:0:0:
75,167,118988,1,0,0:0:0:0:
163,256,119113,6,0,P|225:233|287:256,1,135.000005149842,8|0,0:0|0:0,0:0:0:0:
352,318,119488,1,0,0:0:0:0:
371,233,119613,1,0,0:0:0:0:
314,167,119738,1,0,0:0:0:0:
395,73,119863,6,0,L|390:153,1,67.5000025749208,8|0,0:0|0:0,0:0:0:0:
390,140,120050,1,2,0:0:0:0:
390,140,120113,1,2,0:0:0:0:
468,249,120238,1,0,0:0:0:0:
352,318,120363,1,2,0:0:0:0:
280,203,120488,1,0,0:0:0:0:
191,83,120613,6,0,L|196:163,1,67.5000025749208,8|0,0:0|0:0,0:0:0:0:
196,150,120800,1,2,0:0:0:0:
196,151,120863,1,2,0:0:0:0:
144,236,120988,1,0,0:0:0:0:
228,286,121113,1,2,0:0:0:0:
280,203,121238,1,0,0:0:0:0:
230,29,121363,6,0,L|126:38,1,90,8|0,0:0|0:0,0:0:0:0:
294,129,121613,2,0,L|398:138,1,90
230,229,121863,2,0,L|140:236,1,90
294,129,122113,6,0,P|316:167|325:211,1,90,8|0,0:0|0:0,0:0:0:0:
174,298,122362,2,0,P|196:259|229:229,1,90
374,317,122613,2,0,P|329:317|286:303,1,90
223,153,122863,5,8,0:0:0:0:
111,11,122988,1,0,0:0:0:0:
140,235,123113,2,0,L|128:345,1,90
38,122,123363,2,0,L|48:212,1,90
224,224,123613,5,8,0:0:0:0:
306,330,123738,1,0,0:0:0:0:
362,209,123863,1,0,0:0:0:0:
495,268,123988,5,2,0:0:0:0:
403,277,124113,1,2,0:0:0:0:
440,198,124238,1,2,0:0:0:0:
319,66,124363,6,0,L|330:163,1,90,8|0,0:0|0:0,0:0:0:0:
183,46,124613,2,0,L|218:136,1,90
46,61,124863,2,0,L|104:139,1,90
46,322,125113,6,0,P|63:281|94:249,1,90,8|0,0:0|0:0,0:0:0:0:
226,215,125363,1,0,0:0:0:0:
357,181,125488,2,0,P|388:149|406:108,2,90
226,215,125863,5,8,0:0:0:0:
226,215,125988,2,0,L|231:164,1,45,2|0,0:0|0:0,0:0:0:0:
479,367,126238,2,0,L|484:316,1,45,2|0,0:0|0:0,0:0:0:0:
156,326,126488,1,0,0:0:0:0:
156,325,126613,6,0,P|193:302|238:297,1,90,8|0,0:0|0:0,0:0:0:0:
416,321,126863,2,0,P|378:344|333:349,1,90
309,215,127113,1,0,0:0:0:0:
314,192,127175,1,0,0:0:0:0:
318,170,127238,1,0,0:0:0:0:
322,148,127300,1,0,0:0:0:0:
326,126,127363,5,8,0:0:0:0:
326,126,127613,2,0,L|309:37,1,90
129,22,127863,2,0,L|146:111,1,90
253,256,128113,6,0,L|236:167,2,90,8|0|0,0:0|0:0|0:0,0:0:0:0:
168,363,128488,1,0,0:0:0:0:
118,237,128613,1,0,0:0:0:0:
253,256,128738,1,0,0:0:0:0:
411,170,128863,6,0,P|419:126|411:82,1,90,8|0,0:0|0:0,0:0:0:0:
349,249,129113,2,0,P|341:293|351:336,1,90
332,174,129363,5,0,0:0:0:0:
292,43,129488,1,0,0:0:0:0:
199,141,129613,1,8,0:0:0:0:
332,174,129738,1,0,0:0:0:0:
292,43,129863,5,2,0:0:0:0:
201,15,129988,1,2,0:0:0:0:
117,47,130113,1,2,0:0:0:0:
73,125,130238,1,2,0:0:0:0:
60,211,130363,6,0,P|77:278|142:339,1,135.000005149842,2|0,0:0|0:0,0:0:0:0:
210,371,130738,1,0,0:0:0:0:
276,296,130863,2,0,L|297:232,1,67.5000025749208,2|0,0:0|0:0,0:0:0:0:
225,116,131113,2,0,L|205:179,1,67.5000025749208,2|0,0:0|0:0,0:0:0:0:
330,126,131363,2,0,L|350:61,1,67.5000025749208,2|0,0:0|0:0,0:0:0:0:
297,232,131613,5,2,0:0:0:0:
383,219,131738,1,2,0:0:0:0:
447,278,131863,1,2,0:0:0:0:
447,278,132113,6,0,L|433:320,2,45.0000017166138,8|0|0,0:0|0:0|0:0,0:0:0:0:
383,219,132363,2,0,L|369:261,2,45.0000017166138,8|0|0,0:0|0:0|0:0,0:0:0:0:
297,232,132613,5,8,0:0:0:0:
147,278,132863,6,0,L|141:244,3,33.7500012874604,2|0|0|0,0:0|0:0|0:0|0:0,0:0:0:0:
211,219,133113,2,0,L|205:185,3,33.7500012874604,2|0|0|0,0:0|0:0|0:0|0:0,0:0:0:0:
61,325,133363,6,0,P|29:243|67:164,1,180,12|0,0:0|0:0,0:0:0:0:
146,91,133738,2,0,P|154:46|144:3,2,90
206,186,134113,6,0,P|294:199|372:156,1,180,8|0,0:0|0:0,0:0:0:0:
419,59,134488,2,0,P|437:101|477:130,2,90
442,212,134863,6,0,P|384:291|393:390,1,180,8|0,0:0|0:0,0:0:0:0:
283,333,135238,1,0,0:0:0:0:
283,333,135363,1,0,0:0:0:0:
283,333,135488,1,0,0:0:0:0:
385,370,135613,6,0,L|378:280,1,90,8|0,0:0|0:0,0:0:0:0:
331,118,135863,2,0,L|324:207,1,90
403,165,136113,1,2,0:0:0:0:
398,75,136238,1,2,0:0:0:0:
323,207,136363,6,0,P|244:223|156:161,1,180,8|0,0:0|0:0,0:0:0:0:
121,94,136738,1,0,0:0:0:0:
133,4,136863,1,0,0:0:0:0:
133,4,136988,1,0,0:0:0:0:
163,173,137113,6,0,P|136:250|39:295,1,180,8|0,0:0|0:0,0:0:0:0:
8,217,137488,1,2,0:0:0:0:
163,173,137613,2,0,P|202:186|233:223,1,90,2|2,0:0|0:0,0:0:0:0:
279,364,137863,5,8,0:0:0:0:
279,364,137988,1,2,0:0:0:0:
45,349,138238,1,2,0:0:0:0:
233,222,138488,1,2,0:0:0:0:
233,221,138613,6,0,P|274:207|303:172,1,90,8|0,0:0|0:0,0:0:0:0:
426,48,138863,2,0,P|384:62|355:97,1,90
397,186,139113,1,0,0:0:0:0:
256,92,139238,1,0,0:0:0:0:
256,92,139300,1,0,0:0:0:0:
256,92,139363,6,0,L|73:79,1,180,8|0,0:0|0:0,0:0:0:0:
13,14,139738,1,0,0:0:0:0:
76,79,139863,1,0,0:0:0:0:
31,157,139988,1,0,0:0:0:0:
178,259,140113,6,0,P|123:326|37:321,1,180,8|0,0:0|0:0,0:0:0:0:
85,238,140488,1,0,0:0:0:0:
264,242,140613,2,0,P|260:288|241:332,1,90
177,151,140863,6,0,P|255:109|339:132,1,180,8|0,0:0|0:0,0:0:0:0:
367,218,141238,6,0,L|378:304,1,60,2|0,0:0|0:0,0:0:0:0:
401,223,141363,2,0,L|412:309,1,60,2|0,0:0|0:0,0:0:0:0:
440,231,141488,2,0,L|451:317,1,60,2|0,0:0|0:0,0:0:0:0:
485,324,141613,6,0,L|473:235,1,90,8|0,0:0|0:0,0:0:0:0:
336,137,141863,2,0,L|425:149,1,90
374,277,142113,1,0,0:0:0:0:
374,277,142238,1,0,0:0:0:0:
206,210,142363,6,0,P|185:295|223:375,1,180,8|0,0:0|0:0,0:0:0:0:
223,375,142738,1,2,0:0:0:0:
289,9,142988,5,2,0:0:0:0:
288,8,143113,2,0,P|326:88|306:174,1,180,8|0,0:0|0:0,0:0:0:0:
206,210,143613,5,2,0:0:0:0:
206,210,144113,2,0,P|162:203|123:182,1,90,8|0,0:0|0:0,0:0:0:0:
306,173,144363,2,0,P|350:179|389:200,1,90,8|0,0:0|0:0,0:0:0:0:
395,333,144613,5,8,3:0:0:0:
395,333,144863,1,8,3:0:0:0:
395,333,145363,6,0,L|392:233,1,90,8|0,0:0|0:0,0:0:0:0:
478,217,145613,1,0,0:0:0:0:
308,277,145738,2,0,L|208:274,1,90,8|0,0:0|0:0,0:0:0:0:
192,360,145988,1,0,0:0:0:0:
252,190,146113,6,0,L|249:90,1,90,8|0,0:0|0:0,0:0:0:0:
335,74,146363,1,2,0:0:0:0:
419,43,146488,1,2,0:0:0:0:
503,62,146613,1,2,0:0:0:0:
419,93,146738,1,2,0:0:0:0:
245,60,146863,6,0,L|65:56,1,180,12|0,0:0|0:0,0:0:0:0:
16,132,147238,1,0,0:0:0:0:
62,209,147363,1,0,0:0:0:0:
111,133,147488,1,0,0:0:0:0:
29,293,147613,6,0,L|208:296,1,180,8|0,0:0|0:0,0:0:0:0:
258,221,147988,1,0,0:0:0:0:
212,144,148113,1,0,0:0:0:0:
163,220,148238,1,0,0:0:0:0:
322,301,148363,6,0,P|358:222|323:143,1,180,8|0,0:0|0:0,0:0:0:0:
265,72,148738,1,0,0:0:0:0:
345,31,148863,1,0,0:0:0:0:
448,179,148988,1,2,0:0:0:0:
257,220,149113,6,0,P|234:183|227:138,1,90,10|2,0:0|0:0,0:0:0:0:
97,12,149363,2,0,P|120:49|127:94,1,90,2|0,0:0|0:0,0:0:0:0:
109,184,149613,1,0,0:0:0:0:
62,260,149738,1,0,0:0:0:0:
127,95,149863,6,0,P|206:56|295:59,1,180,8|0,0:0|0:0,0:0:0:0:
388,112,150238,2,0,P|430:129|474:125,2,90
273,185,150613,6,0,P|317:180|358:197,1,90,8|0,0:0|0:0,0:0:0:0:
415,374,150863,1,0,0:0:0:0:
337,348,150988,1,0,0:0:0:0:
358,197,151113,5,2,0:0:0:0:
497,278,151238,1,2,0:0:0:0:
337,267,151363,6,0,L|234:273,1,90,8|0,0:0|0:0,0:0:0:0:
95,172,151613,2,0,L|198:178,1,90
96,335,151863,1,2,0:0:0:0:
247,272,151988,1,2,0:0:0:0:
95,172,152113,6,0,P|86:126|103:78,1,90,8|0,0:0|0:0,0:0:0:0:
272,35,152363,2,0,P|284:77|275:121,1,90
161,264,152613,1,2,0:0:0:0:
161,264,152738,1,2,0:0:0:0:
315,363,152863,6,0,L|494:357,1,180,8|0,0:0|0:0,0:0:0:0:
497,266,153238,1,0,0:0:0:0:
404,290,153363,1,0,0:0:0:0:
310,271,153488,1,0,0:0:0:0:
312,179,153613,6,0,L|492:174,1,180,8|0,0:0|0:0,0:0:0:0:
497,266,153988,1,0,0:0:0:0:
403,247,154113,1,0,0:0:0:0:
310,271,154238,1,0,0:0:0:0:
139,186,154363,6,0,P|111:269|148:350,1,180,8|0,0:0|0:0,0:0:0:0:
224,301,154738,6,0,L|220:214,1,60,2|0,0:0|0:0,0:0:0:0:
240,218,154863,2,0,L|236:131,1,60,2|0,0:0|0:0,0:0:0:0:
221,132,154988,1,2,0:0:0:0:
310,271,155113,6,0,P|346:284|403:284,1,90,8|0,0:0|0:0,0:0:0:0:
455,114,155363,2,0,P|432:152|423:196,1,90
486,260,155613,1,0,0:0:0:0:
486,260,155738,1,0,0:0:0:0:
278,356,155863,6,0,P|189:351|119:297,1,180,8|0,0:0|0:0,0:0:0:0:
119,297,156238,1,2,0:0:0:0:
393,87,156488,5,2,0:0:0:0:
392,86,156613,2,0,P|322:32|233:27,1,180,8|0,0:0|0:0,0:0:0:0:
256,192,157113,1,2,0:0:0:0:
256,191,157613,6,0,P|272:150|269:105,1,90,8|0,0:0|0:0,0:0:0:0:
98,105,157863,2,0,P|95:150|112:192,1,90,8|0,0:0|0:0,0:0:0:0:
190,28,158113,5,8,3:0:0:0:
190,28,158363,1,8,3:0:0:0:
63,284,158738,1,8,3:0:0:0:
218,288,158863,6,0,L|225:375,1,67.5000025749208,12|0,0:0|0:0,0:0:0:0:
138,331,159113,1,0,0:0:0:0:
63,284,159238,1,0,0:0:0:0:
68,197,159363,1,0,0:0:0:0:
142,246,159488,1,0,0:0:0:0:
224,135,159613,6,0,L|217:222,1,67.5000025749208,8|0,0:0|0:0,0:0:0:0:
304,178,159863,1,0,0:0:0:0:
379,131,159988,1,0,0:0:0:0:
374,44,160113,1,0,0:0:0:0:
300,93,160238,1,0,0:0:0:0:
280,253,160363,6,0,P|280:286|275:319,1,67.5000025749208,8|0,0:0|0:0,0:0:0:0:
275,320,160550,1,2,0:0:0:0:
275,320,160613,1,2,0:0:0:0:
183,369,160738,1,2,0:0:0:0:
122,296,160863,1,2,0:0:0:0:
25,326,160988,1,2,0:0:0:0:
25,180,161113,6,0,P|24:213|29:246,1,67.5000025749208,8|0,0:0|0:0,0:0:0:0:
30,247,161300,1,2,0:0:0:0:
30,247,161363,1,2,0:0:0:0:
122,296,161488,1,2,0:0:0:0:
183,223,161613,1,2,0:0:0:0:
280,253,161738,1,2,0:0:0:0:
459,210,161863,6,0,P|442:180|416:159,1,67.5000025749208,8|0,0:0|0:0,0:0:0:0:
338,117,162113,1,0,0:0:0:0:
280,253,162238,2,0,P|296:282|322:303,1,67.5000025749208
401,345,162488,1,0,0:0:0:0:
438,173,162613,6,0,P|414:149|383:135,1,67.5000025749208,8|0,0:0|0:0,0:0:0:0:
298,117,162863,1,0,0:0:0:0:
300,289,162988,2,0,P|323:312|354:326,1,67.5000025749208
440,345,163238,1,0,0:0:0:0:
246,183,163363,6,0,L|159:187,1,67.5000025749208,8|0,0:0|0:0,0:0:0:0:
178,186,163550,1,2,0:0:0:0:
178,186,163613,1,2,0:0:0:0:
96,293,163738,1,2,0:0:0:0:
117,159,163863,1,2,0:0:0:0:
28,260,163988,1,2,0:0:0:0:
179,111,164113,6,0,L|175:43,1,67.5000025749208,8|0,0:0|0:0,0:0:0:0:
175,43,164300,1,2,0:0:0:0:
175,43,164363,1,2,0:0:0:0:
67,125,164488,1,2,0:0:0:0:
185,191,164613,1,2,0:0:0:0:
96,293,164738,1,2,0:0:0:0:
290,381,164863,6,0,L|373:375,1,67.5000025749208,8|0,0:0|0:0,0:0:0:0:
440,345,165113,1,0,0:0:0:0:
366,296,165238,1,0,0:0:0:0:
379,209,165363,1,0,0:0:0:0:
461,178,165488,1,0,0:0:0:0:
300,241,165613,6,0,L|217:235,1,67.5000025749208,8|0,0:0|0:0,0:0:0:0:
150,205,165863,1,0,0:0:0:0:
224,156,165988,1,0,0:0:0:0:
211,69,166113,1,0,0:0:0:0:
129,38,166238,1,0,0:0:0:0:
58,199,166363,6,0,P|63:230|81:265,1,67.5000025749208,8|0,0:0|0:0,0:0:0:0:
78,262,166550,1,2,0:0:0:0:
78,262,166613,1,2,0:0:0:0:
63,362,166738,1,2,0:0:0:0:
159,331,166863,1,2,0:0:0:0:
178,231,166988,1,2,0:0:0:0:
279,363,167113,6,0,P|274:332|256:297,1,67.5000025749208,8|0,0:0|0:0,0:0:0:0:
259,300,167300,1,2,0:0:0:0:
259,300,167363,1,2,0:0:0:0:
274,200,167488,1,2,0:0:0:0:
178,231,167613,1,2,0:0:0:0:
159,331,167738,1,2,0:0:0:0:
353,265,167863,6,0,P|385:252|418:248,1,67.5000025749208,8|0,0:0|0:0,0:0:0:0:
500,279,168113,1,0,0:0:0:0:
504,129,168238,2,0,P|499:162|485:193,1,67.5000025749208
418,248,168488,1,0,0:0:0:0:
425,64,168613,6,0,P|393:77|360:81,1,67.5000025749208,8|0,0:0|0:0,0:0:0:0:
278,50,168863,1,0,0:0:0:0:
274,200,168988,2,0,P|279:167|293:136,1,67.5000025749208
360,81,169238,1,0,0:0:0:0:
194,107,169363,6,0,P|160:102|129:89,1,67.5000025749208,8|0,0:0|0:0,0:0:0:0:
129,89,169550,1,0,0:0:0:0:
129,89,169613,1,0,0:0:0:0:
21,174,169738,1,2,0:0:0:0:
60,22,169863,1,2,0:0:0:0:
156,180,169988,1,2,0:0:0:0:
66,339,170113,5,10,0:0:0:0:
238,173,170363,5,2,0:0:0:0:
245,271,170488,1,0,0:0:0:0:
391,214,170613,5,2,0:0:0:0:
330,139,170738,1,0,0:0:0:0:
392,214,170863,6,0,P|445:213|495:192,1,107.999996704102,12|0,0:0|0:0,0:0:0:0:
495,192,171363,1,0,0:0:0:0:
495,325,171613,2,0,P|446:304|392:303,1,107.999996704102,2|0,0:0|0:0,0:0:0:0:
322,260,171988,6,0,L|279:272,1,35.9999989013672,2|2,0:0|0:0,0:0:0:0:
306,289,172113,2,0,L|263:301,1,35.9999989013672,2|0,0:0|0:0,0:0:0:0:
290,318,172238,2,0,L|247:330,1,35.9999989013672,2|0,0:0|0:0,0:0:0:0:
166,342,172363,6,0,P|187:292|185:238,1,107.999996704102,8|0,0:0|0:0,0:0:0:0:
147,174,172738,1,0,0:0:0:0:
89,58,172863,2,0,P|89:85|96:111,1,53.9999983520508
227,168,173113,6,0,P|269:135|294:87,2,107.999996704102,2|0|0,0:0|0:0|0:0,0:0:0:0:
54,56,173863,6,0,P|106:73|159:69,1,107.999996704102,8|0,0:0|0:0,0:0:0:0:
245,3,174363,1,0,0:0:0:0:
159,69,174613,6,0,P|143:121|147:174,1,107.999996704102,2|0,0:0|0:0,0:0:0:0:
147,174,174925,1,0,0:0:0:0:
147,174,174988,1,0,0:0:0:0:
262,207,175113,2,0,P|246:186|226:167,1,53.9999983520508
64,130,175363,5,8,0:0:0:0:
209,287,175613,2,0,P|210:314|207:341,1,53.9999983520508
144,227,175863,2,0,P|142:201|146:174,1,53.9999983520508
159,69,176113,5,2,0:0:0:0:
345,197,176363,1,0,0:0:0:0:
495,32,176613,1,0,0:0:0:0:
440,126,176863,6,0,P|447:179|475:224,2,107.999996704102,8|0|0,0:0|0:0|0:0,0:0:0:0:
345,197,177613,2,0,P|339:251|311:296,2,107.999996704102,2|0|0,0:0|0:0|0:0,0:0:0:0:
248,96,178363,6,0,P|220:142|214:195,1,107.999996704102,8|0,0:0|0:0,0:0:0:0:
214,195,178675,1,0,0:0:0:0:
214,195,178738,1,0,0:0:0:0:
345,197,178863,2,0,P|325:178|299:171,1,53.9999983520508
129,218,179113,6,0,L|118:341,2,107.999996704102,2|0|0,0:0|0:0|0:0,0:0:0:0:
248,96,179863,6,0,B|314:63|379:96|379:96|444:128|508:96,1,269.999991760254,8|0,0:0|0:0,0:0:0:0:
508,287,180613,2,0,B|444:255|379:288|379:288|314:320|248:288,1,269.999991760254,8|0,0:0|0:0,0:0:0:0:
78,239,181363,6,0,P|80:292|116:332,1,107.999996704102,8|0,0:0|0:0,0:0:0:0:
240,192,181863,1,0,0:0:0:0:
78,144,182113,2,0,P|80:91|116:51,1,107.999996704102,8|0,0:0|0:0,0:0:0:0:
240,192,182613,5,0,0:0:0:0:
364,57,182738,1,0,0:0:0:0:
364,57,182863,6,0,L|377:129,2,53.9999983520508,8|0|0,0:0|0:0|0:0,0:0:0:0:
441,167,183238,5,0,0:0:0:0:
313,273,183363,1,0,0:0:0:0:
258,92,183488,1,0,0:0:0:0:
478,91,183613,5,2,0:0:0:0:
160,152,183863,1,2,0:0:0:0:
424,344,184113,1,2,0:0:0:0:
408,208,184363,1,2,0:0:0:0:
204,330,185613,6,0,P|165:341|133:365,1,80.9999975280763,2|0,0:0|0:0,0:0:0:0:
204,330,185863,6,0,P|273:277|271:191,1,180,12|0,0:0|0:0,0:0:0:0:
199,105,186238,1,0,0:0:0:0:
88,141,186363,1,0,0:0:0:0:
168,227,186488,1,0,0:0:0:0:
425,181,186613,6,0,P|345:147|270:192,1,180,8|0,0:0|0:0,0:0:0:0:
232,298,186988,1,0,0:0:0:0:
319,376,187113,1,0,0:0:0:0:
353,264,187238,1,0,0:0:0:0:
170,47,187363,6,0,L|168:227,1,180,8|0,0:0|0:0,0:0:0:0:
103,325,187738,1,0,0:0:0:0:
55,217,187863,1,0,0:0:0:0:
168,227,187988,1,0,0:0:0:0:
341,336,188113,6,0,L|344:157,1,180,8|0,0:0|0:0,0:0:0:0:
409,59,188488,1,0,0:0:0:0:
457,167,188613,1,0,0:0:0:0:
344,156,188738,1,0,0:0:0:0:
115,108,188863,6,0,P|201:122|248:195,1,180,8|0,0:0|0:0,0:0:0:0:
229,312,189238,1,0,0:0:0:0:
117,346,189363,1,0,0:0:0:0:
27,271,189488,1,0,0:0:0:0:
248,195,189613,6,0,P|290:208|324:237,1,90,10|0,0:0|0:0,0:0:0:0:
486,179,189863,2,0,P|443:192|409:221,1,90,2|0,0:0|0:0,0:0:0:0:
281,109,190113,2,0,P|323:122|357:151,1,90,2|0,0:0|0:0,0:0:0:0:
331,32,190363,5,8,0:0:0:0:
331,32,190488,5,2,0:0:0:0:
281,109,190613,1,2,0:0:0:0:
191,149,190738,1,2,0:0:0:0:
93,139,190863,1,2,0:0:0:0:
12,82,190988,1,2,0:0:0:0:
139,237,191113,6,0,P|150:279|142:323,1,90,10|0,0:0|0:0,0:0:0:0:
191,149,191363,2,0,P|222:180|237:222,1,90,2|0,0:0|0:0,0:0:0:0:
192,46,191613,1,2,0:0:0:0:
355,84,191738,1,2,0:0:0:0:
381,314,191863,6,0,P|326:244|323:156,1,180,8|0,0:0|0:0,0:0:0:0:
432,109,192238,1,0,0:0:0:0:
455,223,192363,1,0,0:0:0:0:
381,314,192488,1,0,0:0:0:0:
186,163,192613,6,0,P|240:232|243:320,1,180,8|0,0:0|0:0,0:0:0:0:
135,368,192988,1,0,0:0:0:0:
112,254,193113,1,0,0:0:0:0:
186,163,193238,1,0,0:0:0:0:
49,28,193363,6,0,P|30:69|35:113,1,90,8|0,0:0|0:0,0:0:0:0:
112,254,193613,2,0,P|116:209|98:169,1,90,0|2,0:0|0:0,0:0:0:0:
52,330,193863,1,2,0:0:0:0:
186,163,193988,1,2,0:0:0:0:
341,309,194113,5,8,0:0:0:0:
341,309,194363,2,0,P|384:297|416:266,1,90
341,75,194613,2,0,P|384:86|416:117,1,90
256,192,194863,6,0,B|240:144|256:104|256:104|271:66|256:16,1,180,8|0,0:0|0:0,0:0:0:0:
153,74,195238,1,0,0:0:0:0:
177,188,195363,1,0,0:0:0:0:
70,139,195488,1,0,0:0:0:0:
176,187,195613,6,0,P|183:232|174:276,1,90,8|0,0:0|0:0,0:0:0:0:
86,352,195863,1,2,0:0:0:0:
174,275,195988,1,2,0:0:0:0:
280,324,196113,1,2,0:0:0:0:
277,206,196238,1,2,0:0:0:0:
367,135,196363,1,8,0:0:0:0:
367,135,196613,6,0,P|379:90|410:47,1,90,2|0,0:0|0:0,0:0:0:0:
249,103,196863,2,0,P|259:58|255:5,1,90,2|0,0:0|0:0,0:0:0:0:
381,247,197113,2,0,P|404:207|445:173,1,90,10|0,0:0|0:0,0:0:0:0:
176,187,197363,2,0,P|175:141|157:91,1,90,2|0,0:0|0:0,0:0:0:0:
405,340,197613,1,2,0:0:0:0:
295,167,197738,1,2,0:0:0:0:
112,262,197863,6,0,P|44:207|35:120,1,180,12|0,0:0|0:0,0:0:0:0:
68,7,198238,1,0,0:0:0:0:
112,115,198363,1,0,0:0:0:0:
45,211,198488,1,0,0:0:0:0:
174,350,198613,6,0,P|263:360|335:297,1,180,8|0,0:0|0:0,0:0:0:0:
294,194,198988,1,0,0:0:0:0:
305,77,199113,1,0,0:0:0:0:
413,34,199238,1,0,0:0:0:0:
294,194,199363,6,0,P|206:204|138:149,1,180,8|0,0:0|0:0,0:0:0:0:
110,35,199738,1,0,0:0:0:0:
23,114,199863,1,0,0:0:0:0:
61,224,199988,1,0,0:0:0:0:
294,194,200113,6,0,P|305:237|304:282,1,90,10|0,0:0|0:0,0:0:0:0:
291,103,200363,2,0,P|329:125|360:157,1,90,2|0,0:0|0:0,0:0:0:0:
224,40,200613,2,0,P|267:28|312:29,1,90,2|0,0:0|0:0,0:0:0:0:
413,243,200863,6,0,P|333:282|244:279,1,180,8|0,0:0|0:0,0:0:0:0:
150,209,201238,1,0,0:0:0:0:
59,283,201363,1,0,0:0:0:0:
153,352,201488,1,0,0:0:0:0:
244,278,201613,6,0,P|265:239|266:195,1,90,10|0,0:0|0:0,0:0:0:0:
148,75,201863,2,0,P|170:113|209:136,1,90,2|0,0:0|0:0,0:0:0:0:
371,88,202113,2,0,P|326:88|287:110,1,90,2|0,0:0|0:0,0:0:0:0:
244,278,202363,5,8,0:0:0:0:
244,278,202613,5,2,0:0:0:0:
145,341,202738,1,2,0:0:0:0:
44,280,202863,1,2,0:0:0:0:
28,165,202988,1,2,0:0:0:0:
111,77,203113,6,0,L|191:20,1,90,10|0,0:0|0:0,0:0:0:0:
359,162,203363,2,0,L|307:235,1,90,2|0,0:0|0:0,0:0:0:0:
190,118,203613,1,2,0:0:0:0:
344,25,203738,1,2,0:0:0:0:
401,242,203863,6,0,P|356:316|270:323,1,180,8|0,0:0|0:0,0:0:0:0:
159,283,204238,1,0,0:0:0:0:
157,171,204363,1,0,0:0:0:0:
261,226,204488,1,0,0:0:0:0:
40,231,204613,6,0,P|26:144|70:68,1,180,8|0,0:0|0:0,0:0:0:0:
176,17,204988,1,0,0:0:0:0:
251,105,205113,1,0,0:0:0:0:
361,67,205238,1,0,0:0:0:0:
145,135,205363,6,0,L|141:314,1,180,8|0,0:0|0:0,0:0:0:0:
36,366,205738,1,0,0:0:0:0:
44,249,205863,1,0,0:0:0:0:
140,314,205988,1,0,0:0:0:0:
332,201,206113,6,0,P|346:243|346:288,1,90,10|0,0:0|0:0,0:0:0:0:
143,201,206363,2,0,P|142:157|156:114,1,90,2|0,0:0|0:0,0:0:0:0:
314,27,206613,2,0,P|329:70|328:115,1,90,2|0,0:0|0:0,0:0:0:0:
503,217,206863,6,0,P|415:231|331:200,1,180,8|0,0:0|0:0,0:0:0:0:
234,133,207238,1,0,0:0:0:0:
126,179,207363,1,0,0:0:0:0:
34,105,207488,1,0,0:0:0:0:
234,133,207613,6,0,L|224:326,1,180,8|0,0:0|0:0,0:0:0:0:
324,373,207988,1,0,0:0:0:0:
135,260,208113,5,2,0:0:0:0:
135,260,208238,1,2,0:0:0:0:
323,372,208363,6,0,L|314:193,1,180,8|0,0:0|0:0,0:0:0:0:
403,269,208738,1,0,0:0:0:0:
225,339,208863,2,0,P|180:340|137:326,1,90
33,144,209113,5,8,0:0:0:0:
33,144,209238,1,2,0:0:0:0:
115,226,209363,1,2,0:0:0:0:
221,174,209488,1,2,0:0:0:0:
201,58,209613,5,2,0:0:0:0:
314,193,209738,1,2,0:0:0:0:
136,137,209863,5,8,0:0:0:0:
453,15,210113,1,0,0:0:0:0:
401,348,210363,1,0,0:0:0:0:
134,304,210613,6,0,P|170:269|183:221,1,101.250003862381,8|0,0:0|0:0,0:0:0:0:
136,137,210863,2,0,P|147:185|182:221,1,101.250003862381,8|0,0:0|0:0,0:0:0:0:
279,224,211113,2,0,P|231:209|182:222,1,101.250003862381,8|0,0:0|0:0,0:0:0:0:
232,314,211363,5,8,3:0:0:0:
444,146,211613,1,8,3:0:0:0:
188,32,211863,1,8,3:0:0:0:
188,32,213113,5,2,0:0:0:0:
140,105,213238,1,0,0:0:0:0:
124,192,213363,1,2,0:0:0:0:
139,279,213488,1,0,0:0:0:0:
187,354,213613,1,2,0:0:0:0:
256,192,218863,5,0,0:0:0:0:
256,192,218925,12,0,220238,0:0:0:0:
364,131,220363,6,0,L|368:201,2,53.9999983520508,8|0|0,0:0|0:0|0:0,0:0:0:0:
280,196,220738,2,0,L|265:264,2,53.9999983520508,8|0|0,0:0|0:0|0:0,0:0:0:0:
175,227,221113,2,0,L|143:289,2,53.9999983520508,8|0|0,0:0|0:0|0:0,0:0:0:0:
116,104,221488,1,2,0:0:0:0:
111,88,221613,1,2,0:0:0:0:
107,72,221738,1,2,0:0:0:0:
103,56,221863,6,0,L|38:48,2,53.9999983520508,8|0|0,0:0|0:0|0:0,0:0:0:0:
243,84,222238,2,0,L|189:90,2,53.9999983520508,8|0|0,0:0|0:0|0:0,0:0:0:0:
394,57,222613,6,0,L|329:49,1,53.9999983520508,8|0,0:0|0:0,0:0:0:0:
325,57,222863,1,0,0:0:0:0:
398,144,222988,2,0,L|463:136,1,53.9999983520508,8|0,0:0|0:0,0:0:0:0:
467,144,223238,1,0,0:0:0:0:
377,316,223363,6,0,L|371:262,2,53.9999983520508,8|0|0,0:0|0:0|0:0,0:0:0:0:
270,209,223738,2,0,L|265:263,2,53.9999983520508,8|0|0,0:0|0:0|0:0,0:0:0:0:
168,327,224113,2,0,L|162:273,2,53.9999983520508,8|0|0,0:0|0:0|0:0,0:0:0:0:
62,174,224488,1,2,0:0:0:0:
61,190,224613,1,2,0:0:0:0:
61,206,224738,1,2,0:0:0:0:
61,222,224863,6,0,L|83:263,5,26.9999991760254,8|0|0|0|0|0,0:0|0:0|0:0|0:0|0:0|0:0,0:0:0:0:
152,199,225238,2,0,L|140:176,5,26.9999991760254,8|0|0|0|0|0,0:0|0:0|0:0|0:0|0:0|0:0,0:0:0:0:
221,247,225613,5,8,0:0:0:0:
320,164,225738,1,0,0:0:0:0:
200,113,225863,1,0,0:0:0:0:
320,164,225988,5,8,0:0:0:0:
450,147,226113,1,0,0:0:0:0:
405,269,226238,1,0,0:0:0:0:
320,164,226363,6,0,L|319:69,1,67.5000025749208,8|0,0:0|0:0,0:0:0:0:
403,17,226613,1,0,0:0:0:0:
233,35,226738,2,0,L|154:28,1,67.5000025749208
56,63,226988,1,0,0:0:0:0:
200,113,227113,2,0,L|267:107,1,67.5000025749208,8|0,0:0|0:0,0:0:0:0:
377,141,227363,1,0,0:0:0:0:
195,208,227488,5,2,0:0:0:0:
321,223,227613,1,2,0:0:0:0:
267,107,227738,1,2,0:0:0:0:
96,148,227863,6,0,L|112:223,1,67.5000025749208,8|0,0:0|0:0,0:0:0:0:
197,288,228113,1,0,0:0:0:0:
28,198,228238,2,0,L|44:273,1,67.5000025749208
129,338,228488,1,0,0:0:0:0:
195,208,228613,5,8,0:0:0:0:
195,208,228738,1,0,0:0:0:0:
324,297,228863,5,2,0:0:0:0:
284,203,228988,1,2,0:0:0:0:
318,107,229113,1,2,0:0:0:0:
413,72,229238,1,2,0:0:0:0:
235,130,229363,6,0,P|198:123|167:100,1,67.5000025749208,8|0,0:0|0:0,0:0:0:0:
103,15,229613,1,0,0:0:0:0:
116,190,229738,2,0,P|94:158|89:120,1,67.5000025749208
103,15,229988,1,0,0:0:0:0:
233,44,230113,5,8,0:0:0:0:
233,44,230238,1,0,0:0:0:0:
88,130,230363,5,2,0:0:0:0:
195,208,230488,1,2,0:0:0:0:
80,307,230613,1,2,0:0:0:0:
233,378,230738,1,2,0:0:0:0:
426,316,230863,6,0,L|438:266,3,33.7500012874604,8|0|0|0,0:0|0:0|0:0|0:0,0:0:0:0:
314,203,231113,2,0,L|321:235,3,33.7500012874604,8|0|0|0,0:0|0:0|0:0|0:0,0:0:0:0:
439,152,231363,2,0,L|451:102,3,33.7500012874604,8|0|0|0,0:0|0:0|0:0|0:0,0:0:0:0:
332,51,231613,5,8,0:0:0:0:
198,70,231863,5,2,0:0:0:0:
182,68,231925,1,0,0:0:0:0:
165,66,231988,1,0,0:0:0:0:
148,63,232050,1,0,0:0:0:0:
116,52,232113,5,2,0:0:0:0:
99,54,232175,1,0,0:0:0:0:
82,56,232238,1,0,0:0:0:0:
66,59,232300,1,0,0:0:0:0:
35,83,232363,6,0,L|42:164,1,67.5000025749208,8|0,0:0|0:0,0:0:0:0:
98,265,232613,1,0,0:0:0:0:
284,240,232738,2,0,L|201:227,1,67.5000025749208
98,265,232988,1,0,0:0:0:0:
288,337,233113,6,0,L|371:324,1,67.5000025749208,8|0,0:0|0:0,0:0:0:0:
409,190,233363,2,0,L|492:177,1,67.5000025749208
469,307,233613,1,0,0:0:0:0:
381,258,233738,1,0,0:0:0:0:
417,28,233863,6,0,P|428:59|430:93,1,67.5000025749208,8|0,0:0|0:0,0:0:0:0:
409,190,234113,1,0,0:0:0:0:
251,91,234238,2,0,P|284:96|314:112,1,67.5000025749208
409,190,234488,1,0,0:0:0:0:
226,255,234613,6,0,P|217:222|219:188,1,67.5000025749208,8|0,0:0|0:0,0:0:0:0:
337,341,234863,2,0,P|304:331|276:313,1,67.5000025749208
219,188,235113,1,0,0:0:0:0:
251,91,235238,1,0,0:0:0:0:
201,328,235363,6,0,P|172:346|140:355,1,67.5000025749208,8|0,0:0|0:0,0:0:0:0:
123,358,235550,1,0,0:0:0:0:
106,358,235613,2,0,L|73:347,2,33.7500012874604,0|0|2,0:0|0:0|0:0,0:0:0:0:
226,255,235863,1,2,0:0:0:0:
337,341,235988,1,2,0:0:0:0:
131,269,236113,6,0,P|132:231|139:201,1,67.5000025749208,8|0,0:0|0:0,0:0:0:0:
197,64,236363,1,2,0:0:0:0:
230,159,236488,1,2,0:0:0:0:
356,221,236613,1,2,0:0:0:0:
389,126,236738,1,2,0:0:0:0:
257,251,236863,6,0,L|270:326,1,67.5000025749208,8|0,0:0|0:0,0:0:0:0:
273,333,237050,1,0,0:0:0:0:
277,349,237113,2,0,L|317:374,2,33.7500012874604,0|0|2,0:0|0:0|0:0,0:0:0:0:
381,261,237363,1,2,0:0:0:0:
438,383,237488,1,2,0:0:0:0:
273,343,237613,5,8,0:0:0:0:
401,236,237738,1,0,0:0:0:0:
401,219,237800,1,0,0:0:0:0:
402,202,237863,1,0,0:0:0:0:
403,185,237925,1,0,0:0:0:0:
404,168,237988,1,2,0:0:0:0:
315,66,238113,1,2,0:0:0:0:
222,164,238238,1,2,0:0:0:0:
89,54,238363,1,10,0:0:0:0:
89,54,238488,6,0,P|59:81|43:118,2,67.5000025749208,0|8|0,0:0|0:0|0:0,0:0:0:0:
305,119,238863,2,0,P|309:153|301:186,1,67.5000025749208,8|0,0:0|0:0,0:0:0:0:
87,260,239113,2,0,P|64:235|51:205,1,67.5000025749208,8|0,0:0|0:0,0:0:0:0:
181,18,239363,2,0,P|214:24|243:42,1,67.5000025749208,8|0,0:0|0:0,0:0:0:0:
246,268,239613,2,0,P|216:283|183:286,1,67.5000025749208,8|0,0:0|0:0,0:0:0:0:
394,169,239863,5,8,0:0:0:0:
394,169,239988,1,0,0:0:0:0:
327,286,240113,1,2,0:0:0:0:
331,303,240176,1,2,0:0:0:0:
333,320,240238,1,2,0:0:0:0:
463,283,240363,1,0,0:0:0:0:
312,207,240488,1,0,0:0:0:0:
451,59,240613,5,8,0:0:0:0:
354,89,240738,1,2,0:0:0:0:
337,85,240800,1,2,0:0:0:0:
320,87,240863,1,2,0:0:0:0:
305,93,240925,1,2,0:0:0:0:
292,104,240988,1,2,0:0:0:0:
283,118,241050,1,2,0:0:0:0:
258,141,241113,6,0,L|225:133,1,33.7500012874604,8|0,3:0|0:0,0:0:0:0:
186,50,241238,2,0,L|218:57,1,33.7500012874604,8|0,3:0|0:0,0:0:0:0:
341,161,241363,1,8,3:0:0:0:
340,160,242113,6,0,B|384:258|384:258|380:201|423:180,1,188.999994232178,4|0,0:0|0:0,0:0:0:0:
457,246,242613,5,2,0:0:0:0:
252,117,242738,1,2,0:0:0:0:
138,352,242863,6,0,P|119:265|156:185,1,180,12|0,0:0|0:0,0:0:0:0:
252,117,243238,1,2,0:0:0:0:
356,202,243363,1,2,0:0:0:0:
231,254,243488,1,2,0:0:0:0:
484,138,243613,6,0,B|493:195|493:195|481:262|481:262|486:315,1,180,8|0,0:0|0:0,0:0:0:0:
372,341,243988,1,0,0:0:0:0:
409,230,244113,1,0,0:0:0:0:
347,130,244238,1,0,0:0:0:0:
114,119,244363,6,0,P|95:205|131:286,1,180,8|0,0:0|0:0,0:0:0:0:
227,354,244738,1,2,0:0:0:0:
331,269,244863,1,2,0:0:0:0:
206,217,244988,1,2,0:0:0:0:
459,333,245113,6,0,B|468:276|468:276|456:209|456:209|461:155,1,180,8|0,0:0|0:0,0:0:0:0:
347,130,245488,1,0,0:0:0:0:
384,241,245613,1,0,0:0:0:0:
322,341,245738,1,0,0:0:0:0:
193,108,245863,6,0,P|266:56|354:46,1,180,8|0,0:0|0:0,0:0:0:0:
468,71,246238,1,0,0:0:0:0:
395,162,246363,1,0,0:0:0:0:
353,45,246488,1,0,0:0:0:0:
432,272,246613,6,0,P|434:316|419:358,1,90,10|0,0:0|0:0,0:0:0:0:
316,209,246863,2,0,P|285:241|245:261,1,90,2|0,0:0|0:0,0:0:0:0:
277,84,247113,2,0,P|232:86|190:71,1,90,2|0,0:0|0:0,0:0:0:0:
64,21,247363,5,8,0:0:0:0:
64,21,247613,2,0,L|66:113,1,90,2|2,0:0|0:0,0:0:0:0:
223,164,247863,1,2,0:0:0:0:
223,164,247988,1,2,0:0:0:0:
123,334,248113,6,0,P|79:332|41:308,1,90,10|0,0:0|0:0,0:0:0:0:
276,279,248363,2,0,P|297:318|295:362,1,90,2|0,0:0|0:0,0:0:0:0:
158,220,248613,1,2,0:0:0:0:
316,133,248738,1,2,0:0:0:0:
459,291,248863,6,0,P|393:349|304:347,1,180,8|0,0:0|0:0,0:0:0:0:
247,245,249238,1,0,0:0:0:0:
365,250,249363,1,0,0:0:0:0:
305,347,249488,1,0,0:0:0:0:
316,133,249613,6,0,P|245:80|157:90,1,180,8|0,0:0|0:0,0:0:0:0:
109,197,249988,1,0,0:0:0:0:
226,182,250113,1,0,0:0:0:0:
158,90,250238,1,0,0:0:0:0:
174,263,250363,6,0,L|158:358,1,90,8|0,0:0|0:0,0:0:0:0:
30,250,250613,2,0,L|15:161,1,90
85,13,250863,5,2,0:0:0:0:
175,147,250988,1,2,0:0:0:0:
15,161,251113,5,10,0:0:0:0:
99,192,251238,1,2,0:0:0:0:
19,277,251363,1,2,0:0:0:0:
154,324,251488,1,2,0:0:0:0:
315,207,251613,6,0,P|337:274|310:336,1,135,2|0,0:0|0:0,0:0:0:0:
236,269,251863,6,0,P|216:184|267:113,1,180,8|0,0:0|0:0,0:0:0:0:
188,24,252238,1,0,0:0:0:0:
184,144,252363,1,0,0:0:0:0:
71,112,252488,1,0,0:0:0:0:
184,144,252613,6,0,P|228:136|266:113,1,90,8|0,0:0|0:0,0:0:0:0:
398,20,252863,5,2,0:0:0:0:
340,121,252988,1,2,0:0:0:0:
368,234,253113,1,2,0:0:0:0:
456,310,253238,1,0,0:0:0:0:
456,310,253363,5,10,0:0:0:0:
456,310,253613,5,2,0:0:0:0:
426,194,253738,1,2,0:0:0:0:
338,119,253863,1,2,0:0:0:0:
338,119,253988,1,0,0:0:0:0:
209,270,254113,6,0,L|239:374,1,90,10|0,0:0|0:0,0:0:0:0:
245,128,254363,2,0,L|214:23,1,90,2|0,0:0|0:0,0:0:0:0:
101,236,254613,1,2,0:0:0:0:
148,62,254738,1,2,0:0:0:0:
352,167,254863,6,0,P|425:119|439:33,1,180,12|0,0:0|0:0,0:0:0:0:
322,23,255238,1,2,0:0:0:0:
255,140,255363,1,2,0:0:0:0:
173,23,255488,1,2,0:0:0:0:
352,167,255613,6,0,B|367:217|352:255|352:255|336:295|352:343,1,180,8|0,0:0|0:0,0:0:0:0:
462,380,255988,1,0,0:0:0:0:
439,265,256113,1,0,0:0:0:0:
352,343,256238,1,0,0:0:0:0:
149,231,256363,6,0,P|75:279|61:365,1,180,8|0,0:0|0:0,0:0:0:0:
179,375,256738,1,2,0:0:0:0:
246,258,256863,1,2,0:0:0:0:
328,375,256988,1,2,0:0:0:0:
148,230,257113,6,0,P|142:186|152:143,1,90,10|0,0:0|0:0,0:0:0:0:
284,15,257363,2,0,P|241:27|206:55,1,90,2|0,0:0|0:0,0:0:0:0:
179,248,257613,2,0,P|172:203|182:160,1,90,2|0,0:0|0:0,0:0:0:0:
314,31,257863,6,0,P|271:109|290:195,1,180,8|0,0:0|0:0,0:0:0:0:
341,301,258238,1,0,0:0:0:0:
413,208,258363,1,0,0:0:0:0:
463,313,258488,1,0,0:0:0:0:
290,195,258613,6,0,P|273:236|243:269,1,90,10|0,0:0|0:0,0:0:0:0:
219,47,258862,2,0,P|253:75|275:114,1,90,2|0,0:0|0:0,0:0:0:0:
58,69,259112,2,0,P|95:44|139:36,1,90,2|0,0:0|0:0,0:0:0:0:
32,153,259363,5,8,0:0:0:0:
32,153,259613,5,2,0:0:0:0:
55,267,259738,1,2,0:0:0:0:
155,326,259863,1,2,0:0:0:0:
270,309,259988,1,2,0:0:0:0:
360,233,260113,6,0,P|370:190|368:145,1,90,10|0,0:0|0:0,0:0:0:0:
263,5,260363,2,0,P|260:49|271:93,1,90,2|0,0:0|0:0,0:0:0:0:
451,92,260613,1,2,0:0:0:0:
360,233,260738,1,2,0:0:0:0:
144,146,260863,6,0,L|155:326,1,180,8|0,0:0|0:0,0:0:0:0:
41,354,261238,1,0,0:0:0:0:
56,260,261363,1,0,0:0:0:0:
154,325,261488,1,0,0:0:0:0:
311,226,261613,6,0,L|300:46,1,180,8|0,0:0|0:0,0:0:0:0:
414,18,261988,1,0,0:0:0:0:
399,112,262113,1,0,0:0:0:0:
301,47,262238,1,0,0:0:0:0:
489,162,262363,6,0,P|491:257|436:317,1,180,8|0,0:0|0:0,0:0:0:0:
321,292,262738,1,0,0:0:0:0:
219,350,262863,1,0,0:0:0:0:
130,273,262988,1,0,0:0:0:0:
320,291,263113,6,0,P|333:335|335:379,1,90,10|0,0:0|0:0,0:0:0:0:
130,273,263363,2,0,P|131:228|144:185,1,90,2|0,0:0|0:0,0:0:0:0:
215,20,263613,1,2,0:0:0:0:
289,186,263738,1,2,0:0:0:0:
148,364,263863,6,0,P|64:343|38:261,1,180,8|0,0:0|0:0,0:0:0:0:
59,146,264238,1,0,0:0:0:0:
173,122,264363,1,0,0:0:0:0:
98,31,264488,1,0,0:0:0:0:
130,273,264613,6,0,P|218:268|281:207,1,180,8|0,0:0|0:0,0:0:0:0:
308,93,264988,1,0,0:0:0:0:
406,29,265113,1,0,0:0:0:0:
476,122,265238,1,0,0:0:0:0:
467,352,265363,6,0,P|391:306|364:222,1,180,8|0,0:0|0:0,0:0:0:0:
393,108,265738,1,0,0:0:0:0:
363,222,265863,2,0,P|347:263|314:293,1,90
159,347,266113,5,8,0:0:0:0:
159,347,266238,1,2,0:0:0:0:
72,169,266363,1,2,0:0:0:0:
189,158,266488,1,2,0:0:0:0:
50,284,266613,5,2,0:0:0:0:
241,264,266738,1,2,0:0:0:0:
126,66,266863,5,8,0:0:0:0:
452,161,267113,1,2,0:0:0:0:
122,235,267363,1,0,0:0:0:0:
442,344,267613,6,0,P|394:358|346:346,1,101.250003862381,8|0,0:0|0:0,0:0:0:0:
245,268,267863,2,0,P|294:254|342:266,1,101.250003862381,8|0,0:0|0:0,0:0:0:0:
243,346,268113,2,0,P|195:358|147:344,1,101.250003862381,8|0,0:0|0:0,0:0:0:0:
89,282,268363,5,8,3:0:0:0:
201,66,268613,1,8,3:0:0:0:
342,266,268863,1,8,3:0:0:0:
208,271,270613,6,0,L|212:226,2,45.0000017166138,8|0|0,0:0|0:0|0:0,0:0:0:0:
295,203,270863,2,0,L|290:247,2,45.0000017166138,8|0|0,0:0|0:0|0:0,0:0:0:0:
362,299,271113,2,0,L|366:254,2,45.0000017166138,8|0|0,0:0|0:0|0:0,0:0:0:0:
449,231,271363,2,0,L|443:274,2,45.0000017166138,8|0|0,0:0|0:0|0:0,0:0:0:0:
394,158,271613,5,8,0:0:0:0:
290,247,271738,1,0,0:0:0:0:
140,180,271863,6,0,L|141:146,1,33.7500012874604,2|0,0:0|0:0,0:0:0:0:
87,98,271988,2,0,L|88:64,1,33.7500012874604,2|0,0:0|0:0,0:0:0:0:
199,234,272113,6,0,P|193:300|147:348,1,135.000005149842,12|0,0:0|0:0,0:0:0:0:
42,300,272488,1,0,0:0:0:0:
17,187,272613,1,0,0:0:0:0:
116,130,272738,1,0,0:0:0:0:
312,234,272863,6,0,P|318:300|364:348,1,135.000005149842,8|0,0:0|0:0,0:0:0:0:
470,300,273238,1,0,0:0:0:0:
495,187,273363,1,0,0:0:0:0:
396,130,273488,1,0,0:0:0:0:
203,167,273613,6,0,L|199:242,1,67.5000025749208,8|0,0:0|0:0,0:0:0:0:
199,234,273800,1,2,0:0:0:0:
199,234,273863,1,2,0:0:0:0:
266,350,273988,1,2,0:0:0:0:
143,292,274113,1,2,0:0:0:0:
276,274,274238,1,2,0:0:0:0:
70,342,274363,6,0,P|58:310|55:276,1,67.5000025749208,8|0,0:0|0:0,0:0:0:0:
55,276,274550,1,2,0:0:0:0:
55,276,274613,1,2,0:0:0:0:
84,144,274738,1,2,0:0:0:0:
199,234,274863,1,2,0:0:0:0:
228,102,274988,1,2,0:0:0:0:
396,39,275113,6,0,P|352:35|309:48,1,90,12|0,0:0|0:0,0:0:0:0:
301,229,275363,2,0,P|322:189|356:160,1,90
424,265,275613,2,0,P|422:310|435:353,1,90
211,233,275863,6,0,L|300:229,1,90,8|0,0:0|0:0,0:0:0:0:
150,59,276114,2,0,L|60:55,1,90
10,228,276363,1,2,0:0:0:0:
173,152,276488,1,2,0:0:0:0:
341,237,276613,6,0,P|353:279|351:324,1,90,8|0,0:0|0:0,0:0:0:0:
173,152,276863,2,0,P|209:178|252:188,1,90
407,88,277113,2,0,P|366:106|336:138,1,90
248,336,277363,5,8,0:0:0:0:
158,237,277488,1,0,0:0:0:0:
117,366,277613,1,2,0:0:0:0:
26,234,277738,5,2,0:0:0:0:
96,289,277863,1,2,0:0:0:0:
17,326,277988,1,2,0:0:0:0:
248,336,278113,5,8,0:0:0:0:
248,336,279113,2,0,P|252:303|240:270,1,67.5000025749208,2|0,0:0|0:0,0:0:0:0:
184,147,279363,2,0,P|164:121|133:106,1,67.5000025749208,2|0,0:0|0:0,0:0:0:0:
27,75,279550,1,0,0:0:0:0:
27,75,279613,5,8,0:0:0:0:
27,75,280363,2,0,L|23:148,1,67.5000025749208,2|0,0:0|0:0,0:0:0:0:
135,218,280613,2,0,L|131:150,1,67.5000025749208,2|0,0:0|0:0,0:0:0:0:
36,248,280863,1,2,0:0:0:0:
35,265,280925,1,0,0:0:0:0:
34,282,280988,1,0,0:0:0:0:
33,299,281050,1,0,0:0:0:0:
32,316,281113,6,0,L|91:334,2,45.0000017166138,8|0|0,0:0|0:0|0:0,0:0:0:0:
144,293,281363,2,0,L|203:311,2,45.0000017166138,8|0|0,0:0|0:0|0:0,0:0:0:0:
256,270,281613,2,0,L|315:288,2,45.0000017166138,8|0|0,0:0|0:0|0:0,0:0:0:0:
368,247,281863,2,0,L|427:265,2,45.0000017166138,8|0|0,0:0|0:0|0:0,0:0:0:0:
300,180,282113,6,0,P|302:147|310:114,1,67.5000025749208,8|0,0:0|0:0,0:0:0:0:
449,41,282363,2,0,P|419:56|386:65,1,67.5000025749208,8|0,0:0|0:0,0:0:0:0:
302,30,282613,5,12,0:0:0:0:
116,154,282738,5,2,0:0:0:0:
116,154,282988,1,2,0:0:0:0:
393,352,283238,5,8,0:0:0:0:
378,157,283363,1,4,0:0:0:0:
191,260,283488,5,2,0:0:0:0:
191,260,283738,1,2,0:0:0:0:
191,260,284654,6,0,P|234:253|269:225,1,90.0000034332277,2|0,0:0|0:0,0:0:0:0:
269,225,284863,6,0,L|274:324,1,90,2|0,0:0|0:0,0:0:0:0:
351,360,285371,1,0,0:0:0:0:
407,289,285625,2,0,L|402:190,1,90,2|0,0:0|0:0,0:0:0:0:
325,154,286133,1,0,0:0:0:0:
325,154,286388,1,2,0:0:0:0:
80,96,287278,6,0,B|128:112|176:80|176:80|224:112|265:98,1,195
264,98,287913,6,0,P|280:138|276:188,1,90,2|0,0:0|0:0,0:0:0:0:
228,259,288400,1,0,0:0:0:0:
138,245,288644,2,0,P|122:205|126:155,1,90,2|0,0:0|0:0,0:0:0:0:
174,84,289131,1,0,0:0:0:0:
174,84,289376,1,2,0:0:0:0:
391,205,290456,6,0,L|396:273,2,67.5
339,106,290931,6,0,P|291:102|255:80,1,90,2|0,0:0|0:0,0:0:0:0:
190,29,291392,1,0,0:0:0:0:
179,111,291623,2,0,P|175:158|153:194,1,90,2|0,0:0|0:0,0:0:0:0:
79,246,292123,1,0,0:0:0:0:
190,303,292289,6,0,L|184:366,2,60
157,367,292873,6,0,L|167:268,1,90,2|0,0:0|0:0,0:0:0:0:
246,237,293435,1,0,0:0:0:0:
246,237,293498,6,0,L|248:296,2,56.25
241,162,293873,6,0,P|232:112|245:72,1,90,2|0,0:0|0:0,0:0:0:0:
334,29,294373,2,0,P|345:72|336:115,1,90,2|0,0:0|0:0,0:0:0:0:
406,172,294873,1,0,0:0:0:0:
480,81,295216,6,0,L|480:111,3,22.5
270,322,295873,5,2,0:0:0:0:
316,194,296123,1,0,0:0:0:0:
137,220,296373,1,2,0:0:0:0:
202,40,296623,1,0,0:0:0:0:
270,322,296873,6,0,P|308:343|353:346,1,90,6|0,0:0|0:0,0:0:0:0:
441,328,297373,1,0,0:0:0:0:
452,238,297623,2,0,P|413:216|368:213,1,90,2|0,0:0|0:0,0:0:0:0:
281,232,298123,5,0,0:0:0:0:
197,241,298248,2,0,B|212:256|212:287|196:303|164:303|148:287|148:256|164:240|164:240|101:271|69:240|69:240|85:192|53:160|53:160|101:176|117:145|117:145|140:160|164:145|164:145|180:176|218:163,1,510
277,103,299748,1,0,0:0:0:0:
302,179,299873,6,0,P|309:223|331:261,2,90,2|0|0,0:0|0:0|0:0,0:0:0:0:
420,85,300623,2,0,P|412:129|390:167,1,90,2|0,0:0|0:0,0:0:0:0:
411,246,301091,6,0,B|475:262|475:326|475:326|443:342|443:342|419:326|395:342|395:342|363:310|363:310|323:318|323:318|291:294|291:294|315:262|315:230|291:198|291:198|331:222|331:222|299:174,1,528.75
203,117,302623,6,0,P|192:149|195:183,1,67.5
194,182,302873,6,0,P|212:222|212:267,1,90,2|0,0:0|0:0,0:0:0:0:
163,343,303381,1,0,0:0:0:0:
252,343,303635,2,0,P|292:361|337:359,1,90,2|0,0:0|0:0,0:0:0:0:
389,286,304143,5,0,0:0:0:0:
389,286,304207,2,0,B|437:281|437:281|479:286,1,90
441,162,304656,6,0,L|421:203,2,45,2|0|0,0:0|0:0|0:0,0:0:0:0:
456,57,305113,2,0,L|416:79,2,45,2|0|2,0:0|0:0|0:0,0:0:0:0:
314,12,305634,6,0,L|353:18,2,22.5
288,23,305872,6,0,L|284:68,1,45
189,126,306354,6,0,P|236:128|281:147,1,90,2|0,0:0|0:0,0:0:0:0:
349,192,306862,1,0,0:0:0:0:
275,240,307116,2,0,P|233:255|189:258,1,90,2|0,0:0|0:0,0:0:0:0:
112,311,307625,6,0,L|99:354,1,45,2|0,0:0|0:0,0:0:0:0:
29,243,307865,2,0,L|41:286,1,45,2|0,0:0|0:0,0:0:0:0:
124,172,308105,2,0,L|111:215,1,45,2|0,0:0|0:0,0:0:0:0:
36,61,308345,2,0,L|48:104,1,45,2|0,0:0|0:0,0:0:0:0:
204,115,308585,6,0,P|272:115|321:93,1,112.5,2|0,0:0|0:0,0:0:0:0:
312,98,308945,5,2,2:0:0:0:
