osu file format v9

[General]
AudioFilename: audio.mp3
AudioLeadIn: 1500
PreviewTime: 24520
Countdown: 1
SampleSet: Normal
StackLeniency: 0.7
Mode: 1
LetterboxInBreaks: 0

[Editor]
Bookmarks: 8662,24530,40398,56266,64200,72133,88001,103869,104268,119737,135560,135605,151472,167340,183208,-500
DistanceSpacing: 0.9
BeatDivisor: 4
GridSize: 4

[Metadata]
Title:City Boy
Artist:Donkeyboy
Creator:MathiasXII
Version:Taiko Challenging
Source:
Tags:Silver Moon Xgor Faust

[Difficulty]
HPDrainRate:5
CircleSize:5
OverallDifficulty:5
ApproachRate:5
SliderMultiplier:1.4
SliderTickRate:2

[Events]
//Background and Video events
0,0,"bg.jpg"
Video,-3280,"Donkeyboy - City Boy (Official video).avi"
//Break Periods
//Storyboard Layer 0 (Background)
//Storyboard Layer 1 (Fail)
//Storyboard Layer 2 (Pass)
//Storyboard Layer 3 (Foreground)
//Storyboard Sound Samples
//Background Colour Transformations
3,100,163,162,255

[TimingPoints]
718,495.867768595041,4,1,0,75,1,0
24519,-100,4,1,0,75,0,0
38403,-100,4,1,0,75,0,0
40387,-100,4,1,0,75,0,1
56255,-100,4,1,0,75,0,0
72122,-100,4,1,0,75,0,0
86007,-100,4,1,0,75,0,0
87991,-100,4,1,0,75,0,1
103858,-100,4,1,0,75,0,0
135594,-100,4,1,0,75,0,1
183197,-100,4,1,0,75,0,0

[HitObjects]
200,172,222,2,0,B|328:256,1,140
260,184,1089,1,0
200,208,1213,1,8
260,184,1461,1,0
376,140,1957,1,0
424,180,2205,1,0
440,240,2453,1,8
440,240,2577,1,8
260,184,2701,5,0
260,184,3073,1,0
200,208,3197,1,8
260,184,3445,1,0
376,140,3941,1,0
424,180,4189,1,8
440,240,4313,1,0
440,240,4437,1,0
260,184,4684,5,0
260,184,5056,1,0
200,208,5180,1,8
260,184,5428,1,0
376,140,5924,1,0
424,180,6172,1,0
440,240,6420,1,8
440,240,6544,1,8
260,184,6668,5,0
200,208,7040,1,0
232,204,7164,1,8
260,184,7412,1,0
376,140,7908,5,8
440,240,8032,1,8
424,180,8156,1,0
400,200,8279,1,0
440,240,8403,1,0
256,192,8651,5,0
256,192,9023,1,0
256,192,9147,1,8
256,192,9395,1,0
256,192,9643,1,0
256,192,9891,1,0
256,192,10139,1,8
256,192,10263,1,8
256,192,10387,1,0
256,192,10635,5,0
256,192,11007,1,0
256,192,11131,1,8
256,192,11379,1,0
256,192,11627,1,0
256,192,11875,1,0
256,192,12122,1,8
256,192,12246,1,0
256,192,12370,1,8
256,192,12618,5,0
256,192,12990,1,0
256,192,13114,1,8
256,192,13362,1,0
256,192,13610,1,0
256,192,13858,1,0
256,192,14106,1,8
256,192,14354,1,0
256,192,14478,1,8
256,192,14602,5,0
256,192,14974,1,0
256,192,15098,1,8
256,192,15346,1,0
256,192,15594,1,0
256,192,15841,1,8
196,208,16089,2,0,B|344:252,1,140
256,192,16957,5,0
256,192,17081,1,8
256,192,17329,1,0
256,192,17577,1,0
256,192,17825,1,0
256,192,18073,1,8
256,192,18321,1,8
256,192,18445,1,8
256,192,18569,5,0
256,192,18941,1,0
256,192,19065,1,8
256,192,19313,1,0
256,192,19560,1,0
256,192,19808,1,0
256,192,20056,1,8
256,192,20180,1,0
256,192,20304,1,8
256,192,20552,5,0
256,192,20924,1,0
256,192,21048,1,8
256,192,21296,1,0
256,192,21544,1,0
256,192,21792,1,8
256,192,22040,1,8
256,192,22288,1,8
288,196,22412,1,8
256,192,22536,5,0
256,192,22908,1,0
256,192,23032,1,8
256,192,23279,1,0
256,192,23527,1,0
192,196,23775,1,8
192,196,23899,1,8
256,192,24271,1,8
256,192,24395,1,8
256,192,24519,5,0
344,164,24891,1,0
344,164,25015,1,8
380,216,25263,1,0
328,248,25511,1,8
264,244,25759,1,0
200,248,26007,1,8
144,224,26255,1,8
176,220,26379,1,8
256,192,26503,5,0
344,164,26875,1,0
344,164,26998,1,8
380,216,27246,1,0
328,248,27494,1,12
264,244,27742,1,0
200,248,27990,1,8
144,224,28238,1,0
256,192,28486,5,4
344,164,28858,1,0
344,164,28982,1,8
380,216,29230,1,0
328,248,29478,1,8
264,244,29726,1,0
200,248,29974,1,8
144,224,30222,1,8
176,220,30346,1,8
256,192,30470,5,0
344,164,30841,1,0
344,164,30965,1,8
380,216,31213,1,0
328,248,31461,1,12
264,244,31709,1,8
200,248,31957,1,0
144,224,32205,1,0
256,192,32453,5,4
344,164,32825,1,0
344,164,32949,1,8
380,216,33197,1,0
328,248,33445,1,8
264,244,33693,1,0
200,248,33941,1,8
144,224,34189,1,8
176,220,34313,1,8
256,192,34437,5,0
344,164,34808,1,0
344,164,34932,1,8
380,216,35180,1,0
328,248,35428,1,12
264,244,35676,1,0
200,248,35924,1,8
144,224,36172,1,0
256,192,36420,5,4
344,164,36792,1,0
344,164,36916,1,8
380,216,37164,1,0
328,248,37412,1,8
264,244,37660,1,0
200,248,37908,1,8
140,228,38156,1,0
256,192,38403,12,0,40139
256,192,40387,5,4
256,192,40759,1,0
256,192,40883,1,8
256,192,41131,1,0
256,192,41379,1,8
256,192,41627,1,4
256,192,41875,1,8
256,192,42122,1,4
256,192,42370,5,0
256,192,42742,1,0
256,192,42866,1,8
256,192,43114,1,0
256,192,43362,1,8
256,192,43610,1,12
256,192,43858,1,8
256,192,44106,1,0
256,192,44354,5,4
256,192,44726,1,0
256,192,44850,1,8
256,192,45098,1,0
256,192,45346,1,8
256,192,45594,1,4
256,192,45841,1,8
256,192,46089,1,4
256,192,46337,5,0
256,192,46709,1,0
256,192,46833,1,8
256,192,47081,1,0
256,192,47329,1,8
256,192,47577,1,0
256,192,47701,1,0
256,192,47825,1,8
256,192,48073,1,0
256,192,48321,5,4
256,192,48693,1,0
256,192,48817,1,8
256,192,49065,1,0
256,192,49313,1,8
256,192,49560,1,4
256,192,49808,1,8
256,192,50056,1,4
256,192,50304,5,0
256,192,50676,1,0
256,192,50800,1,8
256,192,51048,1,0
256,192,51296,1,8
256,192,51544,1,12
256,192,51792,1,8
256,192,52040,1,0
256,192,52288,5,4
256,192,52660,1,0
256,192,52784,1,8
256,192,53032,1,0
256,192,53279,1,8
256,192,53527,1,4
256,192,53775,1,8
256,192,54023,1,4
256,192,54271,5,0
256,192,54643,1,0
256,192,54767,1,8
256,192,55015,1,0
256,192,55263,1,8
256,192,55511,1,0
256,192,55635,1,0
256,192,55759,1,8
256,192,56007,1,8
256,192,56131,1,8
256,192,56255,5,0
256,192,56627,1,8
256,192,56751,1,0
256,192,56998,1,8
256,192,57246,1,0
256,192,57494,1,8
256,192,57742,1,0
256,192,57866,1,8
256,192,57990,1,0
256,192,58238,5,0
256,192,58610,1,8
256,192,58734,1,0
256,192,58982,1,8
256,192,59230,1,0
256,192,59478,1,8
256,192,59726,1,0
256,192,59850,1,0
256,192,59974,1,8
256,192,60098,1,8
256,192,60222,5,0
256,192,60594,1,8
256,192,60718,1,0
256,192,60965,1,8
256,192,61213,1,0
256,192,61461,1,8
256,192,61709,1,0
256,192,61833,1,0
256,192,61957,1,8
256,192,62205,5,0
256,192,62577,1,8
256,192,62701,1,0
256,192,62949,1,8
256,192,63197,1,0
256,192,63445,1,8
124,196,63693,6,0,B|272:272,1,140
256,192,64560,1,8
256,192,64684,1,0
256,192,64932,1,8
256,192,65180,1,0
256,192,65428,1,8
256,192,65676,1,0
256,192,65800,1,8
256,192,65924,1,0
256,192,66172,5,0
256,192,66544,1,8
256,192,66668,1,0
256,192,66916,1,8
256,192,67164,1,0
256,192,67412,1,8
256,192,67660,1,0
256,192,67784,1,0
256,192,67908,1,8
256,192,68032,1,8
256,192,68156,5,0
256,192,68527,1,8
256,192,68651,1,0
256,192,68899,1,8
256,192,69147,1,0
256,192,69395,1,8
256,192,69643,1,0
256,192,69767,1,0
256,192,69891,1,8
256,192,70139,1,0
256,192,70387,12,0,71875
256,192,72122,5,0
344,164,72494,1,8
344,164,72618,1,0
380,216,72866,1,8
328,248,73114,1,0
264,244,73362,1,8
200,248,73610,1,0
144,224,73858,1,8
176,220,73982,1,8
256,192,74106,5,0
344,164,74478,1,8
344,164,74602,1,0
380,216,74850,1,8
328,248,75098,1,12
264,244,75346,1,0
200,248,75594,1,8
144,224,75841,1,0
256,192,76089,5,4
344,164,76461,1,8
344,164,76585,1,0
380,216,76833,1,8
328,248,77081,1,0
264,244,77329,1,8
200,248,77577,1,0
144,224,77825,1,8
176,220,77949,1,8
256,192,78073,5,0
344,164,78445,1,8
344,164,78569,1,8
380,216,78817,1,0
328,248,79065,1,12
264,244,79313,1,12
200,248,79560,1,12
144,224,79808,1,8
144,224,79932,1,8
256,192,80056,5,0
344,164,80428,1,8
344,164,80552,1,0
380,216,80800,1,8
328,248,81048,1,0
264,244,81296,1,8
200,248,81544,1,0
144,224,81792,1,8
176,220,81916,1,8
256,192,82040,5,0
344,164,82412,1,8
344,164,82536,1,0
380,216,82784,1,8
328,248,83032,1,12
264,244,83279,1,0
200,248,83527,1,8
144,224,83775,1,0
256,192,84023,5,4
344,164,84395,1,8
344,164,84519,1,0
380,216,84767,1,8
328,248,85015,1,0
264,244,85263,1,8
200,248,85511,1,8
256,192,85759,12,0,87246
168,144,87494,6,0,B|244:280,1,140
256,192,88362,1,8
256,192,88486,1,0
256,192,88734,1,8
256,192,88982,1,0
256,192,89230,1,4
256,192,89478,1,8
256,192,89726,1,4
256,192,89974,5,0
256,192,90346,1,8
256,192,90470,1,0
256,192,90718,1,8
256,192,90965,1,8
256,192,91213,1,12
256,192,91461,1,8
256,192,91709,1,0
256,192,91957,5,4
256,192,92329,1,8
256,192,92453,1,0
256,192,92701,1,8
256,192,92949,1,0
256,192,93197,1,4
256,192,93445,1,8
256,192,93693,1,4
256,192,93941,5,0
256,192,94313,1,8
256,192,94437,1,8
256,192,94684,1,0
256,192,94932,1,12
256,192,95180,1,12
256,192,95428,1,12
256,192,95676,1,8
256,192,95924,5,4
256,192,96296,1,8
256,192,96420,1,0
256,192,96668,1,8
256,192,96916,1,0
256,192,97164,1,4
256,192,97412,1,8
256,192,97660,1,4
256,192,97908,5,0
256,192,98279,1,8
256,192,98403,1,0
256,192,98651,1,8
256,192,98899,1,0
256,192,99147,1,12
256,192,99395,1,8
256,192,99643,1,0
256,192,99891,5,4
256,192,100263,1,8
256,192,100387,1,0
256,192,100635,1,8
256,192,100883,1,0
256,192,101131,1,4
256,192,101379,1,8
256,192,101627,1,4
256,192,101875,5,0
256,192,102246,1,8
256,192,102370,1,0
256,192,102618,1,8
256,192,102866,1,0
256,192,103114,1,0
256,192,103238,1,0
256,192,103362,1,8
256,192,103610,1,0
256,192,103858,5,4
256,192,104106,1,0
256,192,104230,1,8
256,192,104478,1,0
256,192,104602,1,8
256,192,104850,1,0
256,192,105098,1,8
256,192,105346,1,0
256,192,105594,1,8
256,192,105841,5,4
256,192,106089,1,0
256,192,106213,1,8
256,192,106461,1,0
256,192,106585,1,8
256,192,106833,1,12
256,192,107081,1,8
256,192,107329,1,0
256,192,107577,1,8
60,160,107825,5,0
60,160,108073,1,0
60,160,108197,1,8
60,160,108445,1,0
60,160,108569,1,8
60,160,108817,1,0
60,160,109065,1,12
60,160,109313,1,0
60,160,109560,1,8
60,160,109808,5,0
60,160,110056,1,0
60,160,110180,1,8
60,160,110428,1,0
60,160,110552,1,8
60,160,110800,1,8
60,160,111048,1,0
60,160,111296,1,8
60,160,111544,1,8
256,192,111792,5,4
256,192,112040,1,0
256,192,112164,1,8
256,192,112412,1,0
256,192,112536,1,8
256,192,112784,1,0
256,192,113032,1,8
256,192,113279,1,0
256,192,113527,1,8
256,192,113775,5,4
256,192,114023,1,0
256,192,114147,1,8
256,192,114395,1,0
256,192,114519,1,8
256,192,114767,1,12
256,192,115015,1,8
256,192,115263,1,0
256,192,115511,1,8
60,160,115759,5,0
60,160,116007,1,0
60,160,116131,1,8
60,160,116379,1,0
60,160,116503,1,8
60,160,116751,1,0
60,160,116998,1,8
60,160,117246,1,0
60,160,117494,1,8
60,160,117742,5,0
60,160,117990,1,0
60,160,118114,1,8
60,160,118362,1,0
60,160,118486,1,8
60,160,118734,1,0
60,160,118982,1,8
60,160,119106,1,8
60,160,119230,1,0
60,160,119478,1,8
256,192,119726,5,4
256,192,119974,1,0
256,192,120222,1,0
256,192,120470,1,0
256,192,120718,1,0
256,192,120965,1,8
256,192,121213,1,0
256,192,121461,1,8
256,192,121709,5,0
256,192,121957,1,0
256,192,122205,1,8
256,192,122453,1,0
256,192,122701,1,8
256,192,122949,1,8
256,192,123197,1,0
256,192,123445,1,8
256,192,123693,5,0
256,192,123941,1,0
256,192,124065,1,8
256,192,124313,1,8
256,192,124437,1,8
256,192,124684,1,0
256,192,124932,1,0
256,192,125056,1,8
256,192,125304,1,8
256,192,125428,1,8
256,192,125676,12,0,127412
256,192,127660,5,4
256,192,127908,1,0
256,192,128156,1,0
256,192,128403,1,0
256,192,128651,1,0
256,192,128899,1,8
256,192,129147,1,0
256,192,129395,1,8
256,192,129643,5,0
256,192,129891,1,0
256,192,130139,1,8
256,192,130387,1,0
256,192,130635,1,8
256,192,130883,1,8
256,192,131131,1,0
256,192,131379,1,8
256,192,131627,5,0
256,192,131875,1,0
256,192,131998,1,8
256,192,132246,1,8
256,192,132370,1,8
256,192,132618,1,0
256,192,132866,1,0
256,192,132990,1,8
256,192,133238,1,8
256,192,133362,1,8
156,172,135098,6,0,B|312:176,1,140
268,176,135841,1,0
268,176,135965,1,0
268,176,136089,1,8
268,176,136337,1,0
268,176,136585,1,0
268,176,136833,1,8
268,176,137081,1,0
268,176,137205,1,0
268,176,137329,1,8
268,176,137577,5,0
268,176,137825,1,0
268,176,137949,1,0
268,176,138073,1,8
268,176,138321,1,0
268,176,138569,1,8
268,176,138817,1,0
268,176,138941,1,8
268,176,139065,1,8
268,176,139313,1,8
268,176,139560,5,4
268,176,139808,1,0
268,176,139932,1,0
268,176,140056,1,8
268,176,140304,1,0
268,176,140552,1,0
268,176,140800,1,8
268,176,141048,1,0
268,176,141172,1,0
268,176,141296,1,8
268,176,141544,5,0
268,176,141792,1,0
268,176,141916,1,0
268,176,142040,1,8
268,176,142288,1,0
268,176,142536,1,12
268,176,142784,1,8
268,176,142908,1,8
268,176,143032,1,0
268,176,143156,1,0
268,176,143279,1,8
268,176,143527,5,4
268,176,143775,1,0
268,176,143899,1,0
268,176,144023,1,8
268,176,144271,1,0
268,176,144519,1,0
268,176,144767,1,8
268,176,145015,1,0
268,176,145139,1,0
268,176,145263,1,8
268,176,145511,5,0
268,176,145759,1,0
268,176,145883,1,0
268,176,146007,1,8
268,176,146255,1,0
268,176,146503,1,8
268,176,146751,1,0
268,176,146875,1,8
268,176,146998,1,8
268,176,147246,1,8
268,176,147494,5,4
268,176,147742,1,0
268,176,147866,1,0
268,176,147990,1,8
268,176,148238,1,0
268,176,148486,1,0
268,176,148734,1,8
268,176,148982,1,0
268,176,149106,1,0
268,176,149230,1,8
268,176,149478,5,0
268,176,149726,1,0
268,176,149850,1,0
268,176,149974,1,8
268,176,150222,1,0
256,192,150470,12,0,151213
268,176,151461,5,4
268,176,151709,1,0
268,176,151833,1,0
268,176,151957,1,8
268,176,152205,1,0
268,176,152453,1,0
268,176,152701,1,8
268,176,152949,1,0
268,176,153073,1,0
268,176,153197,1,8
268,176,153445,5,0
268,176,153693,1,0
268,176,153817,1,0
268,176,153941,1,8
268,176,154189,1,0
268,176,154437,1,8
268,176,154684,1,0
268,176,154808,1,8
268,176,154932,1,8
268,176,155180,1,8
268,176,155428,5,0
268,176,155676,1,0
268,176,155800,1,0
268,176,155924,1,8
268,176,156172,1,8
268,176,156420,1,0
268,176,156668,1,0
268,176,156792,1,0
268,176,156916,1,8
268,176,157164,1,8
268,176,157412,5,0
268,176,157660,1,8
268,176,157908,1,8
268,176,158156,1,0
268,176,158403,1,8
268,176,158527,1,0
268,176,158651,1,0
268,176,158775,1,8
268,176,158899,1,8
268,176,159147,1,8
268,176,159395,5,4
268,176,159643,1,0
268,176,159767,1,0
268,176,159891,1,8
268,176,160139,1,0
268,176,160387,1,0
268,176,160635,1,8
268,176,160883,1,0
268,176,161007,1,0
268,176,161131,1,8
268,176,161379,5,0
268,176,161627,1,0
268,176,161751,1,0
268,176,161875,1,8
268,176,162122,1,0
268,176,162370,1,8
268,176,162618,1,0
268,176,162742,1,8
268,176,162866,1,8
268,176,163114,1,8
268,176,163362,5,4
268,176,163610,1,0
268,176,163734,1,0
268,176,163858,1,8
268,176,164106,1,8
268,176,164354,1,0
268,176,164602,1,0
268,176,164726,1,0
268,176,164850,1,8
268,176,165098,1,8
268,176,165346,5,0
268,176,165594,1,0
268,176,165841,1,8
268,176,166089,1,8
268,176,166337,1,0
268,176,166461,1,0
268,176,166585,1,8
160,196,166833,6,0,B|304:252,1,140
200,88,167701,1,0
200,88,167825,1,8
200,88,168073,1,0
200,88,168321,1,0
200,88,168445,1,0
200,88,168569,1,8
200,88,168817,1,0
200,88,168941,1,0
200,88,169065,1,8
200,88,169313,5,0
200,88,169684,1,0
200,88,169808,1,8
200,88,170056,1,0
200,88,170304,1,8
200,88,170428,1,0
200,88,170552,1,0
200,88,170800,1,8
200,88,171048,1,12
128,232,171296,5,4
128,232,171668,1,0
128,232,171792,1,8
128,232,172040,1,8
128,232,172288,1,0
128,232,172536,1,12
128,232,172784,1,0
128,232,173032,1,12
128,232,173279,5,0
128,232,173651,1,0
128,232,173775,1,8
128,232,174023,1,8
128,232,174271,1,8
128,232,174519,1,0
128,232,174767,1,8
128,232,175015,1,0
200,88,175263,5,4
200,88,175635,1,0
200,88,175759,1,8
200,88,176007,1,0
200,88,176255,1,0
200,88,176379,1,0
200,88,176503,1,8
200,88,176751,1,0
200,88,176875,1,0
200,88,176998,1,8
200,88,177246,5,0
200,88,177618,1,0
200,88,177742,1,8
200,88,177990,1,0
200,88,178238,1,8
200,88,178362,1,0
200,88,178486,1,0
200,88,178734,1,8
200,88,178982,1,12
128,232,179230,5,4
128,232,179602,1,0
128,232,179726,1,8
128,232,179974,1,8
128,232,180222,1,0
128,232,180470,1,12
128,232,180717,1,0
128,232,180965,1,12
128,232,181213,5,0
128,232,181585,1,0
128,232,181709,1,8
128,232,181957,1,8
128,232,182205,1,8
128,232,182453,1,0
128,232,182701,1,8
128,232,182949,1,0
128,232,183197,1,4
