osu file format v5

[General]
AudioFilename: Donkey_Kong_Song_6__The_Mirror_Never_Lies.mp3
AudioLeadIn: 0
PreviewTime: 30261
Countdown: 0
SampleSet: Normal
StackLeniency: 0.7
Mode: 0
LetterboxInBreaks: 1
EditorBookmarks: 29120,36422,40442,55628,65677,73213

[Metadata]
Title:The Mirror Never Lies
Artist:Donkey Kong Country
Creator:Behonkiss
Version:Normal
Source:
Tags:

[Difficulty]
HPDrainRate:5
CircleSize:5
OverallDifficulty:5
SliderMultiplier:1.4
SliderTickRate:2

[Events]
//Background and Video events
0,0,"mirror.jpg"
1,1,"dk.avi"
//Break Periods
//Storyboard Layer 0 (Background)
//Storyboard Layer 1 (Failing)
//Storyboard Layer 2 (Passing)
//Storyboard Layer 3 (Foreground)
//Storyboard Sound Samples
//Background Colour Transformations
3,100,163,162,255

[TimingPoints]
9456,457.04,4,1,0,100,1

[HitObjects]
376,296,15854,1,4
264,296,16311,2,0,B|104:296,1,140
48,208,17225,1,2
56,96,17682,1,2
152,32,18139,2,0,B|448:32,1,280
472,136,19510,1,8
400,224,19967,5,0
400,224,20196,1,0
400,224,20424,2,2,B|328:278|256:208,2,140
408,336,21796,1,4
296,336,22253,5,0
296,336,22481,1,0
296,336,22710,1,0
184,336,23167,1,0
72,336,23624,2,2,B|72:184,3,140
72,80,25452,5,0
184,80,25909,1,0
184,192,26366,1,8
184,304,26823,1,8
256,224,27280,2,0,B|358:388|480:216,2,280,4|0|4
48,304,30479,6,0,B|123:256|192:320,1,140
232,312,31165,1,2
288,312,31393,2,0,B|352:272|440:328,1,140
480,320,32079,1,2
352,208,32765,2,0,B|176:80,1,210
160,32,33679,2,2,B|328:32,1,140
408,48,34593,5,0
408,48,34821,1,0
408,48,35050,2,2,B|392:240|96:328,1,420,2|6
32,176,37106,1,0
32,120,37335,2,8,B|160:48,1,140
264,32,38249,1,0
376,32,38706,2,0,B|450:349|40:272,1,525,0|4
400,192,41905,5,0
400,192,42134,1,0
400,192,42362,1,2
400,192,42591,1,2
120,192,43734,1,0
120,192,43962,1,0
120,192,44191,1,2
120,192,44419,1,2
16,56,45105,2,2,B|88:8|144:64,2,140
352,48,47390,5,0
464,48,47847,1,0
464,160,48304,1,8
352,160,48761,1,8
256,216,49218,2,2,B|256:360,1,140
24,112,51046,6,0,B|-82:50|40:24,1,140
136,16,51960,2,0,B|209:-48|280:32,1,140
368,56,52874,1,2
480,56,53331,2,2,B|334:199|512:384,2,350,2|2|6
480,168,56074,5,0
480,280,56531,1,2
480,280,56759,1,2
320,336,57445,1,2
320,336,57673,1,2
152,336,58359,1,2
152,336,58587,1,2
152,336,58816,1,2
40,336,59273,2,8,B|40:176,1,140
40,80,60187,5,0
40,80,60415,1,0
40,80,60644,2,2,B|192:80,2,140
320,80,62701,5,0
376,80,62929,2,0,B|376:160,2,70
472,144,63843,2,0,B|349:439|0:280,1,560,0|4
392,64,67500,5,2
392,64,67728,1,2
224,64,68414,1,2
224,64,68642,1,2
56,64,69328,1,2
56,64,69556,1,2
56,64,69785,1,2
56,176,70242,2,8,B|56:336,1,140
168,328,71156,6,2,B|256:352|328:320,4,140
128,280,73213,1,4
160,168,73670,1,0
160,168,73898,2,8,B|328:168,1,140
400,112,74812,1,0
400,112,75041,1,0
352,80,75269,2,2,B|272:48|184:88,3,140
256,192,77097,12,4,78467
