osu file format v5

[General]
AudioFilename: Donkey_Kong_Song_6__The_Mirror_Never_Lies.mp3
AudioLeadIn: 0
PreviewTime: 30261
Countdown: 0
SampleSet: Normal
StackLeniency: 0.7
Mode: 0
LetterboxInBreaks: 1
EditorBookmarks: 17941,29120,36422,40442,55628,62045,65677,73213

[Metadata]
Title:The Mirror Never Lies
Artist:Donkey Kong Country
Creator:Behonkiss
Version:Easy
Source:
Tags:

[Difficulty]
HPDrainRate:3
CircleSize:4
OverallDifficulty:3
SliderMultiplier:1
SliderTickRate:2

[Events]
//Background and Video events
0,0,"mirror.jpg"
1,1,"dk.avi"
//Break Periods
//Storyboard Layer 0 (Background)
//Storyboard Layer 1 (Failing)
//Storyboard Layer 2 (Passing)
//Storyboard Layer 3 (Foreground)
//Storyboard Sound Samples
//Background Colour Transformations
3,100,163,162,255

[TimingPoints]
9456,457.04,4,1,0,100,1

[HitObjects]
80,104,15854,1,4
160,104,16311,1,0
240,104,16768,2,0,B|464:104,1,200,0|2
440,184,18139,5,8
440,264,18596,1,8
440,344,19053,2,2,B|232:344,1,200
160,344,20424,2,0,B|38:325|32:192,1,200
32,128,21796,1,4
112,128,22253,5,0
192,128,22710,1,2
272,128,23167,1,2
272,48,23624,2,0,B|392:48|384:256,1,250,0|8
272,288,25452,5,0
352,288,25909,1,0
432,288,26366,1,2
472,216,26823,1,2
472,136,27280,2,6,B|346:6|88:32,1,400
40,184,30936,5,2
144,304,31850,1,2
304,304,32765,1,0
384,304,33222,1,0
464,304,33679,2,8,B|464:192,1,100
464,120,34593,5,0
416,56,35050,2,2,B|96:56,1,300,0|4
48,200,37335,6,0,B|160:200,1,100
224,200,38249,1,0
224,280,38706,2,0,B|448:288|440:32,1,375,0|4
184,96,41905,6,2,B|16:96,1,150
56,296,43734,1,2
176,296,44419,1,2
296,296,45105,2,8,B|346:258|400:304,4,100
256,224,47390,5,0
256,64,48304,1,2
256,64,48761,1,2
336,64,49218,2,8,B|456:64,1,100
232,192,51046,5,2
176,136,51503,1,0
96,136,51960,1,2
32,192,52417,1,0
112,216,52874,5,0
56,280,53331,2,2,B|368:350|424:40,1,500,2|6
464,200,56531,5,2
352,312,57445,1,2
192,312,58359,1,2
64,216,59273,1,8
64,136,59730,1,8
88,56,60187,5,0
168,56,60644,2,2,B|432:56,1,250
400,256,62929,6,8,B|336:256,2,50
400,336,63843,1,0
400,336,64300,2,0,B|80:336,1,300,0|4
72,16,67500,5,2
224,72,68414,1,2
368,144,69328,2,0,B|224:296,1,200,0|8
296,336,70699,1,8
216,336,71156,6,0,B|96:320|80:101|239:47|383:180|208:256,1,450,0|4
352,240,73898,5,0
432,240,74355,1,0
432,160,74812,2,0,B|264:-48|88:176,1,400,0|8
256,192,77097,12,4,78467
