osu file format v14

[General]
AudioFilename: StillYou.mp3
AudioLeadIn: 0
PreviewTime: 178462
Countdown: 0
SampleSet: Soft
StackLeniency: 0.7
Mode: 0
LetterboxInBreaks: 0
WidescreenStoryboard: 0

[Editor]
DistanceSpacing: 1
BeatDivisor: 4
GridSize: 4
TimelineZoom: 1

[Metadata]
Title:Ajigtto Nan (Still You)
TitleUnicode:아직도 난 (Still You)
Artist:Donghae & Eunhyuk
ArtistUnicode:동해&은혁
Creator:Gray Veyron
Version:Normal
Source:
Tags:D&E ballad Super Junior SJ SuJu 슈퍼주니어 KT뮤직 SM엔터테인먼트 S.M.Entertainment KT MUSIC Single Album
BeatmapID:703062
BeatmapSetID:315307

[Difficulty]
HPDrainRate:3
CircleSize:4
OverallDifficulty:2.5
ApproachRate:4.5
SliderMultiplier:1.4
SliderTickRate:1

[Events]
//Background and Video events
0,0,"BG.png",0,0
Video,-60,"Dino&MirageMV.avi"
//Break Periods
2,125128,137202
2,196440,208313
//Storyboard Layer 0 (Background)
//Storyboard Layer 1 (Fail)
//Storyboard Layer 2 (Pass)
//Storyboard Layer 3 (Foreground)
//Storyboard Sound Samples

[TimingPoints]
36240,555.555555555556,4,2,1,50,1,0
116240,-100,4,2,1,70,0,1
122906,-100,4,2,1,50,0,0
178462,-100,4,2,1,70,0,1
196240,-100,4,2,1,40,0,0
231795,-100,4,2,1,70,0,1
249572,566.037735849057,4,2,1,20,1,0
251786,576.923076923077,4,2,1,20,1,0
253986,566.037735849057,4,2,1,20,1,0
254304,571.428571428571,4,2,1,20,1,0
254593,576.923076923077,4,2,1,20,1,0
254879,600,4,2,1,20,1,0
255779,600,4,2,1,20,1,0
256223,582.52427184466,4,2,1,18,1,0
256513,612.244897959184,4,2,1,16,1,0
256817,606.060606060606,4,2,1,14,1,0
257101,571.428571428571,4,2,1,12,1,0
257667,566.037735849057,4,2,1,10,1,0

[Colours]
Combo1 : 0,0,64
Combo2 : 122,101,27
Combo3 : 145,145,70
Combo4 : 123,62,62
Combo5 : 0,64,64
Combo6 : 64,0,64

[HitObjects]
176,176,62906,6,0,P|112:176|44:216,1,140,4|8,0:0|0:0,0:0:0:0:
8,272,63740,1,0,0:0:0:0:
144,312,64295,1,0,0:0:0:0:
208,280,64573,2,0,L|288:284,1,70,8|0,0:0|0:0,0:0:0:0:
336,244,65128,6,0,P|392:200|424:132,2,140,2|8|2,0:0|0:0|0:0,0:0:0:0:
284,112,66795,1,8,0:0:0:0:
220,84,67073,1,0,0:0:0:0:
148,88,67351,6,0,P|92:132|64:200,1,140,2|8,0:0|0:0,0:0:0:0:
68,264,68184,1,0,0:0:0:0:
208,268,68740,2,0,P|200:312|184:340,2,70,0|8|0,0:0|0:0|0:0,0:0:0:0:
188,200,69573,6,0,L|328:176,1,140,2|8,0:0|0:0,0:0:0:0:
424,76,70684,1,2,0:0:0:0:
424,76,70962,2,0,P|448:104|460:144,2,70,0|8|0,0:0|0:0|0:0,0:0:0:0:
356,56,71795,6,0,L|218:79,1,140,4|8,0:0|0:0,0:0:0:0:
80,100,72906,1,2,0:0:0:0:
56,168,73184,2,0,P|56:208|64:236,1,70,0|8,0:0|0:0,0:0:0:0:
116,284,73740,1,0,0:0:0:0:
116,284,74017,6,0,B|148:296|184:288|184:288|220:280|260:292,1,140,2|8,0:0|0:0,0:0:0:0:
320,316,74851,1,0,0:0:0:0:
388,296,75128,1,2,0:0:0:0:
456,172,75684,2,0,L|380:156,1,70,8|0,0:0|0:0,0:0:0:0:
340,104,76240,6,0,P|340:172|284:220,1,140,2|8,0:0|0:0,0:0:0:0:
152,232,77351,2,0,P|152:164|208:116,1,140,2|8,0:0|0:0,0:0:0:0:
268,92,78184,1,0,0:0:0:0:
340,104,78462,6,0,B|384:128|384:128|376:176|404:224,1,140,2|8,0:0|0:0,0:0:0:0:
484,328,79573,2,0,L|392:320,1,70,2|0,0:0|0:0,0:0:0:0:
344,316,80128,1,8,0:0:0:0:
276,336,80406,1,0,0:0:0:0:
208,316,80684,6,0,P|160:272|152:184,1,140,4|8,0:0|0:0,0:0:0:0:
168,132,81517,1,0,0:0:0:0:
308,148,82073,2,0,P|296:192|272:220,2,70,0|8|0,0:0|0:0|0:0,0:0:0:0:
304,76,82906,6,0,P|356:80|424:136,1,140,2|8,0:0|0:0,0:0:0:0:
448,200,83740,1,0,0:0:0:0:
356,304,84295,2,0,L|276:312,1,70,0|8,0:0|0:0,0:0:0:0:
224,280,84851,1,0,0:0:0:0:
156,304,85128,6,0,P|104:268|104:184,1,140,2|8,0:0|0:0,0:0:0:0:
208,112,86240,2,0,P|260:148|260:232,1,140,2|8,0:0|0:0,0:0:0:0:
224,280,87073,1,0,0:0:0:0:
292,304,87351,6,0,L|364:296,1,70,2|0,0:0|0:0,0:0:0:0:
432,288,87906,1,8,0:0:0:0:
496,164,88462,2,0,L|424:172,1,70,2|0,0:0|0:0,0:0:0:0:
356,180,89017,1,8,0:0:0:0:
304,132,89295,1,0,0:0:0:0:
288,200,89573,6,0,P|252:240|161:240,1,140,4|8,0:0|0:0,0:0:0:0:
108,208,90406,1,0,0:0:0:0:
136,72,90962,2,0,L|216:64,1,70,0|8,0:0|0:0,0:0:0:0:
264,108,91517,1,0,0:0:0:0:
312,56,91795,6,0,L|392:48,2,70,2|0|8,0:0|0:0|0:0,0:0:0:0:
264,108,92628,2,0,P|272:152|216:236,1,140
156,240,93462,1,8,0:0:0:0:
88,256,93740,1,0,0:0:0:0:
88,256,94017,6,0,B|64:296|64:296|88:348|144:348,1,140,2|8,0:0|0:0,0:0:0:0:
208,348,94851,2,0,P|264:316|280:244,1,140
228,200,95684,1,8,0:0:0:0:
88,180,96240,5,2,0:0:0:0:
104,112,96517,2,0,P|123:84|155:67,2,70,0|8|0,0:0|0:0|0:0,0:0:0:0:
172,136,97351,2,0,P|224:148|312:120,1,140,2|8,0:0|0:0,0:0:0:0:
360,80,98184,1,0,0:0:0:0:
388,144,98462,6,0,L|444:288,1,140,4|8,0:0|0:0,0:0:0:0:
320,352,99573,2,0,L|269:221,1,140,2|8,0:0|0:0,0:0:0:0:
240,156,100406,1,0,0:0:0:0:
100,148,100962,6,0,P|104:112|132:72,2,70,0|8|0,0:0|0:0|0:0,0:0:0:0:
164,180,101795,2,0,P|188:216|188:312,1,140,2|8,0:0|0:0,0:0:0:0:
132,352,102628,1,0,0:0:0:0:
132,352,102906,6,0,B|192:332|192:332|272:344,1,140,2|8,0:0|0:0,0:0:0:0:
352,232,104017,2,0,B|292:252|292:252|216:240,1,140,2|8,0:0|0:0,0:0:0:0:
148,228,104851,1,0,0:0:0:0:
44,136,105406,6,0,B|20:164|20:164|8:200,2,70,0|8|0,0:0|0:0|0:0,0:0:0:0:
108,104,106240,2,0,P|160:136|244:128,1,140,2|8,0:0|0:0,0:0:0:0:
300,100,107073,1,0,0:0:0:0:
344,44,107351,5,4,0:0:0:0:
452,132,107906,2,0,P|456:188|396:260,1,140,8|2,0:0|0:0,0:0:0:0:
340,236,108740,1,0,0:0:0:0:
276,268,109017,2,0,L|206:274,1,70,8|0,0:0|0:0,0:0:0:0:
142,306,109573,5,2,0:0:0:0:
152,168,110128,2,0,L|221:161,1,70,8|0,0:0|0:0,0:0:0:0:
292,152,110684,1,2,0:0:0:0:
360,132,110962,2,0,P|390:109|424:105,2,70,0|8|0,0:0|0:0|0:0,0:0:0:0:
416,176,111795,6,0,P|412:224|360:300,1,140,2|8,0:0|0:0,0:0:0:0:
224,312,112906,2,0,P|228:264|280:188,1,140,2|8,0:0|0:0,0:0:0:0:
340,152,113740,1,0,0:0:0:0:
296,96,114017,6,0,P|252:80|216:76,1,70,2|0,0:0|0:0,0:0:0:0:
160,92,114573,1,8,0:0:0:0:
20,76,115128,2,0,B|16:148|16:148|64:204,1,140,2|8,0:0|0:0,0:0:0:0:
188,260,116240,6,0,B|260:264|260:264|311:219,1,140,4|8,0:0|0:0,0:0:0:0:
340,156,117073,1,0,0:0:0:0:
276,124,117351,2,0,B|204:120|204:120|152:164,1,140,2|8,0:0|0:0,0:0:0:0:
48,256,118462,6,0,P|24:224|20:184,2,70,2|0|8,0:0|0:0|0:0,0:0:0:0:
120,256,119295,2,0,L|264:284,1,140
328,276,120128,1,8,0:0:0:0:
436,188,120684,6,0,P|384:148|312:140,1,140,4|8,0:0|0:0,0:0:0:0:
244,164,121517,1,0,0:0:0:0:
188,208,121795,2,0,P|119:201|63:160,1,140,2|8,0:0|0:0,0:0:0:0:
48,92,122628,1,0,0:0:0:0:
76,28,122906,5,2,0:0:0:0:
256,192,138462,12,0,141795,0:0:0:0:
336,88,142906,6,0,P|396:116|420:192,1,140,4|8,0:0|0:0,0:0:0:0:
392,248,143740,1,0,0:0:0:0:
260,204,144295,1,0,0:0:0:0:
200,244,144573,2,0,L|128:256,1,70,8|0,0:0|0:0,0:0:0:0:
100,320,145128,6,0,P|64:284|92:196,1,140,2|8,0:0|0:0,0:0:0:0:
136,156,145962,1,0,0:0:0:0:
224,48,146517,2,0,L|152:20,2,70,0|8|0,0:0|0:0|0:0,0:0:0:0:
280,92,147351,6,0,P|280:164|328:224,1,140,2|8,0:0|0:0,0:0:0:0:
456,240,148462,2,0,P|456:168|408:108,1,140,2|8,0:0|0:0,0:0:0:0:
352,84,149295,1,0,0:0:0:0:
280,92,149573,6,0,P|244:100|192:96,1,70,2|0,0:0|0:0,0:0:0:0:
144,76,150128,1,8,0:0:0:0:
56,184,150684,2,0,P|92:176|144:180,1,70,2|0,0:0|0:0,0:0:0:0:
192,200,151239,1,8,0:0:0:0:
224,264,151517,1,0,0:0:0:0:
224,264,151795,6,0,P|268:308|356:308,1,140,4|8,0:0|0:0,0:0:0:0:
408,284,152628,1,0,0:0:0:0:
508,184,153184,2,0,P|476:156|448:148,1,70,0|8,0:0|0:0,0:0:0:0:
380,144,153740,1,0,0:0:0:0:
312,164,154017,6,0,B|244:156|244:156|180:120,1,140,2|8,0:0|0:0,0:0:0:0:
120,84,154851,1,0,0:0:0:0:
8,168,155406,1,0,0:0:0:0:
69,204,155684,2,0,L|152:252,1,70,8|0,0:0|0:0,0:0:0:0:
196,220,156240,6,0,B|148:252|148:252|136:304|164:344,1,140,2|8,0:0|0:0,0:0:0:0:
284,272,157351,2,0,B|332:240|332:240|344:188|316:148,1,140,2|8,0:0|0:0,0:0:0:0:
276,108,158184,1,0,0:0:0:0:
136,120,158740,6,0,P|136:85|147:52,2,70,0|8|0,0:0|0:0|0:0,0:0:0:0:
72,152,159573,2,0,P|104:184|192:164,1,140,2|8,0:0|0:0,0:0:0:0:
208,100,160406,1,0,0:0:0:0:
272,72,160684,6,0,P|332:72|404:104,1,140,4|8,0:0|0:0,0:0:0:0:
444,236,161795,2,0,P|384:236|312:204,1,140,2|8,0:0|0:0,0:0:0:0:
268,148,162628,1,0,0:0:0:0:
172,248,163184,6,0,P|140:264|104:268,2,70,0|8|0,0:0|0:0|0:0,0:0:0:0:
236,216,164017,2,0,L|368:280,1,140,2|8,0:0|0:0,0:0:0:0:
404,332,164851,1,0,0:0:0:0:
404,332,165128,6,0,B|380:292|396:256|396:256|424:228|424:184,1,140,2|8,0:0|0:0,0:0:0:0:
324,104,166240,2,0,B|348:144|332:180|332:180|304:208|304:252,1,140,2|8,0:0|0:0,0:0:0:0:
300,304,167073,1,0,0:0:0:0:
164,328,167628,6,0,L|88:344,2,70,0|8|0,0:0|0:0|0:0,0:0:0:0:
224,288,168462,2,0,P|200:228|212:156,1,140,2|8,0:0|0:0,0:0:0:0:
252,96,169295,1,0,0:0:0:0:
320,72,169573,5,4,0:0:0:0:
312,212,170128,2,0,P|372:236|448:228,1,140,8|2,0:0|0:0,0:0:0:0:
496,180,170962,1,0,0:0:0:0:
448,128,171240,2,0,P|416:116|368:112,1,70,8|0,0:0|0:0,0:0:0:0:
312,120,171795,5,2,0:0:0:0:
224,228,172351,2,0,B|156:216|156:216|112:160,1,140,8|2,0:0|0:0,0:0:0:0:
67,107,173184,1,0,0:0:0:0:
32,168,173462,2,0,B|32:208|32:208|48:256,1,70,8|0,0:0|0:0,0:0:0:0:
80,296,174017,6,0,P|148:292|216:316,1,140,2|8,0:0|0:0,0:0:0:0:
320,224,175128,2,0,P|252:228|184:204,1,140,2|8,0:0|0:0,0:0:0:0:
132,156,175962,1,0,0:0:0:0:
192,116,176240,6,0,P|224:108|268:108,1,70,2|0,0:0|0:0,0:0:0:0:
328,132,176795,1,8,0:0:0:0:
452,200,177351,2,0,P|424:240|336:272,1,140,2|8,0:0|0:0,0:0:0:0:
200,272,178462,6,0,P|133:252|89:199,1,140,4|8,0:0|0:0,0:0:0:0:
68,132,179295,1,0,0:0:0:0:
140,132,179573,2,0,P|206:112|250:59,1,140,2|8,0:0|0:0,0:0:0:0:
376,124,180684,6,0,P|392:88|392:52,2,70,2|0|8,0:0|0:0|0:0,0:0:0:0:
320,168,181517,2,0,L|372:320,1,140
328,360,182351,1,8,0:0:0:0:
192,336,182906,6,0,B|172:320|168:296|168:296|112:280|104:216,1,140,4|8,0:0|0:0,0:0:0:0:
128,164,183740,1,0,0:0:0:0:
196,148,184017,2,0,B|243:152|259:208|259:208|283:212|299:232,1,140,2|8,0:0|0:0,0:0:0:0:
340,288,184851,1,0,0:0:0:0:
356,356,185128,5,2,0:0:0:0:
480,292,185684,2,0,L|470:223,1,70,8|0,0:0|0:0,0:0:0:0:
504,160,186240,2,0,B|468:204|468:204|428:192|384:208,1,140,2|8,0:0|0:0,0:0:0:0:
260,264,187351,6,0,P|192:288|128:272,1,140,4|8,0:0|0:0,0:0:0:0:
72,228,188184,1,0,0:0:0:0:
120,176,188462,2,0,B|188:152|188:152|256:168,1,140,2|8,0:0|0:0,0:0:0:0:
392,192,189573,6,0,P|432:160|456:124,2,70,2|0|8,0:0|0:0|0:0,0:0:0:0:
324,168,190406,2,0,B|312:212|340:240|340:240|288:296,1,140
248,336,191240,1,8,0:0:0:0:
108,316,191795,6,0,B|104:272|104:272|64:240|80:176,1,140,4|8,0:0|0:0,0:0:0:0:
116,124,192628,1,0,0:0:0:0:
184,148,192906,2,0,B|229:181|219:231|219:231|245:267,1,140,2|8,0:0|0:0,0:0:0:0:
288,324,193740,1,0,0:0:0:0:
288,324,194017,6,0,P|356:308|396:244,1,140,2|8,0:0|0:0,0:0:0:0:
380,112,195128,2,0,P|312:128|272:192,1,140,2|8,0:0|0:0,0:0:0:0:
256,252,195962,1,0,0:0:0:0:
212,308,196240,5,2,0:0:0:0:
256,192,209573,12,0,212906,0:0:0:0:
240,268,214017,6,0,P|300:302|369:300,1,140,4|8,0:0|0:0,0:0:0:0:
407,167,215128,2,0,P|347:133|278:135,1,140,2|8,0:0|0:0,0:0:0:0:
216,168,215962,1,0,0:0:0:0:
76,188,216517,6,0,P|73:153|81:119,2,70,0|8|0,0:0|0:0|0:0,0:0:0:0:
108,252,217351,2,0,P|144:288|244:300,1,140,2|8,0:0|0:0,0:0:0:0:
296,280,218184,1,0,0:0:0:0:
364,264,218462,6,0,L|436:136,1,140,2|8,0:0|0:0,0:0:0:0:
332,48,219573,2,0,L|263:170,1,140,2|8,0:0|0:0,0:0:0:0:
224,228,220406,1,0,0:0:0:0:
96,288,220962,6,0,P|112:317|143:343,2,70,0|8|0,0:0|0:0|0:0,0:0:0:0:
36,248,221795,2,0,P|96:216|156:248,1,140,2|8,0:0|0:0,0:0:0:0:
240,136,222906,6,0,P|299:167|359:137,1,140,4|8,0:0|0:0,0:0:0:0:
480,204,224017,2,0,P|444:260|376:300,1,140,2|8,0:0|0:0,0:0:0:0:
312,288,224851,1,0,0:0:0:0:
248,256,225128,6,0,P|218:236|184:233,1,70,2|0,0:0|0:0,0:0:0:0:
116,256,225684,1,8,0:0:0:0:
40,140,226240,2,0,P|72:120|116:116,1,70,2|0,0:0|0:0,0:0:0:0:
172,120,226796,1,8,0:0:0:0:
228,164,227073,1,0,0:0:0:0:
228,164,227351,6,0,B|276:148|332:148|332:148|372:148,1,140,2|8,0:0|0:0,0:0:0:0:
464,248,228462,2,0,B|416:264|360:264|360:264|320:264,1,140,2|8,0:0|0:0,0:0:0:0:
256,256,229295,1,0,0:0:0:0:
196,296,229573,6,0,B|168:320|168:320|128:328,1,70,2|0,0:0|0:0,0:0:0:0:
68,312,230128,1,8,0:0:0:0:
40,176,230684,2,0,B|112:184|112:184|192:160,1,140,2|8,0:0|0:0,0:0:0:0:
228,36,231795,6,0,P|276:64|312:144,1,140,4|8,0:0|0:0,0:0:0:0:
300,208,232628,1,0,0:0:0:0:
252,260,232906,2,0,P|294:295|382:301,1,140,2|8,0:0|0:0,0:0:0:0:
400,164,234017,6,0,P|434:169|463:188,2,70,2|0|8,0:0|0:0|0:0,0:0:0:0:
348,212,234851,2,0,B|320:176|336:132|336:132|276:124,1,140
212,116,235684,1,8,0:0:0:0:
72,116,236240,6,0,P|88:168|68:256,1,140,4|8,0:0|0:0,0:0:0:0:
16,296,237073,1,0,0:0:0:0:
16,296,237351,2,0,B|72:264|72:264|148:276,1,140,2|8,0:0|0:0,0:0:0:0:
216,292,238184,1,0,0:0:0:0:
284,316,238462,5,2,0:0:0:0:
420,288,239017,2,0,P|396:256|392:216,1,70,8|0,0:0|0:0,0:0:0:0:
432,168,239573,2,0,B|396:148|360:156|340:176|340:176|312:184|280:180,1,140,2|8,0:0|0:0,0:0:0:0:
196,88,240684,6,0,B|160:148|160:148|168:224,1,140,4|8,0:0|0:0,0:0:0:0:
212,272,241517,1,0,0:0:0:0:
272,236,241795,2,0,B|308:176|308:176|300:100,1,140,2|8,0:0|0:0,0:0:0:0:
168,148,242906,6,0,P|132:155|103:184,2,70,2|0|8,0:0|0:0|0:0,0:0:0:0:
164,220,243740,2,0,P|152:272|192:356,1,140
256,360,244573,1,8,0:0:0:0:
388,320,245128,6,0,B|416:272|416:272|400:232|412:184,1,140,4|8,0:0|0:0,0:0:0:0:
432,124,245962,1,0,0:0:0:0:
368,96,246240,2,0,B|325:85|285:101|285:101|237:73,1,140,2|8,0:0|0:0,0:0:0:0:
172,44,247073,1,0,0:0:0:0:
112,84,247351,5,2,0:0:0:0:
44,208,247906,2,0,P|44:248|68:292,1,70,8|0,0:0|0:0,0:0:0:0:
116,312,248462,2,0,P|180:288|256:308,1,140,2|8,0:0|0:0,0:0:0:0:
312,332,249295,1,0,0:0:0:0:
380,316,249573,5,6,0:0:0:0:
444,192,250138,1,0,0:0:0:0:
444,192,250421,2,0,B|392:188|360:216|304:232|232:200,1,210,0|2,0:0|0:0,0:0:0:0:
147,117,251786,5,2,0:0:0:0:
67,231,252362,1,0,0:0:0:0:
67,231,252651,2,0,B|70:288|134:312|134:312|183:284|239:305,1,210,0|2,0:0|0:0,0:0:0:0:
338,341,253986,5,2,0:0:0:0:
433,228,254589,1,0,0:0:0:0:
433,228,254879,2,0,B|296:204|296:204|264:220|220:208,1,210,0|2,0:0|0:0,0:0:0:0:
256,192,256223,12,0,259365,0:0:0:0:
