osu file format v14

[General]
AudioFilename: StillYou.mp3
AudioLeadIn: 0
PreviewTime: 178462
Countdown: 0
SampleSet: Soft
StackLeniency: 0.7
Mode: 0
LetterboxInBreaks: 0
WidescreenStoryboard: 0

[Editor]
DistanceSpacing: 1
BeatDivisor: 4
GridSize: 4
TimelineZoom: 1

[Metadata]
Title:Ajigtto Nan (Still You)
TitleUnicode:아직도 난 (Still You)
Artist:Donghae & Eunhyuk
ArtistUnicode:동해&은혁
Creator:Gray Veyron
Version:Hard
Source:
Tags:D&E ballad Super Junior SJ SuJu 슈퍼주니어 KT뮤직 SM엔터테인먼트 S.M.Entertainment KT MUSIC Single Album
BeatmapID:703061
BeatmapSetID:315307

[Difficulty]
HPDrainRate:5
CircleSize:5
OverallDifficulty:5
ApproachRate:6.5
SliderMultiplier:1.8
SliderTickRate:1

[Events]
//Background and Video events
0,0,"BG.png",0,0
Video,-60,"Dino&MirageMV.avi"
//Break Periods
2,125128,137487
2,196440,208598
//Storyboard Layer 0 (Background)
//Storyboard Layer 1 (Fail)
//Storyboard Layer 2 (Pass)
//Storyboard Layer 3 (Foreground)
//Storyboard Sound Samples

[TimingPoints]
36240,555.555555555556,4,2,1,50,1,0
116240,-100,4,2,1,70,0,1
122906,-100,4,2,1,50,0,0
178462,-100,4,2,1,70,0,1
196240,-100,4,2,1,40,0,0
231795,-100,4,2,1,70,0,1
249572,566.037735849057,4,2,1,20,1,0
251786,576.923076923077,4,2,1,20,1,0
253986,566.037735849057,4,2,1,20,1,0
254304,571.428571428571,4,2,1,20,1,0
254593,576.923076923077,4,2,1,20,1,0
254879,600,4,2,1,20,1,0
255779,600,4,2,1,20,1,0
256223,582.52427184466,4,2,1,18,1,0
256513,612.244897959184,4,2,1,16,1,0
256817,606.060606060606,4,2,1,14,1,0
257101,571.428571428571,4,2,1,12,1,0
257667,566.037735849057,4,2,1,10,1,0

[Colours]
Combo1 : 0,0,64
Combo2 : 122,101,27
Combo3 : 145,145,70
Combo4 : 123,62,62
Combo5 : 0,64,64
Combo6 : 64,0,64

[HitObjects]
316,216,62906,6,0,P|284:248|224:248,1,90,4|0,0:0|0:0,0:0:0:0:
196,176,63462,2,0,P|228:144|288:144,1,90,8|0,0:0|0:0,0:0:0:0:
360,140,64017,1,2,0:0:0:0:
414,305,64295,2,0,L|403:215,2,90,0|8|0,0:0|0:0|0:0,0:0:0:0:
396,348,64990,1,0,0:0:0:0:
396,348,65128,6,0,P|350:375|302:379,1,90,2|0,0:0|0:0,0:0:0:0:
172,272,65684,2,0,P|209:247|253:240,1,90,8|0,0:0|0:0,0:0:0:0:
344,252,66240,1,2,0:0:0:0:
220,143,66517,1,0,0:0:0:0:
220,143,66656,1,0,0:0:0:0:
220,143,66795,2,0,P|265:149|304:172,1,90,8|0,0:0|0:0,0:0:0:0:
344,252,67351,6,0,P|384:208|380:128,1,135,2|0,0:0|0:0,0:0:0:0:
412,100,67906,2,0,L|312:88,1,90,8|0,0:0|0:0,0:0:0:0:
150,37,68462,2,0,L|240:48,2,90,2|0|8,0:0|0:0|0:0,0:0:0:0:
184,120,69295,1,0,0:0:0:0:
184,120,69434,1,0,0:0:0:0:
184,120,69573,6,0,P|168:196|120:232,1,135,2|0,0:0|0:0,0:0:0:0:
92,200,70128,2,0,P|128:232|144:292,1,90,8|0,0:0|0:0,0:0:0:0:
132,360,70684,1,2,0:0:0:0:
267,253,70962,1,0,0:0:0:0:
267,253,71101,1,0,0:0:0:0:
267,253,71240,2,0,P|249:295|216:324,1,90,8|0,0:0|0:0,0:0:0:0:
216,200,71795,6,0,P|292:184|336:276,2,180,4|8|2,0:0|0:0|0:0,0:0:0:0:
184,284,73184,1,0,0:0:0:0:
120,220,73462,1,8,0:0:0:0:
152,136,73740,1,0,0:0:0:0:
184,284,74017,6,0,P|272:316|364:288,2,180,2|8|2,0:0|0:0|0:0,0:0:0:0:
108,332,75406,1,0,0:0:0:0:
108,332,75545,1,0,0:0:0:0:
108,332,75684,2,0,P|96:276|108:236,1,90,8|0,0:0|0:0,0:0:0:0:
175,109,76240,6,0,P|187:152|180:196,1,90,2|0,0:0|0:0,0:0:0:0:
96,160,76795,1,8,0:0:0:0:
96,160,77073,2,0,L|284:148,1,180
352,100,77906,2,0,P|364:143|357:187,1,90,8|0,0:0|0:0,0:0:0:0:
328,220,78323,1,0,0:0:0:0:
328,220,78462,6,0,L|416:264,1,90,2|0,0:0|0:0,0:0:0:0:
416,352,79017,2,0,L|336:312,1,90,8|0,0:0|0:0,0:0:0:0:
336,312,79434,1,0,0:0:0:0:
336,312,79573,1,2,0:0:0:0:
244,312,79851,2,0,L|163:271,2,90,0|8|0,0:0|0:0|0:0,0:0:0:0:
80,308,80684,6,0,P|72:264|96:208,1,90,4|0,0:0|0:0,0:0:0:0:
167,178,81240,1,8,0:0:0:0:
15,161,81517,2,0,P|90:129|168:180,1,180
160,268,82351,2,0,L|252:228,1,90,8|0,0:0|0:0,0:0:0:0:
268,196,82767,1,0,0:0:0:0:
268,196,82906,6,0,P|284:236|332:264,1,90,2|0,0:0|0:0,0:0:0:0:
392,204,83462,2,0,P|376:164|328:136,1,90,8|0,0:0|0:0,0:0:0:0:
256,104,84017,1,2,0:0:0:0:
184,160,84295,1,0,0:0:0:0:
184,160,84434,1,0,0:0:0:0:
184,160,84573,2,0,L|92:188,1,90,8|0,0:0|0:0,0:0:0:0:
20,140,85128,6,0,B|48:180|98:186|98:186|88:240|120:288,1,180,2|8,0:0|0:0,0:0:0:0:
192,308,85962,1,0,0:0:0:0:
268,260,86240,2,0,P|308:276|372:268,1,90,2|0,0:0|0:0,0:0:0:0:
356,184,86795,2,0,P|396:170|440:123,1,90,8|0,0:0|0:0,0:0:0:0:
440,96,87212,1,0,0:0:0:0:
440,96,87351,6,0,B|384:100|352:72|352:72|296:64,1,135,2|0,0:0|0:0,0:0:0:0:
268,60,87906,2,0,P|288:96|288:152,1,90,8|0,0:0|0:0,0:0:0:0:
200,124,88462,1,2,0:0:0:0:
132,184,88740,1,0,0:0:0:0:
132,184,88878,1,0,0:0:0:0:
132,184,89017,2,0,P|111:144|109:100,1,90,8|0,0:0|0:0,0:0:0:0:
220,208,89573,6,0,P|240:247|242:291,1,90,4|0,0:0|0:0,0:0:0:0:
156,272,90128,1,8,0:0:0:0:
156,272,90406,2,0,L|332:228,1,180
384,300,91240,2,0,P|412:264|416:208,1,90,8|0,0:0|0:0,0:0:0:0:
404,180,91656,1,0,0:0:0:0:
372,148,91795,6,0,P|327:137|275:157,1,90,2|0,0:0|0:0,0:0:0:0:
212,200,92351,1,8,0:0:0:0:
172,280,92628,2,0,L|196:96,1,180
176,60,93323,1,0,0:0:0:0:
176,60,93462,2,0,P|212:76|268:76,1,90,8|0,0:0|0:0,0:0:0:0:
348,44,94017,6,0,P|400:44|452:112,1,135,2|0,0:0|0:0,0:0:0:0:
424,140,94573,2,0,L|412:240,1,90,8|0,0:0|0:0,0:0:0:0:
356,300,95128,1,2,0:0:0:0:
280,344,95406,2,0,P|268:300|288:244,2,90,0|8|0,0:0|0:0|0:0,0:0:0:0:
236,352,96101,1,0,0:0:0:0:
236,352,96240,6,0,L|120:336,1,90,2|0,0:0|0:0,0:0:0:0:
164,252,96795,2,0,L|48:236,1,90,8|0,0:0|0:0,0:0:0:0:
72,148,97351,1,2,0:0:0:0:
204,56,97628,1,0,0:0:0:0:
156,132,97906,1,8,0:0:0:0:
292,44,98184,1,0,0:0:0:0:
204,56,98462,6,0,P|240:116|304:132,1,135,4|0,0:0|0:0,0:0:0:0:
328,100,99017,2,0,P|317:169|355:222,1,135,8|0,0:0|0:0,0:0:0:0:
396,216,99573,2,0,P|343:261|338:327,1,135,2|0,0:0|0:0,0:0:0:0:
368,356,100128,2,0,L|268:344,1,90,8|0,0:0|0:0,0:0:0:0:
252,308,100545,1,0,0:0:0:0:
252,308,100684,6,0,P|208:324|164:324,1,90,2|0,0:0|0:0,0:0:0:0:
84,284,101240,1,8,0:0:0:0:
144,216,101517,2,0,P|188:200|232:200,1,90,0|2,0:0|0:0,0:0:0:0:
404,240,102073,1,0,0:0:0:0:
312,240,102351,1,8,0:0:0:0:
476,188,102628,1,0,0:0:0:0:
404,240,102906,6,0,P|388:172|424:116,1,135,2|0,0:0|0:0,0:0:0:0:
464,104,103462,2,0,B|420:119|420:119|368:108|336:68,1,135,8|0,0:0|0:0,0:0:0:0:
348,32,104017,2,0,B|311:57|311:57|269:52|269:52|223:84,1,135,2|0,0:0|0:0,0:0:0:0:
184,80,104573,2,0,L|111:132,1,90,8|0,0:0|0:0,0:0:0:0:
72,160,104990,1,0,0:0:0:0:
72,160,105128,6,0,B|84:204|84:204|68:248,1,90,2|0,0:0|0:0,0:0:0:0:
156,329,105684,2,0,B|144:285|144:285|160:244,1,90,8|0,0:0|0:0,0:0:0:0:
196,160,106240,2,0,P|236:204|312:216,1,135,2|0,0:0|0:0,0:0:0:0:
312,172,106795,2,0,P|308:220|340:264,1,90,8|0,0:0|0:0,0:0:0:0:
412,292,107351,5,4,0:0:0:0:
340,344,107628,2,0,L|244:360,1,90,0|8,0:0|0:0,0:0:0:0:
103,302,108184,1,0,0:0:0:0:
103,302,108323,1,0,0:0:0:0:
103,302,108462,2,0,L|192:288,1,90,2|0,0:0|0:0,0:0:0:0:
256,224,109017,2,0,P|300:216|344:224,1,90,8|0,0:0|0:0,0:0:0:0:
380,256,109434,1,0,0:0:0:0:
380,256,109573,6,0,L|368:156,1,90,2|0,0:0|0:0,0:0:0:0:
324,88,110128,1,8,0:0:0:0:
151,113,110406,1,0,0:0:0:0:
151,113,110545,1,0,0:0:0:0:
151,113,110684,2,0,P|195:124|240:120,1,90,2|0,0:0|0:0,0:0:0:0:
324,88,111240,1,8,0:0:0:0:
308,176,111517,1,0,0:0:0:0:
348,256,111795,6,0,P|384:224|396:184,1,90,2|0,0:0|0:0,0:0:0:0:
268,96,112351,2,0,P|232:128|220:168,1,90,8|0,0:0|0:0,0:0:0:0:
257,250,112906,2,0,L|308:176,1,90,2|0,0:0|0:0,0:0:0:0:
220,166,113462,2,0,L|168:240,1,90,8|0,0:0|0:0,0:0:0:0:
144,280,113878,1,0,0:0:0:0:
144,280,114017,6,0,P|104:262|76:218,1,90,2|0,0:0|0:0,0:0:0:0:
116,144,114573,2,0,P|136:105|182:81,1,90,8|0,0:0|0:0,0:0:0:0:
264,80,115128,2,0,L|352:96,1,90,2|0,0:0|0:0,0:0:0:0:
352,96,115545,1,0,0:0:0:0:
352,96,115684,1,8,0:0:0:0:
424,156,115962,1,0,0:0:0:0:
457,313,116240,6,0,P|422:285|408:244,1,90,4|0,0:0|0:0,0:0:0:0:
424,156,116795,2,0,L|328:172,1,90,8|0,0:0|0:0,0:0:0:0:
244,160,117351,1,2,0:0:0:0:
180,96,117628,2,0,P|160:128|160:188,1,90,0|8,0:0|0:0,0:0:0:0:
197,327,118184,1,0,0:0:0:0:
197,327,118323,1,0,0:0:0:0:
197,327,118462,6,0,P|219:288|220:244,1,90,2|0,0:0|0:0,0:0:0:0:
308,252,119017,2,0,P|300:208|271:173,1,90,8|0,0:0|0:0,0:0:0:0:
184,164,119573,1,2,0:0:0:0:
236,88,119851,1,0,0:0:0:0:
236,88,119990,1,0,0:0:0:0:
236,88,120128,2,0,L|328:68,1,90,8|0,0:0|0:0,0:0:0:0:
455,128,120684,6,0,L|368:148,1,90,4|0,0:0|0:0,0:0:0:0:
304,212,121240,2,0,P|264:224|216:220,1,90,8|0,0:0|0:0,0:0:0:0:
356,272,121795,2,0,P|300:300|212:300,1,135,2|0,0:0|0:0,0:0:0:0:
184,288,122351,2,0,B|140:296|140:296|80:276,1,90,8|0,0:0|0:0,0:0:0:0:
56,200,122906,5,2,0:0:0:0:
256,192,138462,12,0,141795,0:0:0:0:
80,164,142351,5,0,0:0:0:0:
80,164,142628,1,0,0:0:0:0:
80,164,142906,2,0,P|148:200|172:252,1,135,4|0,0:0|0:0,0:0:0:0:
140,284,143462,2,0,B|171:250|171:250|223:250,1,90,8|0,0:0|0:0,0:0:0:0:
288,304,144017,1,2,0:0:0:0:
360,250,144295,2,0,B|403:250|403:250|434:284,1,90,0|8,0:0|0:0,0:0:0:0:
320,180,144851,1,0,0:0:0:0:
320,180,144990,1,0,0:0:0:0:
320,180,145128,6,0,L|416:180,1,90,2|0,0:0|0:0,0:0:0:0:
364,104,145684,1,8,0:0:0:0:
357,261,145962,2,0,P|291:265|241:220,1,135
228,180,146517,2,0,L|132:192,1,90,0|8,0:0|0:0,0:0:0:0:
52,160,147073,1,0,0:0:0:0:
141,284,147351,6,0,P|97:276|64:248,1,90,2|0,0:0|0:0,0:0:0:0:
132,116,147906,2,0,P|175:123|209:152,1,90,8|0,0:0|0:0,0:0:0:0:
268,260,148462,2,0,P|224:252|190:223,1,90,2|0,0:0|0:0,0:0:0:0:
258,91,149017,2,0,P|301:98|335:127,1,90,8|0,0:0|0:0,0:0:0:0:
352,172,149434,1,0,0:0:0:0:
352,172,149573,6,0,L|444:192,1,90,2|0,0:0|0:0,0:0:0:0:
380,260,150128,2,0,L|472:280,2,90,8|0|2,0:0|0:0|0:0,0:0:0:0:
292,236,150962,1,0,0:0:0:0:
292,236,151101,1,0,0:0:0:0:
292,236,151240,2,0,P|291:280|269:318,1,90,8|0,0:0|0:0,0:0:0:0:
232,180,151795,6,0,P|232:136|256:96,1,90,4|0,0:0|0:0,0:0:0:0:
320,160,152351,1,8,0:0:0:0:
144,200,152628,2,0,P|136:144|164:64,1,135
204,60,153184,2,0,L|108:80,1,90,0|8,0:0|0:0,0:0:0:0:
48,136,153740,1,0,0:0:0:0:
48,136,153878,1,0,0:0:0:0:
48,136,154017,6,0,P|36:180|40:228,1,90,2|0,0:0|0:0,0:0:0:0:
100,292,154573,1,8,0:0:0:0:
263,311,154851,2,0,P|172:332|100:292,1,180
76,252,155545,1,0,0:0:0:0:
76,252,155684,2,0,P|108:216|120:168,1,90,8|0,0:0|0:0,0:0:0:0:
104,88,156240,5,2,0:0:0:0:
188,52,156517,1,0,0:0:0:0:
276,64,156795,1,8,0:0:0:0:
344,124,157073,1,0,0:0:0:0:
258,148,157351,2,0,P|256:104|276:64,1,90,2|0,0:0|0:0,0:0:0:0:
429,99,157906,2,0,P|431:143|412:184,1,90,8|0,0:0|0:0,0:0:0:0:
368,188,158323,1,0,0:0:0:0:
368,188,158462,6,0,P|364:236|368:292,1,90,2|0,0:0|0:0,0:0:0:0:
280,304,159017,2,0,P|284:256|280:200,1,90,8|0,0:0|0:0,0:0:0:0:
260,128,159573,1,2,0:0:0:0:
112,136,159851,1,0,0:0:0:0:
188,184,160128,1,8,0:0:0:0:
28,164,160406,1,0,0:0:0:0:
165,62,160684,6,0,P|199:118|188:184,1,135,4|0,0:0|0:0,0:0:0:0:
144,196,161240,2,0,L|284:216,1,135,8|0,0:0|0:0,0:0:0:0:
312,184,161795,2,0,P|300:249|334:305,1,135,2|0,0:0|0:0,0:0:0:0:
380,320,162351,2,0,P|414:317|467:279,1,90,8|0,0:0|0:0,0:0:0:0:
476,248,162767,1,0,0:0:0:0:
476,248,162906,6,0,P|447:228|420:169,1,90,2|0,0:0|0:0,0:0:0:0:
396,92,163462,1,8,0:0:0:0:
324,144,163740,2,0,P|293:158|228:152,1,90,0|2,0:0|0:0,0:0:0:0:
92,84,164295,1,0,0:0:0:0:
184,84,164573,1,8,0:0:0:0:
44,160,164851,1,0,0:0:0:0:
136,160,165128,6,0,P|108:228|48:252,1,135,2|0,0:0|0:0,0:0:0:0:
12,236,165684,2,0,B|55:251|55:251|44:300|84:336,1,135,8|0,0:0|0:0,0:0:0:0:
124,344,166240,2,0,B|152:340|168:320|168:320|200:312|200:312|216:284|244:280,1,135,2|0,0:0|0:0,0:0:0:0:
284,284,166795,2,0,B|328:296|328:296|376:276,1,90,8|0,0:0|0:0,0:0:0:0:
412,260,167212,1,0,0:0:0:0:
412,260,167351,6,0,P|396:216|396:172,1,90,2|0,0:0|0:0,0:0:0:0:
316,127,167906,2,0,P|350:98|391:83,1,90,8|0,0:0|0:0,0:0:0:0:
228,152,168462,2,0,P|192:182|108:208,1,135,2|0,0:0|0:0,0:0:0:0:
68,192,169017,2,0,P|104:204|140:256,1,90,8|0,0:0|0:0,0:0:0:0:
124,332,169573,5,4,0:0:0:0:
208,304,169851,2,0,P|256:308|300:296,1,90,0|8,0:0|0:0,0:0:0:0:
440,221,170406,1,0,0:0:0:0:
440,221,170545,1,0,0:0:0:0:
440,221,170684,2,0,P|395:216|352:228,1,90,2|0,0:0|0:0,0:0:0:0:
265,201,171240,2,0,P|291:165|328:140,1,90,8|0,0:0|0:0,0:0:0:0:
372,132,171656,1,0,0:0:0:0:
372,132,171795,6,0,L|308:56,1,90,2|0,0:0|0:0,0:0:0:0:
232,28,172351,1,8,0:0:0:0:
96,136,172628,1,0,0:0:0:0:
96,136,172767,1,0,0:0:0:0:
96,136,172906,2,0,P|139:126|176:100,1,90,2|0,0:0|0:0,0:0:0:0:
232,28,173462,1,8,0:0:0:0:
268,112,173740,1,0,0:0:0:0:
228,192,174017,6,0,P|284:200|320:184,1,90,2|0,0:0|0:0,0:0:0:0:
453,256,174573,2,0,P|410:246|368:260,1,90,8|0,0:0|0:0,0:0:0:0:
320,336,175128,2,0,L|220:316,1,90,2|0,0:0|0:0,0:0:0:0:
144,296,175684,1,8,0:0:0:0:
52,300,175962,1,0,0:0:0:0:
52,300,176101,1,0,0:0:0:0:
52,300,176240,6,0,P|60:256|96:216,1,90,2|0,0:0|0:0,0:0:0:0:
36,148,176795,2,0,P|78:132|130:144,1,90,8|0,0:0|0:0,0:0:0:0:
160,60,177351,2,0,P|194:88|210:140,1,90,2|0,0:0|0:0,0:0:0:0:
300,124,177906,2,0,P|292:168|256:208,1,90,8|0,0:0|0:0,0:0:0:0:
292,40,178462,6,0,P|336:48|376:84,1,90,4|0,0:0|0:0,0:0:0:0:
380,164,179017,2,0,P|424:172|464:208,1,90,8|0,0:0|0:0,0:0:0:0:
484,288,179573,1,2,0:0:0:0:
404,328,179851,2,0,P|360:320|320:284,1,90,0|8,0:0|0:0,0:0:0:0:
204,260,180406,1,0,0:0:0:0:
204,260,180545,1,0,0:0:0:0:
204,260,180684,6,0,P|247:252|282:224,1,90,2|0,0:0|0:0,0:0:0:0:
216,88,181240,2,0,P|172:95|137:123,1,90,8|0,0:0|0:0,0:0:0:0:
208,176,181795,1,2,0:0:0:0:
124,212,182073,1,0,0:0:0:0:
124,212,182212,1,0,0:0:0:0:
124,212,182351,2,0,B|76:232|76:232|28:240,1,90,8|0,0:0|0:0,0:0:0:0:
96,336,182906,6,0,B|144:316|144:316|181:309,1,90,4|0,0:0|0:0,0:0:0:0:
264,272,183462,2,0,P|264:224|284:180,1,90,8|0,0:0|0:0,0:0:0:0:
332,320,184017,2,0,P|272:356|212:340,1,135,2|0,0:0|0:0,0:0:0:0:
181,309,184573,2,0,P|172:267|203:206,1,90,8|0,0:0|0:0,0:0:0:0:
128,156,185128,6,0,P|168:136|220:140,1,90,2|0,0:0|0:0,0:0:0:0:
352,193,185684,2,0,P|312:213|268:212,1,90,8|0,0:0|0:0,0:0:0:0:
146,110,186240,2,0,B|191:109|191:109|236:134,1,90,2|0,0:0|0:0,0:0:0:0:
332,240,186795,2,0,B|287:241|287:241|247:221,1,90,8|0,0:0|0:0,0:0:0:0:
146,110,187351,6,0,P|188:96|240:96,1,90,4|0,0:0|0:0,0:0:0:0:
312,140,187906,2,0,P|328:98|361:58,1,90,8|0,0:0|0:0,0:0:0:0:
444,36,188462,1,2,0:0:0:0:
454,209,188740,2,0,P|436:168|432:124,2,90,0|8|0,0:0|0:0|0:0,0:0:0:0:
488,240,189434,1,0,0:0:0:0:
488,240,189573,6,0,L|416:304,1,90,2|0,0:0|0:0,0:0:0:0:
340,260,190128,2,0,L|268:324,1,90,8|0,0:0|0:0,0:0:0:0:
184,332,190684,1,2,0:0:0:0:
276,184,190962,1,0,0:0:0:0:
276,184,191101,1,0,0:0:0:0:
276,184,191240,2,0,L|208:243,1,90,8|0,0:0|0:0,0:0:0:0:
120,256,191795,6,0,P|76:232|52:188,1,90,4|0,0:0|0:0,0:0:0:0:
196,103,192351,2,0,P|160:128|140:168,1,90,8|0,0:0|0:0,0:0:0:0:
228,188,192906,2,0,P|272:212|296:256,1,90,2|0,0:0|0:0,0:0:0:0:
150,340,193462,2,0,P|186:314|207:275,1,90,8|0,0:0|0:0,0:0:0:0:
180,236,193878,1,0,0:0:0:0:
180,236,194017,6,0,P|205:272|244:292,1,90,2|0,0:0|0:0,0:0:0:0:
333,265,194573,1,8,0:0:0:0:
345,177,194851,2,0,P|319:140|280:120,1,90,0|2,0:0|0:0,0:0:0:0:
188,116,195406,1,0,0:0:0:0:
188,116,195545,1,0,0:0:0:0:
188,116,195684,2,0,L|236:40,1,90,8|0,0:0|0:0,0:0:0:0:
324,28,196240,5,2,0:0:0:0:
256,192,209573,12,0,212906,0:0:0:0:
272,312,213462,5,0,0:0:0:0:
272,312,213740,1,0,0:0:0:0:
272,312,214017,2,0,P|352:312|388:268,1,135,4|0,0:0|0:0,0:0:0:0:
388,228,214573,2,0,P|388:148|432:112,1,135,8|0,0:0|0:0,0:0:0:0:
472,116,215128,2,0,B|426:115|426:115|344:64,1,135,2|0,0:0|0:0,0:0:0:0:
312,44,215684,2,0,B|304:92|304:92|260:128,1,90,8|0,0:0|0:0,0:0:0:0:
236,144,216101,1,0,0:0:0:0:
236,144,216240,6,0,P|204:176|188:224,1,90,2|0,0:0|0:0,0:0:0:0:
76,299,216795,2,0,P|119:311|164:304,1,90,8|0,0:0|0:0,0:0:0:0:
291,361,217351,2,0,P|280:318|252:284,1,90,2|0,0:0|0:0,0:0:0:0:
188,217,217906,1,8,0:0:0:0:
163,304,218184,1,0,0:0:0:0:
276,200,218462,6,0,P|316:188|404:216,1,135,2|0,0:0|0:0,0:0:0:0:
440,192,219017,2,0,P|452:232|424:320,1,135,8|0,0:0|0:0,0:0:0:0:
452,356,219573,2,0,P|412:368|324:340,1,135,2|0,0:0|0:0,0:0:0:0:
300,304,220128,2,0,L|204:316,1,90,8|0,0:0|0:0,0:0:0:0:
164,320,220545,1,0,0:0:0:0:
164,320,220684,6,0,P|120:336|72:328,1,90,2|0,0:0|0:0,0:0:0:0:
68,240,221240,2,0,P|112:224|160:232,1,90,8|0,0:0|0:0,0:0:0:0:
44,164,221795,2,0,P|68:152|184:156,1,135,2|0,0:0|0:0,0:0:0:0:
212,172,222351,2,0,P|252:152|300:148,1,90,8|0,0:0|0:0,0:0:0:0:
384,164,222906,5,4,0:0:0:0:
352,316,223184,2,0,P|332:276|328:232,1,90,0|8,0:0|0:0,0:0:0:0:
384,164,223740,1,0,0:0:0:0:
384,164,223878,1,0,0:0:0:0:
384,164,224017,2,0,L|344:80,1,90,2|0,0:0|0:0,0:0:0:0:
268,36,224573,1,8,0:0:0:0:
104,104,224851,1,0,0:0:0:0:
104,104,224990,1,0,0:0:0:0:
104,104,225128,6,0,P|148:100|192:88,1,90,2|0,0:0|0:0,0:0:0:0:
268,36,225684,2,0,P|271:80|284:123,1,90,8|0,0:0|0:0,0:0:0:0:
324,148,226101,1,0,0:0:0:0:
324,148,226240,2,0,P|302:187|273:221,1,90,2|0,0:0|0:0,0:0:0:0:
104,272,226795,1,8,0:0:0:0:
192,260,227073,1,0,0:0:0:0:
32,216,227351,6,0,P|68:188|124:184,1,90,2|0,0:0|0:0,0:0:0:0:
270,225,227906,2,0,P|235:253|192:260,1,90,8|0,0:0|0:0,0:0:0:0:
256,116,228462,2,0,P|290:88|334:81,1,90,2|0,0:0|0:0,0:0:0:0:
400,144,229017,1,8,0:0:0:0:
418,320,229295,1,0,0:0:0:0:
418,320,229434,1,0,0:0:0:0:
418,320,229573,6,0,L|411:231,1,90,2|0,0:0|0:0,0:0:0:0:
336,284,230128,2,0,L|328:194,1,90,8|0,0:0|0:0,0:0:0:0:
244,150,230684,2,0,L|252:240,1,90,2|0,0:0|0:0,0:0:0:0:
160,112,231240,2,0,L|168:202,1,90,8|0,0:0|0:0,0:0:0:0:
172,292,231795,6,0,P|128:284|92:252,2,90,4|0|8,0:0|0:0|0:0,0:0:0:0:
248,244,232628,1,0,0:0:0:0:
320,300,232906,2,0,B|372:312|372:312|416:304,1,90,2|0,0:0|0:0,0:0:0:0:
476,209,233462,2,0,B|424:197|424:197|388:204,1,90,8|0,0:0|0:0,0:0:0:0:
344,216,233878,1,0,0:0:0:0:
344,216,234017,6,0,B|307:222|307:222|255:210,1,90,2|0,0:0|0:0,0:0:0:0:
240,120,234573,2,0,P|200:136|148:128,1,90,8|0,0:0|0:0,0:0:0:0:
96,60,235128,1,2,0:0:0:0:
70,225,235406,1,0,0:0:0:0:
70,225,235545,1,0,0:0:0:0:
70,225,235684,2,0,P|54:184|59:140,1,90,8|0,0:0|0:0,0:0:0:0:
144,288,236240,6,0,P|160:329|154:373,1,90,4|0,0:0|0:0,0:0:0:0:
307,357,236795,2,0,P|272:330|228:324,1,90,8|0,0:0|0:0,0:0:0:0:
376,296,237351,2,0,P|316:248|252:236,1,135,2|0,0:0|0:0,0:0:0:0:
213,236,237906,2,0,P|176:250|144:288,1,90,8|0,0:0|0:0,0:0:0:0:
132,332,238323,1,0,0:0:0:0:
132,332,238462,6,0,P|84:348|35:340,1,90,2|0,0:0|0:0,0:0:0:0:
80,260,239017,2,0,P|42:226|24:180,1,90,8|0,0:0|0:0,0:0:0:0:
162,102,239573,2,0,P|131:134|116:176,1,90,2|0,0:0|0:0,0:0:0:0:
290,184,240128,2,0,P|246:173|203:180,1,90,8|0,0:0|0:0,0:0:0:0:
372,220,240684,6,0,P|416:232|468:220,2,90,4|0|8,0:0|0:0|0:0,0:0:0:0:
420,144,241517,1,0,0:0:0:0:
316,296,241795,2,0,P|272:308|220:296,1,90,2|0,0:0|0:0,0:0:0:0:
152,348,242351,2,0,P|140:304|152:252,1,90,8|0,0:0|0:0,0:0:0:0:
176,224,242767,1,0,0:0:0:0:
176,224,242906,6,0,B|183:180|183:180|171:137,1,90,2|0,0:0|0:0,0:0:0:0:
224,64,243462,2,0,B|267:71|267:71|310:59,1,90,8|0,0:0|0:0,0:0:0:0:
396,24,244017,1,2,0:0:0:0:
472,76,244295,1,0,0:0:0:0:
472,76,244434,1,0,0:0:0:0:
472,76,244573,2,0,P|476:124|460:168,1,90,8|0,0:0|0:0,0:0:0:0:
296,223,245128,6,0,L|384:204,1,90,4|0,0:0|0:0,0:0:0:0:
436,276,245684,2,0,L|348:295,1,90,8|0,0:0|0:0,0:0:0:0:
268,340,246240,2,0,P|196:300|128:300,1,135,2|0,0:0|0:0,0:0:0:0:
100,304,246795,2,0,P|72:264|68:216,1,90,8|0,0:0|0:0,0:0:0:0:
84,184,247212,1,0,0:0:0:0:
84,184,247351,6,0,L|129:88,1,90,2|0,0:0|0:0,0:0:0:0:
180,32,247906,1,8,0:0:0:0:
216,116,248184,2,0,P|272:128|324:124,1,90,0|2,0:0|0:0,0:0:0:0:
380,180,248740,1,0,0:0:0:0:
380,180,248878,1,0,0:0:0:0:
380,180,249017,2,0,P|392:124|388:72,1,90,8|0,0:0|0:0,0:0:0:0:
464,184,249572,6,0,P|452:240|456:292,1,90,6|0,0:0|0:0,0:0:0:0:
484,356,250138,1,0,0:0:0:0:
395,343,250421,2,0,B|368:324|363:291|363:291|335:295|335:295|303:263|253:275,1,180
253,275,251270,1,2,0:0:0:0:
253,275,251786,6,0,L|144:264,1,90,2|0,0:0|0:0,0:0:0:0:
85,310,252362,1,0,0:0:0:0:
84,220,252651,2,0,B|100:188|140:168|180:176|180:176|188:152|188:152|212:152|226:138,1,180
226,138,253516,1,2,0:0:0:0:
226,138,253986,6,0,P|270:126|330:127,1,101.25,2|0,0:0|0:0,0:0:0:0:
405,167,254589,1,0,0:0:0:0:
487,195,254879,2,0,B|477:223|451:245|431:249|431:249|399:259|379:283|379:283|345:295,1,180
345,295,255779,1,2,0:0:0:0:
256,192,256223,12,0,259365,0:0:0:0:
