osu file format v12

[General]
AudioFilename: Don Omar ft Tego Calderon Bandolero.mp3
AudioLeadIn: 0
PreviewTime: 227272
Countdown: 1
SampleSet: Soft
StackLeniency: 0.7
Mode: 0
LetterboxInBreaks: 1
WidescreenStoryboard: 0

[Editor]
Bookmarks: 19272,43272,85939
DistanceSpacing: 0.7
BeatDivisor: 4
GridSize: 8

[Metadata]
Title:Bandolero
TitleUnicode:Bandolero
Artist:Don Omar ft. Tego Calderon
ArtistUnicode:Don Omar ft. Tego Calderon
Creator:Butterfly
Version:Collab
Source:
Tags:
BeatmapID:288935
BeatmapSetID:111013

[Difficulty]
HPDrainRate:6
CircleSize:4
OverallDifficulty:7
ApproachRate:8
SliderMultiplier:1.92
SliderTickRate:2

[Events]
//Background and Video events
0,0,"BG.png",0,0
//Break Periods
2,40806,42356
//Storyboard Layer 0 (Background)
//Storyboard Layer 1 (Fail)
//Storyboard Layer 2 (Pass)
//Storyboard Layer 3 (Foreground)
//Storyboard Sound Samples
//Background Colour Transformations
3,100,163,162,255

[TimingPoints]
606,666.666666666667,4,2,1,70,1,0
19272,-100,4,2,1,100,0,0

[Colours]
Combo1 : 225,169,237
Combo2 : 151,255,151
Combo3 : 100,170,255
Combo4 : 255,255,125

[HitObjects]
184,192,19272,2,0,B|232:168|232:144|232:144|256:128,1,96,0|2,3:0|0:0,0:0:0:0:
296,120,19772,2,0,L|256:80,1,48,0|8,0:0|0:0,0:0:0:0:
168,88,20106,1,2,0:0:0:0:
96,160,20272,1,0,0:0:0:0:
80,256,20439,1,2,0:0:0:0:
256,296,20772,2,0,P|320:256|320:200,1,96,2|0,0:0|0:0,0:0:0:0:
256,192,21272,1,8,0:0:0:0:
256,88,21439,2,0,P|320:128|320:184,1,96,0|0,3:0|0:0,0:0:0:0:
384,192,21939,1,4,0:0:0:0:
304,56,22272,6,0,B|256:48|256:48|208:56,1,96,0|8,0:0|0:0,0:0:0:0:
136,64,22772,1,2,3:0:0:0:
176,128,22939,1,0,0:0:0:0:
88,128,23106,1,0,0:0:0:0:
176,256,23439,2,0,L|216:288,1,48,2|0,0:0|0:0,0:0:0:0:
256,224,23772,1,2,0:0:0:0:
336,256,23939,2,0,L|296:288,1,48,8|0,0:0|0:0,0:0:0:0:
256,344,24272,1,0,3:0:0:0:
256,160,24606,6,0,L|256:192|256:224,2,48,2|0|0,3:0|0:0|0:0,0:0:0:0:
32,240,25106,1,2,0:0:0:0:
32,144,25272,1,8,0:0:0:0:
480,144,25606,1,2,0:0:0:0:
480,240,25772,1,8,0:0:0:0:
304,112,26106,2,0,B|257:104|257:104|208:112,1,96,0|0,3:0|3:0,0:0:0:0:
200,192,26606,1,8,0:0:0:0:
168,280,26772,1,0,0:0:0:0:
256,336,26939,1,0,0:0:0:0:
344,280,27106,1,0,0:0:0:0:
312,192,27272,1,4,0:0:0:0:
104,64,27772,6,0,L|64:104,1,48,2|8,3:0|0:0,0:0:0:0:
72,176,28106,1,2,3:0:0:0:
64,240,28272,1,0,0:0:0:0:
112,280,28439,1,0,0:0:0:0:
152,208,28606,2,0,P|184:176|232:160,2,96,0|0|8,0:0|0:0|0:0,0:0:0:0:
232,240,29439,2,0,L|272:272,1,48
232,240,29772,2,0,L|280:240,1,48,0|4,0:0|0:0,0:0:0:0:
416,112,30272,6,0,P|368:88|304:88,1,96,0|8,0:0|0:0,0:0:0:0:
272,48,30772,1,0,0:0:0:0:
216,72,30939,2,0,L|168:120,1,48,0|8,0:0|0:0,0:0:0:0:
104,192,31439,6,0,L|152:216,1,48
216,200,31772,1,0,0:0:0:0:
288,176,31939,2,0,L|328:144,1,48
376,192,32272,2,0,L|424:224,2,48,0|0|4,0:0|0:0|0:0,0:0:0:0:
256,48,32939,5,0,0:0:0:0:
256,48,33106,2,0,L|208:72,1,48,0|8,0:0|0:0,0:0:0:0:
200,152,33439,2,0,L|104:216,1,96,2|2,3:0|0:0,0:0:0:0:
72,288,33939,1,0,0:0:0:0:
144,352,34106,1,0,0:0:0:0:
224,328,34272,2,0,L|256:288,1,48,2|0,0:0|0:0,0:0:0:0:
320,248,34606,2,0,L|320:200,1,48,8|0,0:0|0:0,0:0:0:0:
384,152,34939,2,0,L|368:104,2,48,0|0|4,0:0|0:0|0:0,0:0:0:0:
96,72,35606,6,0,L|120:120,1,48,2|0,3:0|0:0,0:0:0:0:
144,184,35939,1,8,0:0:0:0:
200,128,36106,2,0,L|224:80,2,48,0|0|8,0:0|0:0|0:0,0:0:0:0:
416,192,36772,6,0,P|352:200|320:224,1,96
352,304,37272,2,0,L|304:312,1,48,8|0,0:0|0:0,0:0:0:0:
256,192,37606,1,0,0:0:0:0:
272,312,37772,1,0,0:0:0:0:
224,312,37939,2,0,L|184:280|168:256,2,48
200,328,38439,2,0,L|144:312,1,48,0|8,0:0|0:0,0:0:0:0:
80,264,38772,2,0,P|80:192|112:168,1,96,0|2,0:0|0:0,0:0:0:0:
144,96,39272,2,0,L|200:64,1,48
256,104,39606,2,0,L|304:128,1,48,0|2,0:0|3:0,0:0:0:0:
384,112,39939,2,0,L|400:160,1,48,8|0,0:0|0:0,0:0:0:0:
312,216,40272,1,0,0:0:0:0:
256,192,40439,1,0,0:0:0:0:
200,216,40606,1,4,0:0:0:0:
320,152,43106,5,0,0:0:0:0:
320,152,43272,2,0,L|355:184,2,48,4|0|2,0:0|0:0|0:3,0:0:0:0:
181,43,43939,1,8,0:0:0:0:
198,162,44106,1,0,0:0:0:0:
181,43,44272,2,0,L|147:76,1,48,2|0,0:0|0:0,0:0:0:0:
265,246,44606,1,0,3:0:0:0:
265,246,44772,2,0,P|223:267|175:275,1,96,2|0,0:0|3:0,0:0:0:0:
117,272,45272,2,0,L|80:241,1,48,8|0,0:0|0:0,0:0:0:0:
96,133,45606,2,0,L|119:174,1,48,8|0,0:3|0:0,0:0:0:0:
148,225,45939,5,4,0:3:0:0:
175,276,46106,2,0,L|198:317,2,48,0|2|0,0:0|0:3|0:0,0:0:0:0:
202,193,46606,2,0,L|179:152,2,48,8|0|2,0:0|0:0|0:0,0:0:0:0:
285,216,47106,2,0,P|328:194|361:161,1,96,8|2,0:0|3:0,0:0:0:0:
458,26,47772,1,2,3:0:0:0:
361,161,47939,1,8,0:0:0:0:
364,74,48106,1,0,0:0:0:0:
398,167,48272,1,2,0:0:0:0:
327,68,48440,1,0,0:0:0:0:
436,174,48606,5,4,0:3:0:0:
477,213,48772,2,0,L|510:247,2,48,0|2|0,0:0|0:3|0:0,0:0:0:0:
448,267,49272,2,0,L|447:314,1,48,8|0,0:0|0:0,0:0:0:0:
393,283,49606,2,0,L|359:316,1,48,2|0,0:0|0:0,0:0:0:0:
328,264,49939,2,0,P|286:285|238:293,1,96,0|2,3:0|0:3,0:0:0:0:
213,207,50439,1,0,3:0:0:0:
132,237,50605,2,0,L|95:206,1,48,8|0,0:0|0:0,0:0:0:0:
53,165,50939,1,4,0:3:0:0:
53,165,51106,1,0,0:0:0:0:
53,165,51272,1,8,0:3:0:0:
256,24,51606,5,2,0:0:0:0:
416,96,51939,1,2,0:3:0:0:
315,165,52106,1,2,0:0:0:0:
422,223,52272,1,0,0:0:0:0:
360,118,52439,5,0,0:0:0:0:
240,138,52606,1,2,0:3:0:0:
312,235,52772,1,0,0:0:0:0:
422,223,52939,6,0,P|412:268|389:311,1,96,8|8,0:3|0:0,0:0:0:0:
200,232,53606,2,0,L|186:186,1,48,4|0,0:3|0:0,0:0:0:0:
209,264,53939,5,4,0:0:0:0:
218,296,54106,2,0,L|233:346,1,48,0|2,0:0|0:3,0:0:0:0:
146,374,54439,2,0,L|159:328,1,48,0|8,0:0|0:0,0:0:0:0:
119,279,54772,2,0,L|84:317,2,48,0|2|0,0:0|0:0|0:0,0:0:0:0:
148,245,55272,1,0,3:0:0:0:
148,245,55439,1,2,0:0:0:0:
112,208,55606,2,0,P|75:205|42:189,2,72,0|2|0,0:0|0:0|0:0,0:0:0:0:
120,80,56606,6,0,P|150:59|170:29,2,72,4|0|0,0:3|0:0|0:0,0:0:0:0:
184,154,57272,1,8,0:0:0:0:
184,154,57439,2,0,P|230:151|276:134,1,96,2|8,0:0|0:0,0:0:0:0:
327,106,57939,1,2,3:0:0:0:
375,75,58106,2,0,L|411:44,1,48,2|0,0:0|0:0,0:0:0:0:
411,136,58439,2,0,L|411:184,1,48,0|8,3:0|0:0,0:0:0:0:
411,44,58939,1,2,0:1:0:0:
480,240,59272,6,0,L|492:286,1,48,6|0,0:3|0:0,0:0:0:0:
432,272,59606,2,0,L|432:320,1,48,2|0,0:3|0:0,0:0:0:0:
377,292,59939,2,0,P|369:338|334:369,1,96,8|2,0:0|0:0,0:0:0:0:
186,244,60606,2,0,L|144:219,1,48
197,187,60939,2,0,L|163:153,1,48,2|0,0:0|0:0,0:0:0:0:
222,134,61272,1,8,0:0:0:0:
222,134,61439,2,0,P|195:95|197:49,1,96,2|4,0:0|0:3,0:0:0:0:
291,69,61939,6,0,L|337:56,1,48,8|0,0:3|0:0,0:0:0:0:
379,221,62272,2,0,L|425:209,1,48,2|0,0:3|0:0,0:0:0:0:
413,100,62606,2,0,L|425:147,1,48,8|0,0:0|0:0,0:0:0:0:
259,189,62939,1,2,0:0:0:0:
413,100,63105,1,0,3:0:0:0:
303,250,63272,2,0,L|315:297,1,48,2|0,3:0|0:0,0:0:0:0:
476,316,63606,2,0,L|488:269,1,48,2|0,3:0|0:0,0:0:0:0:
488,271,64272,1,8,0:0:0:0:
379,221,64606,6,0,L|379:173,2,48,4|0|0,0:0|0:0|0:3,0:0:0:0:
367,277,65106,2,0,P|345:318|296:341,2,96,0|2|0,3:0|0:3|0:0,0:0:0:0:
379,221,65939,2,0,L|412:187,2,48,0|2|0,3:0|0:0|0:0,0:0:0:0:
325,243,66439,2,0,P|280:256|229:238,1,96,0|0,3:0|3:0,0:0:0:0:
205,225,66939,1,8,0:3:0:0:
100,112,67272,5,4,0:3:0:0:
148,142,67439,1,0,0:0:0:0:
100,172,67606,2,0,L|100:244,2,72,2|0|2,0:0|0:0|0:0,0:0:0:0:
255,96,68606,2,0,L|275:52,1,48,0|0,0:0|3:0,0:0:0:0:
313,123,68939,2,0,L|333:79,1,48,0|0,3:0|0:0,0:0:0:0:
371,150,69272,2,0,L|408:70,1,72,0|0,3:0|0:0,0:0:0:0:
148,142,69939,6,0,L|126:185,1,48,4|0,0:3|0:0,0:0:0:0:
111,240,70272,2,0,L|159:240,2,48,2|0|8,0:3|0:0|0:0,0:0:0:0:
76,286,70772,2,0,L|44:286,2,32,2|0|0,0:0|0:0|0:0,0:0:0:0:
147,312,71272,2,0,P|192:300|227:259,1,96,0|2,3:0|0:3,0:0:0:0:
236,194,71772,2,0,P|190:205|158:240,2,96,0|2|4,3:0|0:0|0:3,0:0:0:0:
304,229,72606,6,0,L|320:277,1,48,8|0,0:3|0:0,0:0:0:0:
298,152,72939,1,2,0:3:0:0:
298,152,73022,1,0,0:0:0:0:
298,152,73106,2,0,L|337:101,1,48,0|8,0:0|0:0,0:0:0:0:
401,52,73439,2,0,L|406:99,2,48,2|0|0,0:0|0:0|0:0,0:0:0:0:
406,215,73939,1,2,3:0:0:0:
298,152,74106,1,0,0:0:0:0:
407,100,74272,1,2,0:0:0:0:
451,276,74439,2,0,P|406:288|355:271,1,96,2|0,3:0|0:0,0:0:0:0:
295,233,74939,1,2,0:0:0:0:
407,100,75106,1,0,0:0:0:0:
451,276,75272,6,0,P|427:316|385:339,1,96,4|2,0:0|0:3,0:0:0:0:
272,363,75939,1,8,0:0:0:0:
295,233,76106,1,0,0:0:0:0:
385,339,76272,1,2,0:3:0:0:
182,278,76439,1,0,0:0:0:0:
208,159,76606,1,2,3:2:0:0:
211,288,76772,1,0,0:0:0:0:
173,171,76939,1,2,0:3:0:0:
259,290,77106,2,0,P|305:296|348:276,1,96,2|0,3:2|0:0,0:0:0:0:
349,277,77606,1,4,0:3:0:0:
431,141,77939,6,0,L|407:100,1,48,8|0,0:3|0:0,0:0:0:0:
330,106,78272,2,0,L|354:147,1,48,2|0,0:3|0:0,0:0:0:0:
393,191,78606,1,8,0:0:0:0:
355,35,78772,2,0,P|308:36|268:63,1,96,2|8,0:0|0:0,0:0:0:0:
225,127,79272,2,0,L|201:168,1,48,0|0,3:0|0:0,0:0:0:0:
174,73,79606,2,0,L|132:97,1,48,2|0,0:3|3:0,0:0:0:0:
125,17,79939,1,8,0:0:0:0:
66,66,80106,1,0,3:0:0:0:
132,97,80272,1,2,0:0:0:0:
43,249,80606,5,4,0:3:0:0:
84,209,80772,2,0,L|117:175,2,48,0|2|0,0:0|3:0|0:0,0:0:0:0:
95,270,81272,2,0,L|119:311,1,48,8|0,0:0|0:0,0:0:0:0:
176,253,81606,2,0,L|135:229,1,48,2|0,0:3|0:0,0:0:0:0:
255,248,81939,2,0,P|242:293|208:325,1,96,0|2,3:0|0:3,0:0:0:0:
209,183,82439,1,0,3:0:0:0:
255,248,82606,1,8,0:0:0:0:
303,183,82772,1,0,3:0:0:0:
349,248,82939,2,0,L|382:281,1,48,2|4,0:0|0:3,0:0:0:0:
406,198,83272,6,0,L|454:198,1,48,8|0,0:3|0:0,0:0:0:0:
363,135,83606,2,0,P|323:110|276:111,1,96,2|8,0:3|0:0,0:0:0:0:
195,296,84106,2,0,P|234:320|281:319,1,96,2|2,3:2|0:3,0:0:0:0:
337,301,84606,5,2,3:2:0:0:
383,268,84772,2,0,P|344:238|315:200,1,96,8|0,0:0|3:0,0:0:0:0:
279,156,85272,6,0,L|359:156,2,72,8|0|0,0:0|3:0|0:0,0:0:0:0:
214,168,85939,6,0,P|225:209|273:225,1,96,4|2,0:0|0:0,0:0:0:0:
360,192,86439,1,0,0:0:0:0:
432,144,86606,2,0,L|456:96,1,48,8|0,0:0|0:0,0:0:0:0:
328,32,86939,1,0,0:0:0:0:
344,112,87106,1,2,0:0:0:0:
280,40,87272,1,0,0:0:0:0:
288,120,87439,2,0,L|240:136,1,48,0|2,0:0|0:0,0:0:0:0:
152,128,87772,1,0,0:0:0:0:
96,192,87939,2,0,L|80:240,1,48,8|0,0:0|0:0,0:0:0:0:
40,304,88272,1,0,0:0:0:0:
88,320,88439,1,0,0:0:0:0:
168,264,88606,6,0,P|224:264|264:232,2,96,0|2|8,0:0|0:0|0:0,0:0:0:0:
176,160,89606,1,2,0:0:0:0:
224,128,89772,1,8,0:0:0:0:
280,112,89939,1,0,0:0:0:0:
280,112,90106,2,0,L|328:136,1,48,2|0,0:0|0:0,0:0:0:0:
416,216,90439,1,0,0:0:0:0:
392,264,90606,1,8,0:0:0:0:
352,296,90772,1,0,0:0:0:0:
304,320,90939,2,0,L|256:312,2,48,0|0|2,0:0|0:0|0:0,0:0:0:0:
