osu file format v9

[General]
AudioFilename: don omar ft lucenzo - danza kuduro (original & comprada itunes)(www fullcalle com).mp3
AudioLeadIn: 0
PreviewTime: 15226
Countdown: 0
SampleSet: Normal
StackLeniency: 0.3
Mode: 0
LetterboxInBreaks: 0
EpilepsyWarning: 1

[Editor]
Bookmarks: 154610
DistanceSpacing: 1
BeatDivisor: 4
GridSize: 4

[Metadata]
Title:Danza Kuduro
Artist:Don Omar ft. Lucenzo
Creator:darck360
Version:Dificil
Source:
Tags:narakucrimson animask Reggaeton

[Difficulty]
HPDrainRate:5
CircleSize:4
OverallDifficulty:5
ApproachRate:5
SliderMultiplier:1.5
SliderTickRate:2

[Events]
//Background and Video events
0,0,"BG.png"
//Break Periods
2,44970,50032
2,89278,94339
2,133585,138647
//Storyboard Layer 0 (Background)
//Storyboard Layer 1 (Fail)
//Storyboard Layer 2 (Pass)
//Storyboard Layer 3 (Foreground)
//Storyboard Sound Samples
//Background Colour Transformations
3,100,163,162,255

[TimingPoints]
13386,461.538461538462,4,1,1,75,1,0
74309,-100,4,1,1,75,0,1
89078,-100,4,1,1,75,0,0
118616,-100,4,1,1,75,0,1
133386,-100,4,1,1,75,0,0
164770,-100,4,1,1,75,0,1
177693,-100,4,1,1,75,0,0
179539,-100,4,1,1,75,0,1
194309,-100,4,1,1,40,0,0

[Colours]
Combo1 : 0,128,192
Combo2 : 5,240,5
Combo3 : 255,255,0

[HitObjects]
184,88,13385,2,0,B|256:52|328:88,1,150,4|4
220,192,14309,2,0,B|256:208|292:192,3,75
344,248,15232,6,0,B|376:280|440:232|408:192|376:152|448:104|480:144,1,225,4|8
504,216,16155,1,0
424,344,16616,2,2,B|280:384,1,150,2|8
200,304,17424,1,8
312,304,17770,5,0
256,256,18001,2,0,B|256:176,1,75,0|8
192,136,18462,2,2,B|208:112|256:80|304:112|320:136,1,150,2|8
256,32,19270,1,8
144,56,19616,6,0,B|88:104,1,75,0|2
32,156,20078,1,0
96,192,20309,2,2,B|144:256|232:224,1,150,2|8
256,112,21116,1,8
368,56,21462,6,0,B|424:104,1,75,0|4
480,156,21924,1,0
416,192,22155,2,0,B|368:256|280:224,1,150,4|4
168,328,23078,5,8
104,288,23309,2,0,B|40:248,1,75,2|2
104,208,23770,2,0,B|168:248,1,75,0|2
192,176,24232,1,2
256,144,24462,1,4
256,256,24809,1,0
344,328,25155,5,8
408,288,25386,2,0,B|472:248,1,75,2|2
408,208,25847,2,0,B|344:248,1,75,0|2
312,176,26309,2,0,B|200:176,2,112.5,2|2|0
320,104,27232,6,0,B|296:72|256:56|216:72|192:104,1,150,2|2
296,208,28155,2,0,B|304:288|384:320,1,150,0|0
216,208,29078,2,2,B|208:288|128:320,1,150,4|2
184,376,29770,1,0
256,344,30001,1,4
480,328,30693,5,0
440,264,30924,2,2,B|424:184|472:120,1,150,2|0
512,64,31616,1,0
440,56,31847,1,8
328,56,32193,1,8
256,144,32539,5,0
232,216,32770,1,0
160,192,33001,2,0,B|96:232,1,75,8|0
96,144,33462,2,0,B|16:152,1,75,8|2
176,64,34039,1,2
256,144,34386,5,0
280,216,34616,1,2
352,192,34847,2,0,B|416:232,1,75,8|2
416,144,35309,2,0,B|496:152,1,75,8|2
336,64,35886,1,2
256,144,36232,6,0,B|256:224,1,75,0|4
292,284,36693,2,0,B|256:300|220:284,3,75,0|4|0|4
112,312,37732,5,0
80,200,38078,2,0,B|24:152,1,75,0|8
4,80,38539,1,8
76,92,38770,1,0
144,60,39001,1,0
200,112,39232,2,0,B|312:112,1,112.5,2|2
256,208,39924,6,0,B|320:248,1,75,0|8
256,296,40386,1,2
320,336,40616,2,0,B|384:376,1,75,0|2
408,304,41078,1,2
360,200,41424,1,2
256,208,41770,6,0,B|192:248,1,75,0|8
256,296,42232,1,2
192,336,42462,2,0,B|128:376,1,75,0|2
56,376,42924,2,4,B|0:336|8:240,2,150
88,304,44078,5,0
128,240,44309,1,8
184,192,44539,1,0
256,176,44770,1,4
312,216,51232,6,0,B|284:148,1,75,4|8
224,192,51693,2,0,B|136:148,1,75,4|0
136,232,52155,6,0,B|136:288|136:288|136:344|176:368,1,150,4|8
216,304,52847,1,0
216,228,53078,1,8
256,168,53309,1,0
300,228,53539,1,8
296,304,53770,1,0
336,368,54001,6,0,B|376:343|376:287|376:287|376:231,1,150,4|8
336,168,54693,2,0,B|296:104,1,75,0|8
216,104,55155,2,0,B|176:167,1,75,0|8
256,200,55616,1,0
296,264,55847,6,0,B|312:328|376:328,2,112.5,8|8|0
216,264,56770,2,0,B|200:328|136:328,2,112.5,8|8|0
144,256,57693,2,2,B|64:224|64:116|144:80,1,225,2|8
184,20,58616,5,4
256,36,58847,1,0
256,112,59078,2,0,B|256:188,1,75,4|0
304,244,59539,6,0,B|304:284|304:284|304:324|256:348|208:324|208:284|208:284|208:244,1,225,4|8
208,168,60462,2,0,B|200:128|208:88,1,75,0|8
136,104,60924,2,2,B|72:160|112:240,1,150,2|8
144,344,61732,1,8
256,368,62078,6,0,B|256:288,1,75,2|8
256,216,62539,1,8
188,244,62770,2,2,B|256:188|324:244,1,150,2|8
424,304,63578,2,0,B|424:240|384:200,1,112.5,8|0
440,152,64155,2,0,B|416:112|352:128,1,75,8|8
368,48,64616,2,2,B|312:52|284:112|308:160,1,150,2|8
256,260,65424,1,0
204,160,65770,5,0
204,159,66001,2,4,B|228:112|200:52|144:48,1,150,4|4
136,124,66693,1,0
68,88,66924,2,4,B|44:135|72:195|128:199,1,150,4|8
200,208,67616,5,0
272,216,67847,1,8
344,224,68078,1,8
416,232,68309,1,0
488,240,68539,1,2
488,168,68770,2,0,B|488:104|440:72,2,112.5,8|8|2
416,152,69693,5,0
344,160,69924,1,2
272,168,70155,1,0
200,176,70386,1,2
200,248,70616,2,0,B|200:312|248:344,2,112.5,8|8|2
136,216,71539,6,0,B|120:144,1,75,0|8
192,136,72001,2,0,B|224:96|256:96|288:96|320:136,1,150,0|4
376,216,72693,2,0,B|392:144,1,75,0|4
440,256,73155,2,0,B|496:208,1,75,0|4
464,136,73616,1,0
400,88,73847,1,8
328,112,74078,1,0
256,88,74309,1,4
256,240,74770,6,0,B|256:320,1,75,8|0
184,344,75232,2,0,B|160:312|120:304,1,75,2|2
48,288,75693,1,8
40,360,75924,2,2,B|40:288|68:212,1,150,2|0
120,160,76616,1,8
192,144,76847,1,0
256,104,77078,1,2
320,144,77309,1,2
392,160,77539,1,8
444,213,77770,22,2,B|472:288|472:360,1,150,2|0
400,344,78462,2,8,B|384:304|352:288,1,75
280,256,78924,2,0,B|240:248|200:264,1,75,2|0
248,328,79386,1,8
248,328,79616,2,2,B|176:344|96:320,1,150,2|0
32,288,80309,1,0
96,248,80539,1,0
144,192,80770,5,4
256,88,81232,1,4
360,192,81693,1,4
492,264,82155,22,0,B|508:304|492:336,1,75,8|0
424,304,82616,2,2,B|400:352|336:360|296:312,1,150,2|8
256,256,83309,1,0
216,192,83539,2,0,B|178:146|114:154|90:202,1,150,4|8
96,280,84232,1,0
160,240,84462,2,2,B|168:160|128:96,1,150,2|8
272,56,85385,6,0,B|335:95|415:87,1,150,4|8
488,80,86078,1,0
488,152,86309,2,0,B|488:232,1,75,2|0
416,256,86770,2,0,B|376:320,1,75,8|0
328,264,87232,22,0,B|280:240|232:240|184:264,1,150,4|8
128,216,87924,1,0
192,176,88155,2,0,B|216:104,1,75,4|0
296,104,88616,2,0,B|320:176,1,75,4|0
384,216,89078,1,4
96,192,95539,5,4
256,264,96001,1,4
416,192,96462,2,0,B|424:144|360:120|336:144|312:168|248:136|256:88,1,225,4|0
256,88,97385,1,4
256,88,97847,1,4
256,88,98309,2,0,B|264:136|200:168|176:144|152:120|88:144|96:192,1,225,4|0
80,264,99232,6,0,B|120:272|152:240,2,75,8|0|0
56,336,99924,2,2,B|136:352|200:296,1,150,2|0
256,256,100616,1,0
304,200,100847,1,0
363,243,101078,2,0,B|392:272|432:264,2,75,8|0|0
316,299,101770,2,2,B|376:352|456:336,1,150,2|0
455,336,102462,2,0,B|472:264,1,75
440,160,102924,6,0,B|408:144|400:96,1,75,4|0
328,72,103385,2,0,B|295:100|255:92,1,75,4|0
232,168,103847,2,0,B|176:152|160:88|192:48,1,150,4|8
120,32,104539,5,0
104,104,104770,1,2
48,56,105001,1,0
32,128,105232,2,2,B|0:168|15:232|71:248,1,150,2|8
184,272,106039,1,8
296,240,106385,5,0
368,208,106616,1,8
360,280,106847,1,0
432,256,107078,2,2,B|464:216|449:152|393:136,1,150,2|8
344,32,107885,1,8
392,136,108232,5,0
392,136,108462,2,2,B|384:192|328:224|280:200,1,150,2|8
256,128,109155,1,0
231,200,109385,2,0,B|184:224|128:192|120:136,1,150,4|4
112,64,110078,1,0
180,92,110309,5,4
220,28,110539,1,0
292,28,110770,1,4
332,92,111001,1,0
256,100,111232,1,4
392,280,111924,5,0
320,296,112155,1,8
256,336,112385,1,8
192,296,112616,1,0
120,280,112847,1,8
120,280,113078,2,2,B|112:224|56:192,1,112.5,2|2
120,104,113770,5,0
192,88,114001,1,8
256,48,114232,1,8
320,88,114462,1,0
392,104,114693,1,8
392,104,114924,2,2,B|400:160|456:192,1,112.5,2|2
344,216,115616,5,0
344,292,115847,2,0,B|328:328|300:352|256:368|212:352|184:328|168:292,1,225,8|0
168,216,116770,1,4
256,96,117232,2,0,B|268:148|244:196|256:244,2,150,4|4|0
256,96,118616,21,4
364,124,118962,1,8
332,232,119309,2,0,B|360:304,1,75,0|8
416,352,119770,1,0
428,276,120001,2,2,B|380:264|328:320|344:372,1,150,2|8
256,300,120809,6,0,B|212:340|152:336,1,112.5,8|0
128,264,121385,2,0,B|148:188,1,75,8|0
140,116,121847,2,2,B|188:104|240:160|224:212,1,150,2|8
224,210,122655,1,8
308,132,123001,21,0
256,80,123232,1,2
204,132,123462,1,0
256,188,123693,2,2,B|244:232|272:288|256:336,1,150,2|8
255,336,124501,1,8
368,336,124847,5,0
400,268,125078,1,4
256,224,125539,1,4
112,268,126001,1,4
28,192,126347,21,8
28,192,126693,2,0,B|92:152,1,75,0|8
152,196,127155,2,0,B|184:172|196:136,1,75,8|0
216,64,127616,1,8
296,64,127847,2,0,B|324:24|364:104|396:64,2,112.5,2|2|8
316,136,128770,6,0,B|327:171|359:195,1,75,0|8
420,152,129232,2,0,B|484:192,1,75,0|8
432,248,129693,1,2
344,320,130039,1,2
256,252,130385,1,8
256,176,130616,2,0,B|200:172|164:232|184:280,1,150,0|8
184,356,131309,1,0
256,328,131539,22,4,B|312:332|348:272|328:224,2,150
256,252,132693,1,0
256,252,132924,1,0
256,252,133385,1,4
184,140,139847,6,0,B|256:104|328:140,2,150,4|4|4
396,284,141232,5,8
332,324,141462,1,0
256,336,141693,1,0
180,324,141924,1,0
116,284,142155,1,8
180,244,142385,2,0,B|192:152|320:152|332:244,1,225,0|8
256,252,143309,5,0
256,252,143539,2,0,B|256:100,2,150,0|0|0
108,224,144924,2,0,B|136:156,1,75,8|0
196,200,145385,2,0,B|256:156,1,75,0|0
280,228,145847,2,0,B|356:216,1,75,8|0
384,284,146309,2,0,B|236:308,2,150,0|0|4
432,224,147462,6,0,B|460:156,1,75,0|4
384,144,147924,2,0,B|384:68,1,75,0|4
256,148,148616,5,0
128,68,149078,2,0,B|128:143,1,75,8|0
52,156,149539,2,0,B|80:225,1,75,0|0
28,280,150001,2,0,B|80:340|164:336,1,150,4|0
216,196,150924,5,0
296,196,151155,1,0
256,132,151385,1,8
256,132,151616,2,0,B|312:72|396:100,1,150,0|0
368,168,152309,1,8
288,276,152770,5,0
256,132,153232,1,8
256,132,153462,2,0,B|200:72|116:100,1,150,0|0
120,176,154155,1,8
188,308,154616,2,4,B|256:364|324:308,2,150
256,92,156232,5,0
324,48,156462,2,4,B|256:-8|188:48,2,150
320,200,157847,1,0
448,276,158309,2,0,B|388:336|308:316,1,150
256,264,159001,1,8
256,264,159462,5,0
201,316,159693,2,0,B|124:336|64:276,2,150,0|0|8
160,252,160847,2,0,B|144:192|228:180|216:120,1,150
295,121,161539,2,4,B|284:180|368:192|352:252,3,150,0|4|4|4
256,276,164770,5,4
108,104,165462,21,8
92,176,165693,2,0,B|176:180|224:116,2,150,0|0|2
168,256,166962,1,2
256,188,167309,1,0
256,188,167539,2,0,B|284:236|228:288|256:332,2,150,8|0|2
344,256,168809,1,2
420,176,169155,5,0
420,176,169386,2,0,B|336:180|288:116,2,150,8|0|2
420,176,170655,1,2
320,232,171001,2,0,B|300:304,1,75,0|4
212,304,171462,2,0,B|192:232,1,75,0|4
256,192,171924,2,0,B|256:116,1,75,0|4
368,104,172501,22,0,B|421:120|480:104,1,112.5,8|0
460,32,173078,2,0,B|420:44|384:32,3,75,2|2|0|2
312,44,174001,2,0,B|256:28|200:44,2,112.5,2|2|8
292,116,174924,2,0,B|256:100|220:116,3,75,2|2|0|2
256,184,175847,2,0,B|256:336,2,150,4|4|8
180,312,177232,5,0
332,312,177693,1,4
332,164,178155,1,4
180,164,178616,1,0
220,100,178847,1,0
292,100,179078,1,4
332,164,179309,1,4
352,236,179539,22,0,B|300:304|212:304|160:236,1,225,4|8
84,228,180462,2,0,B|28:232|8:308|52:340,1,150
160,236,181386,6,0,B|211:303|299:303|351:236,1,225,4|8
428,228,182309,2,0,B|484:232|504:308|460:340,1,150
356,232,183232,22,0,B|304:252|256:200|256:200|208:252|156:232,1,225,4|0
92,188,184155,1,0
128,120,184386,1,0
192,160,184616,2,0,B|224:116|288:116|320:160,1,150,0|0
256,252,185424,1,0
192,160,185770,1,0
256,124,186001,5,4
340,268,186462,1,4
172,268,186924,1,4
256,328,187270,2,0,B|308:356|364:348,1,112.5,8|0
440,332,187847,2,0,B|512:312,1,75,2|2
500,236,188309,2,0,B|424:256,1,75,0|2
352,244,188770,22,2,B|296:176|216:176|160:244,1,225,2|0
159,244,189693,1,2
256,128,190155,1,0
352,244,190616,6,2,B|296:312|216:312|160:244,1,225,2|0
180,172,191539,1,2
332,172,192001,1,0
256,40,192462,21,4
332,172,192924,1,4
180,172,193386,1,4
184,320,193847,2,0,B|240:292|272:352|328:324,1,150,4|4
