osu file format v14

[General]
AudioFilename: 02 Starburn (Kap Slap Bootleg).mp3
AudioLeadIn: 0
PreviewTime: 103193
Countdown: 1
SampleSet: Normal
StackLeniency: 0.4
Mode: 0
LetterboxInBreaks: 1
WidescreenStoryboard: 0

[Editor]
DistanceSpacing: 1
BeatDivisor: 4
GridSize: 4
TimelineZoom: 1.5

[Metadata]
Title:Starburn (Kap Slap Bootleg)
TitleUnicode:Starburn (Kap Slap Bootleg)
Artist:Don Diablo, Matt Nash feat. Ellie Goulding
ArtistUnicode:Don Diablo, Matt Nash feat. Ellie Goulding
Creator:HedonicKnight
Version:Hard
Source:
Tags:
BeatmapID:652680
BeatmapSetID:289543

[Difficulty]
HPDrainRate:6
CircleSize:4
OverallDifficulty:6
ApproachRate:7
SliderMultiplier:2
SliderTickRate:2

[Events]
//Background and Video events
0,0,"starlight.jpg",0,0
//Break Periods
2,30208,44098
2,135197,149098
//Storyboard Layer 0 (Background)
//Storyboard Layer 1 (Fail)
//Storyboard Layer 2 (Pass)
//Storyboard Layer 3 (Foreground)
//Storyboard Sound Samples

[TimingPoints]
-2,468.75,4,2,0,100,1,0
75000,-76.9230769230769,4,2,0,100,0,0
104998,-76.9230769230769,4,1,0,100,0,1
112498,-76.9230769230769,4,1,0,100,0,0
120466,-76.9230769230769,4,2,0,100,0,1
134998,-76.9230769230769,4,2,0,100,0,0
149998,-100,4,2,0,100,0,0

[Colours]
Combo1 : 0,255,255
Combo2 : 0,202,0
Combo3 : 18,124,255
Combo4 : 242,24,57
Combo5 : 255,192,0

[HitObjects]
256,192,24373,12,0,29998,0:0:0:0:
136,224,44998,6,2,P|56:124|56:36,2,200
112,304,46404,1,0,0:0:0:0:
208,260,46638,1,0,0:0:0:0:
300,220,46873,6,0,L|252:332,2,100
364,96,47810,1,0,0:0:0:0:
168,60,48279,1,0,0:0:0:0:
116,144,48513,1,0,0:0:0:0:
172,224,48748,6,2,L|40:224,2,100
372,224,49685,1,0,0:0:0:0:
360,68,50154,1,0,0:0:0:0:
308,152,50388,1,0,0:0:0:0:
216,272,50623,6,2,L|92:348,2,100
336,216,51560,1,0,0:0:0:0:
472,112,52029,1,0,0:0:0:0:
404,160,52263,1,0,0:0:0:0:
328,224,52498,6,0,P|416:256|460:348,2,200
184,228,53904,1,0,0:0:0:0:
108,196,54138,1,0,0:0:0:0:
108,116,54373,5,0,0:0:0:0:
180,84,54607,1,0,0:0:0:0:
268,80,54841,2,0,B|292:40|292:40|448:52,1,200
448,144,55779,1,0,0:0:0:0:
372,208,56013,1,0,0:0:0:0:
300,276,56248,6,2,L|400:340,2,100
216,244,57185,2,0,B|100:208|100:208|132:128,1,200
196,88,58123,6,2,P|156:48|76:32,2,100
296,212,59060,1,0,0:0:0:0:
448,336,59529,2,0,L|376:220,1,100
328,176,59998,6,0,P|416:120|464:32,2,200
132,224,61404,1,0,0:0:0:0:
112,128,61638,1,0,0:0:0:0:
188,64,61873,6,2,P|232:36|284:36,2,100
64,220,62810,1,0,0:0:0:0:
236,324,63279,1,0,0:0:0:0:
320,268,63513,1,0,0:0:0:0:
364,180,63748,6,0,B|376:88|224:148|224:68,2,200
248,344,65154,1,0,0:0:0:0:
160,316,65388,1,0,0:0:0:0:
84,268,65623,6,0,P|68:320|32:352,2,100,2|0|2,0:0|0:0|0:0,0:0:0:0:
112,76,66560,2,0,P|192:48|316:56,1,200
408,52,67263,1,0,0:0:0:0:
408,152,67498,6,0,B|460:248|304:164|276:288,2,200
244,40,68904,1,0,0:0:0:0:
120,108,69138,1,0,0:0:0:0:
144,204,69373,6,0,P|80:204|72:272,2,100
304,300,70310,2,0,P|416:284|420:172,1,200
340,228,71013,1,0,0:0:0:0:
220,236,71248,6,0,P|156:240|120:272,2,100
328,320,72185,2,0,P|424:264|400:196,1,200
352,252,72888,1,0,0:0:0:0:
344,152,73123,6,0,P|420:160|456:148,2,100
132,92,74060,2,0,P|72:112|72:164,1,100
60,244,74529,2,0,P|80:300|120:312,1,100
244,320,74998,5,0,0:0:0:0:
424,312,75466,1,0,0:0:0:0:
464,124,75818,1,2,0:0:0:0:
368,36,76052,2,2,P|340:120|308:152,1,129.999994049073
304,152,76404,1,2,0:0:0:0:
220,52,76638,1,2,0:0:0:0:
124,76,76873,6,8,P|68:116|68:224,1,129.999994049073
72,300,77341,2,2,P|96:340|192:312,1,129.999994049073
184,336,77693,1,2,0:0:0:0:
312,340,77927,2,2,P|388:316|428:264,1,129.999994049073
428,268,78279,1,2,0:0:0:0:
468,144,78513,1,2,0:0:0:0:
416,24,78748,6,8,P|376:76|304:84,1,129.999994049073
196,40,79216,2,2,P|139:48|76:104,1,129.999994049073
80,104,79568,1,2,0:0:0:0:
76,232,79802,2,2,P|92:284|164:304,1,129.999994049073
168,308,80154,1,2,0:0:0:0:
296,328,80388,1,2,0:0:0:0:
428,328,80623,6,8,P|464:280|460:192,1,129.999994049073
428,88,81091,2,2,P|376:108|300:104,1,129.999994049073
288,100,81443,1,2,0:0:0:0:
160,76,81677,2,2,P|88:92|40:168,1,129.999994049073
56,168,82029,2,8,L|92:224,3,64.9999970245363
108,248,82498,6,8,P|156:304|256:320,1,129.999994049073
336,328,82966,2,2,P|424:288|440:204,1,129.999994049073
444,244,83318,1,2,0:0:0:0:
448,116,83552,2,2,P|408:84|320:56,1,129.999994049073
316,56,83904,1,2,0:0:0:0:
148,104,84138,1,2,0:0:0:0:
64,204,84373,6,8,P|36:248|76:328,1,129.999994049073
188,340,84841,2,2,B|316:352|368:328,1,129.999994049073
332,340,85193,1,2,0:0:0:0:
416,244,85427,2,2,P|456:168|404:88,1,129.999994049073
432,112,85779,1,2,0:0:0:0:
316,52,86013,1,2,0:0:0:0:
248,164,86248,6,8,P|192:232|128:228,1,129.999994049073
56,152,86716,2,2,P|100:76|176:64,1,129.999994049073
152,60,87068,1,2,0:0:0:0:
280,56,87302,2,2,L|424:56,1,129.999994049073
420,56,87654,1,2,0:0:0:0:
448,184,87888,1,2,0:0:0:0:
456,312,88123,6,8,P|360:328|296:324,1,129.999994049073
196,320,88591,2,0,P|128:292|96:216,1,129.999994049073
104,228,88943,1,2,0:0:0:0:
148,108,89177,1,2,0:0:0:0:
276,76,89412,1,2,0:0:0:0:
304,80,89529,2,2,L|376:104,3,64.9999970245363
380,120,89998,5,4,0:0:0:0:
424,244,90232,2,8,L|432:332,2,64.9999970245363
296,268,90701,2,8,L|296:352,2,64.9999970245363
180,324,91169,1,8,0:0:0:0:
100,240,91404,1,4,0:0:0:0:
100,128,91873,5,4,0:0:0:0:
228,104,92107,2,8,L|200:44,2,64.9999970245363
312,104,92576,2,8,L|368:40,2,64.9999970245363
224,200,93044,1,8,0:0:0:0:
72,288,93279,1,4,0:0:0:0:
172,344,93748,5,4,0:0:0:0:
248,260,93982,1,8,0:0:0:0:
232,252,94099,1,8,0:0:0:0:
212,240,94216,2,8,P|172:188|232:152,1,129.999994049073
216,148,94568,1,8,0:0:0:0:
224,148,94685,1,8,0:0:0:0:
352,144,94919,2,8,P|368:72|288:44,1,129.999994049073
196,48,95623,5,4,0:0:0:0:
160,132,95857,1,8,0:0:0:0:
180,136,95974,1,8,0:0:0:0:
192,136,96091,2,8,P|232:160|212:232,1,129.999994049073
200,232,96443,1,8,0:0:0:0:
188,236,96560,1,8,0:0:0:0:
68,276,96794,2,8,P|104:324|188:344,1,129.999994049073
404,236,97498,5,4,0:0:0:0:
324,132,97732,2,8,L|372:72,2,64.9999970245363
192,124,98201,2,8,L|192:56,2,64.9999970245363
84,200,98669,2,8,P|68:264|132:332,1,129.999994049073
352,312,99373,5,4,0:0:0:0:
248,232,99607,2,8,L|324:236,2,64.9999970245363
116,228,100076,2,8,L|64:304,2,64.9999970245363
180,116,100544,2,8,P|260:60|332:72,1,129.999994049073
416,92,101248,6,8,L|364:136,3,64.9999970245363
360,148,101716,2,8,L|324:216,3,64.9999970245363
324,216,102185,2,8,L|300:284,3,64.9999970245363
284,284,102654,2,8,L|216:296,3,64.9999970245363
200,288,103123,6,8,L|144:232,3,64.9999970245363
136,216,103591,2,8,L|128:144,3,64.9999970245363
120,52,104412,6,8,L|228:64,1,64.9999970245363
316,68,104763,5,4,0:0:0:0:
408,152,104998,5,4,0:0:0:0:
212,320,105466,1,0,0:0:0:0:
76,180,105818,2,0,P|120:128|188:104,1,129.999994049073
280,80,106287,1,0,0:0:0:0:
304,68,106404,2,0,P|380:52|396:132,1,129.999994049073
408,244,106873,6,2,P|356:200|336:136,1,129.999994049073
304,40,107341,1,0,0:0:0:0:
200,68,107693,2,0,P|136:88|68:144,1,129.999994049073
96,256,108162,1,0,0:0:0:0:
104,264,108279,1,0,0:0:0:0:
228,308,108513,1,0,0:0:0:0:
356,292,108748,6,8,P|400:336|412:364,2,64.9999970245363
276,188,109216,1,0,0:0:0:0:
132,112,109568,2,0,P|124:56|200:48,1,129.999994049073
312,52,110037,1,0,0:0:0:0:
320,52,110154,1,0,0:0:0:0:
452,52,110388,1,0,0:0:0:0:
444,184,110623,6,2,P|448:256|384:304,1,129.999994049073
280,296,111091,1,0,0:0:0:0:
184,128,111443,1,0,0:0:0:0:
312,124,111677,1,0,0:0:0:0:
232,228,111912,1,0,0:0:0:0:
224,236,112029,1,0,0:0:0:0:
120,312,112263,1,0,0:0:0:0:
84,188,112498,6,8,P|84:124|148:96,1,129.999994049073
268,96,112966,1,0,0:0:0:0:
432,200,113318,2,2,P|424:280|344:320,1,129.999994049073
260,324,113787,1,0,0:0:0:0:
244,320,113904,1,0,0:0:0:0:
116,292,114138,1,0,0:0:0:0:
44,184,114373,6,8,P|88:128|120:200,1,129.999994049073
168,276,114841,1,0,0:0:0:0:
348,348,115193,2,2,P|416:304|432:232,1,129.999994049073
432,132,115662,2,0,P|408:104|368:100,1,64.9999970245363
252,92,116013,1,0,0:0:0:0:
128,128,116248,6,8,B|88:108|88:108|76:72,2,64.9999970245363
256,160,116716,1,0,0:0:0:0:
440,220,117068,2,2,P|416:288|344:316,1,129.999994049073
236,316,117537,1,0,0:0:0:0:
224,316,117654,1,0,0:0:0:0:
96,312,117888,1,0,0:0:0:0:
44,192,118123,6,8,P|60:116|140:92,1,129.999994049073
232,88,118591,1,0,0:0:0:0:
424,56,118943,2,2,P|444:112|388:152,1,129.999994049073
272,184,119412,1,0,0:0:0:0:
244,196,119529,2,0,L|172:228,3,64.9999970245363
160,232,119998,6,8,P|144:296|228:348,1,129.999994049073
312,332,120466,1,4,0:0:0:0:
440,184,120818,2,0,P|460:108|416:64,1,129.999994049073
300,76,121287,2,0,L|232:80,1,64.9999970245363
112,120,121638,1,0,0:0:0:0:
84,248,121873,6,8,P|96:316|188:332,1,129.999994049073
276,336,122341,1,0,0:0:0:0:
456,256,122693,2,2,P|436:324|344:332,1,129.999994049073
276,336,123162,1,0,0:0:0:0:
272,336,123279,1,0,0:0:0:0:
164,264,123513,1,0,0:0:0:0:
68,184,123748,6,8,B|44:228|44:228|68:268,2,64.9999970245363
148,80,124216,1,0,0:0:0:0:
344,68,124568,2,2,P|400:84|432:164,1,129.999994049073
432,276,125037,2,0,P|412:312|376:320,1,64.9999970245363
260,324,125388,1,0,0:0:0:0:
136,284,125623,5,8,0:0:0:0:
48,184,125857,1,8,0:0:0:0:
172,148,126091,1,0,0:0:0:0:
364,116,126443,2,0,P|400:140|404:200,1,64.9999970245363
440,292,126912,1,0,0:0:0:0:
420,292,127029,2,8,P|384:280|344:292,3,64.9999970245363
352,288,127498,6,8,P|296:332|220:316,1,129.999994049073
132,256,127966,1,0,0:0:0:0:
60,76,128318,2,2,P|124:48|208:48,1,129.999994049073
312,48,128787,2,0,P|352:48|376:72,1,64.9999970245363
456,168,129138,1,0,0:0:0:0:
436,296,129373,6,0,P|384:336|304:344,1,129.999994049073
192,336,129841,1,0,0:0:0:0:
68,184,130193,2,2,P|96:120|208:104,1,129.999994049073
276,76,130662,2,0,P|324:80|340:124,1,64.9999970245363
388,208,131013,1,0,0:0:0:0:
396,340,131248,6,8,P|448:304|452:212,1,129.999994049073
420,120,131716,1,0,0:0:0:0:
264,56,132068,2,2,P|200:40|140:100,1,129.999994049073
88,180,132537,1,0,0:0:0:0:
88,192,132654,1,0,0:0:0:0:
128,316,132888,1,0,0:0:0:0:
256,336,133123,6,8,P|336:332|392:300,1,129.999994049073
440,196,133591,1,0,0:0:0:0:
284,80,133943,2,0,P|220:88|232:144,1,129.999994049073
324,232,134412,1,0,0:0:0:0:
336,240,134529,2,0,L|392:292,4,64.9999970245363
136,92,149998,6,0,P|88:144|96:224,1,150
96,228,150466,1,0,0:0:0:0:
164,308,150701,1,0,0:0:0:0:
260,336,150935,2,0,P|368:308|404:272,1,150
400,272,151404,1,0,0:0:0:0:
424,176,151638,1,0,0:0:0:0:
416,76,151873,6,0,P|328:80|316:152,1,150
312,144,152341,1,0,0:0:0:0:
336,240,152576,1,0,0:0:0:0:
320,340,152810,2,0,B|224:344|224:344|160:308,1,150
168,312,153279,1,0,0:0:0:0:
112,228,153513,1,0,0:0:0:0:
88,132,153748,6,0,P|124:76|232:56,1,150
216,52,154216,1,0,0:0:0:0:
312,56,154451,1,0,0:0:0:0:
400,100,154685,2,0,P|388:160|304:208,1,150
292,200,155154,1,0,0:0:0:0:
224,124,155388,1,0,0:0:0:0:
144,64,155623,6,0,P|64:112|52:192,1,150
52,180,156091,1,0,0:0:0:0:
84,276,156326,1,0,0:0:0:0:
168,332,156560,2,0,P|248:328|272:272,1,150
268,252,157029,1,0,0:0:0:0:
228,160,157263,1,0,0:0:0:0:
196,64,157498,6,0,B|256:60|256:60|276:96|276:96|352:120,1,150
336,112,157966,1,0,0:0:0:0:
440,104,158201,1,0,0:0:0:0:
376,196,158435,2,0,B|336:224|336:224|384:252|384:252|344:284,1,150
336,284,158904,1,0,0:0:0:0:
228,316,159138,1,0,0:0:0:0:
128,312,159373,6,0,P|84:248|116:184,1,150
120,180,159841,1,0,0:0:0:0:
188,108,160076,1,0,0:0:0:0:
232,196,160310,2,0,P|304:172|352:96,1,150
352,104,160779,1,0,0:0:0:0:
256,56,161013,1,0,0:0:0:0:
156,52,161248,6,0,P|88:112|88:168,1,150
92,176,161716,1,0,0:0:0:0:
164,248,161951,1,0,0:0:0:0:
264,264,162185,2,0,P|340:160|324:116,1,150
336,140,162654,1,0,0:0:0:0:
256,192,163123,8,0,164998,0:0:0:0:
