osu file format v14

[General]
AudioFilename: KakushintekiMetamaruphose!.mp3
AudioLeadIn: 0
PreviewTime: 58223
Countdown: 0
SampleSet: Soft
StackLeniency: 0.7
Mode: 3
LetterboxInBreaks: 0
SpecialStyle: 0
WidescreenStoryboard: 0

[Editor]
DistanceSpacing: 1.2
BeatDivisor: 4
GridSize: 4
TimelineZoom: 1.999999

[Metadata]
Title:Kakushinteki*Metamaruphose!
TitleUnicode:かくしん的☆めたまるふぉ~ぜっ!
Artist:Doma Umaru [CV.Tanaka Aimi]
ArtistUnicode:土間うまる [CV.田中あいみ]
Creator:Kuo Kyoka
Version:4K Lv.23
Source:干物妹!うまるちゃん
Tags:Himouto! Umaruchan Opening TV Size
BeatmapID:771272
BeatmapSetID:349774

[Difficulty]
HPDrainRate:8
CircleSize:4
OverallDifficulty:8
ApproachRate:5
SliderMultiplier:1.4
SliderTickRate:1

[Events]
//Background and Video events
0,0,"BG.jpg",0,0
Video,65,"Umaru.avi"
//Break Periods
//Storyboard Layer 0 (Background)
//Storyboard Layer 1 (Fail)
//Storyboard Layer 2 (Pass)
//Storyboard Layer 3 (Foreground)
//Storyboard Sound Samples
Sample,577,0,"bass.wav",70
Sample,649,0,"bass.wav",70
Sample,721,0,"bass.wav",70
Sample,793,0,"drum.wav",70
Sample,1009,0,"bass.wav",70
Sample,1081,0,"bass.wav",70
Sample,1153,0,"bass.wav",70
Sample,1440,0,"kick.wav",70
Sample,1548,0,"bass.wav",70
Sample,1656,0,"crash.wav",70
Sample,4246,0,"kick.wav",65
Sample,8563,0,"crash.wav",70
Sample,15469,0,"crash.wav",70
Sample,21620,0,"bass.wav",50
Sample,21836,0,"bass.wav",50
Sample,23455,0,"bass.wav",50
Sample,24858,0,"bass.wav",50
Sample,25073,0,"bass.wav",50
Sample,25289,0,"bass.wav",50
Sample,25721,0,"bass.wav",50
Sample,26153,0,"cymbol.wav",70
Sample,26476,0,"drum.wav",70
Sample,27771,0,"snare.wav",40
Sample,27987,0,"snare.wav",40
Sample,28742,0,"snare.wav",40
Sample,30469,0,"snare.wav",40
Sample,30469,0,"kick.wav",40
Sample,31224,0,"snare.wav",40
Sample,32519,0,"snare.wav",40
Sample,32735,0,"snare.wav",40
Sample,33922,0,"snare.wav",40
Sample,33922,0,"kick.wav",40
Sample,35217,0,"kick.wav",40
Sample,35217,0,"snare.wav",40
Sample,35433,0,"snare.wav",40
Sample,35433,0,"kick.wav",40
Sample,35649,0,"snare.wav",40
Sample,36224,0,"down.wav",8
Sample,36260,0,"down.wav",8
Sample,36296,0,"down.wav",8
Sample,36332,0,"down.wav",8
Sample,36404,0,"down.wav",8
Sample,36404,0,"snare.wav",40
Sample,36440,0,"down.wav",8
Sample,36476,0,"down.wav",8
Sample,36512,0,"down.wav",8
Sample,36548,0,"down.wav",8
Sample,37376,0,"snare.wav",40
Sample,38131,0,"snare.wav",40
Sample,38563,0,"kick.wav",40
Sample,38994,0,"snare.wav",40
Sample,46192,0,"drum.wav",25
Sample,51317,0,"cymbol.wav",75
Sample,52180,0,"cymbol.wav",65
Sample,57575,0,"cymbol.wav",65
Sample,57791,0,"crash.wav",35
Sample,58007,0,"kick.wav",55
Sample,59086,0,"kick.wav",45
Sample,62863,0,"hihat.wav",25
Sample,63079,0,"hihat.wav",25
Sample,63727,0,"hihat.wav",25
Sample,63942,0,"hihat.wav",25
Sample,64806,0,"bass.wav",70
Sample,64806,0,"kick.wav",70
Sample,65237,0,"bass.wav",70
Sample,65345,0,"kick.wav",70
Sample,65993,0,"bass.wav",50
Sample,66424,0,"bass.wav",50
Sample,67288,0,"cymbol.wav",65
Sample,67719,0,"bass.wav",50
Sample,68151,0,"cymbol.wav",65
Sample,68151,0,"bass.wav",50
Sample,69014,0,"cymbol.wav",65
Sample,69770,0,"hihat.wav",25
Sample,69986,0,"hihat.wav",25
Sample,70633,0,"hihat.wav",25
Sample,70849,0,"hihat.wav",25
Sample,71604,0,"kick.wav",65
Sample,73547,0,"cymbol.wav",65
Sample,74410,0,"cymbol.wav",65
Sample,75381,0,"bass.wav",50
Sample,75597,0,"kick.wav",65
Sample,81388,0,"snare.wav",55
Sample,81460,0,"snare.wav",55
Sample,81964,0,"cymbol.wav",55
Sample,82396,0,"crash.wav",55
Sample,82827,0,"cymbol.wav",55
Sample,83259,0,"cymbol.wav",55
Sample,83691,0,"crash.wav",55
Sample,84122,0,"cymbol.wav",55
Sample,84554,0,"crash.wav",55
Sample,85849,0,"snare.wav",55

[TimingPoints]
-70,215.827338129496,4,2,1,20,1,0
41368,301.507537688442,3,2,1,20,1,0
41368,-71.4285714285714,3,2,1,20,0,0
51317,215.827338129496,4,2,1,20,1,0
59086,-100,4,2,1,20,0,1
72468,-100,4,2,1,20,0,0
72899,-100,4,2,1,20,0,1
88439,-100,4,2,1,20,0,0

[HitObjects]
64,192,577,5,0,0:0:0:70:kick.wav
192,192,649,1,0,0:0:0:70:kick.wav
320,192,721,1,0,0:0:0:70:kick.wav
448,192,793,1,0,0:0:0:70:bass.wav
64,192,793,1,0,0:0:0:70:kick.wav
448,192,1009,1,0,0:0:0:70:kickdrum.wav
320,192,1081,1,0,0:0:0:70:kickdrum.wav
192,192,1153,1,0,0:0:0:70:kickdrum.wav
64,192,1224,1,0,0:0:0:70:kickdrum.wav
448,192,1224,1,0,0:0:0:70:bass.wav
64,192,1440,1,0,0:0:0:70:bass.wav
192,192,1548,1,0,0:0:0:70:kick.wav
320,192,1656,1,0,0:0:0:70:bass.wav
448,192,1656,1,0,0:0:0:70:kick.wav
64,192,1872,1,0,0:0:0:50:bass.wav
192,192,1872,1,0,0:0:0:0:
320,192,1980,1,0,0:0:0:50:bass.wav
448,192,2088,1,0,0:0:0:50:bass.wav
64,192,2088,1,0,0:0:0:65:drum.wav
192,192,2196,1,0,0:0:0:50:bass.wav
320,192,2304,1,0,0:0:0:50:bass.wav
192,192,2412,1,0,0:0:0:50:bass.wav
64,192,2519,1,0,0:0:0:50:bass.wav
448,192,2519,1,0,0:0:0:65:kick.wav
320,192,2627,1,0,0:0:0:50:bass.wav
192,192,2735,1,0,0:0:0:50:bass.wav
64,192,2735,1,0,0:0:0:0:
320,192,2843,1,0,0:0:0:50:bass.wav
448,192,2951,1,0,0:0:0:50:bass.wav
64,192,2951,1,0,0:0:0:65:drum.wav
192,192,3059,1,0,0:0:0:50:bass.wav
320,192,3167,1,0,0:0:0:50:bass.wav
448,192,3167,1,0,0:0:0:0:
192,192,3239,1,0,0:0:0:25:kickdrum.wav
320,192,3311,1,0,0:0:0:25:kickdrum.wav
64,192,3383,1,0,0:0:0:50:bass.wav
448,192,3383,1,0,0:0:0:65:kick.wav
320,192,3491,1,0,0:0:0:50:bass.wav
192,192,3599,1,0,0:0:0:50:bass.wav
64,192,3599,1,0,0:0:0:0:
320,192,3706,1,0,0:0:0:50:bass.wav
448,192,3814,1,0,0:0:0:50:bass.wav
64,192,3814,1,0,0:0:0:65:drum.wav
192,192,3922,1,0,0:0:0:50:bass.wav
320,192,4030,1,0,0:0:0:50:bass.wav
448,192,4030,1,0,0:0:0:0:
64,192,4138,1,0,0:0:0:50:bass.wav
448,192,4246,128,0,4462:0:0:0:50:bass.wav
192,192,4462,128,0,4678:0:0:0:65:snare.wav
64,192,4462,1,0,0:0:0:0:
448,192,4678,128,0,4894:0:0:0:65:kick.wav
320,192,4678,1,0,0:0:0:50:bass.wav
64,192,4894,1,0,0:0:0:65:snare.wav
320,192,5109,1,0,0:0:0:50:bass.wav
448,192,5109,1,0,0:0:0:65:kick.wav
192,192,5217,1,0,0:0:0:50:bass.wav
448,192,5325,1,0,0:0:0:50:bass.wav
64,192,5325,1,0,0:0:0:0:
320,192,5433,1,0,0:0:0:50:bass.wav
192,192,5541,1,0,0:0:0:50:bass.wav
64,192,5541,1,0,0:0:0:65:drum.wav
448,192,5649,1,0,0:0:0:50:bass.wav
320,192,5757,1,0,0:0:0:50:bass.wav
192,192,5757,1,0,0:0:0:0:
64,192,5865,1,0,0:0:0:50:bass.wav
320,192,5973,1,0,0:0:0:50:bass.wav
448,192,5973,1,0,0:0:0:65:kick.wav
192,192,6081,1,0,0:0:0:50:bass.wav
64,192,6188,1,0,0:0:0:50:bass.wav
448,192,6188,1,0,0:0:0:0:
320,192,6296,1,0,0:0:0:50:bass.wav
192,192,6404,1,0,0:0:0:50:bass.wav
64,192,6404,1,0,0:0:0:65:drum.wav
320,192,6512,1,0,0:0:0:50:bass.wav
448,192,6620,1,0,0:0:0:50:bass.wav
64,192,6620,1,0,0:0:0:0:
192,192,6728,1,0,0:0:0:50:bass.wav
320,192,6836,1,0,0:0:0:50:bass.wav
448,192,6836,1,0,0:0:0:65:kick.wav
64,192,6908,1,0,0:0:0:35:hihat.wav
192,192,6980,1,0,0:0:0:35:hihat.wav
320,192,7052,1,0,0:0:0:45:bass.wav
448,192,7052,1,0,0:0:0:0:
64,192,7124,1,0,0:0:0:35:hihat.wav
192,192,7196,1,0,0:0:0:35:hihat.wav
320,192,7268,1,0,0:0:0:45:bass.wav
448,192,7268,1,0,0:0:0:0:
64,192,7340,1,0,0:0:0:35:hihat.wav
192,192,7412,1,0,0:0:0:35:hihat.wav
320,192,7483,1,0,0:0:0:45:bass.wav
448,192,7483,1,0,0:0:0:65:drum.wav
64,192,7555,1,0,0:0:0:35:hihat.wav
192,192,7627,1,0,0:0:0:35:hihat.wav
320,192,7699,1,0,0:0:0:70:drum.wav
448,192,7699,1,0,0:0:0:75:kick.wav
64,192,7915,128,0,8131:0:0:0:0:
320,192,8131,128,0,8347:0:0:0:0:
64,192,8347,128,0,8563:0:0:0:0:
320,192,8563,1,0,0:0:0:70:cymbol.wav
448,192,8563,1,0,0:0:0:70:drum.wav
192,192,8635,1,0,0:0:0:30:hihat.wav
64,192,8706,1,0,0:0:0:30:hihat.wav
448,192,8778,1,0,0:0:0:30:hihat.wav
320,192,8850,1,0,0:0:0:30:hihat.wav
192,192,8922,1,0,0:0:0:30:hihat.wav
320,192,8994,1,0,0:0:0:30:hihat.wav
64,192,9066,1,0,0:0:0:30:hihat.wav
192,192,9138,1,0,0:0:0:30:hihat.wav
448,192,9210,1,0,0:0:0:30:hihat.wav
320,192,9282,1,0,0:0:0:30:hihat.wav
192,192,9354,1,0,0:0:0:30:hihat.wav
448,192,9426,1,0,0:0:0:70:drum.wav
64,192,9426,1,0,0:0:0:70:cymbol.wav
320,192,9498,1,0,0:0:0:30:hihat.wav
192,192,9570,1,0,0:0:0:30:hihat.wav
320,192,9642,1,0,0:0:0:30:hihat.wav
448,192,9714,1,0,0:0:0:30:hihat.wav
64,192,9786,1,0,0:0:0:30:hihat.wav
192,192,9858,1,0,0:0:0:30:hihat.wav
320,192,9929,1,0,0:0:0:30:hihat.wav
192,192,10001,1,0,0:0:0:30:hihat.wav
64,192,10073,1,0,0:0:0:30:hihat.wav
448,192,10145,1,0,0:0:0:30:hihat.wav
320,192,10217,1,0,0:0:0:30:hihat.wav
192,192,10289,1,0,0:0:0:70:cymbol.wav
64,192,10289,1,0,0:0:0:70:drum.wav
448,192,10361,1,0,0:0:0:30:hihat.wav
320,192,10433,1,0,0:0:0:30:hihat.wav
64,192,10505,1,0,0:0:0:30:hihat.wav
192,192,10577,1,0,0:0:0:30:hihat.wav
320,192,10649,1,0,0:0:0:30:hihat.wav
448,192,10721,1,0,0:0:0:30:hihat.wav
64,192,10793,1,0,0:0:0:30:hihat.wav
192,192,10865,1,0,0:0:0:30:hihat.wav
448,192,10937,1,0,0:0:0:30:hihat.wav
320,192,11009,1,0,0:0:0:30:hihat.wav
192,192,11081,1,0,0:0:0:30:hihat.wav
64,192,11153,1,0,0:0:0:70:drum.wav
448,192,11153,1,0,0:0:0:70:cymbol.wav
320,192,11224,1,0,0:0:0:30:hihat.wav
192,192,11296,1,0,0:0:0:30:hihat.wav
64,192,11368,1,0,0:0:0:30:hihat.wav
448,192,11440,1,0,0:0:0:30:hihat.wav
320,192,11512,1,0,0:0:0:30:hihat.wav
192,192,11584,1,0,0:0:0:70:cymbol.wav
64,192,11584,1,0,0:0:0:70:drum.wav
448,192,11656,1,0,0:0:0:30:hihat.wav
320,192,11728,1,0,0:0:0:30:hihat.wav
64,192,11800,1,0,0:0:0:30:hihat.wav
192,192,11872,1,0,0:0:0:30:hihat.wav
320,192,11944,1,0,0:0:0:30:hihat.wav
448,192,12016,1,0,0:0:0:70:drum.wav
64,192,12016,1,0,0:0:0:70:cymbol.wav
192,192,12088,1,0,0:0:0:30:hihat.wav
320,192,12160,1,0,0:0:0:30:hihat.wav
448,192,12232,1,0,0:0:0:30:hihat.wav
320,192,12304,1,0,0:0:0:30:hihat.wav
64,192,12376,1,0,0:0:0:30:hihat.wav
192,192,12447,1,0,0:0:0:30:hihat.wav
320,192,12519,1,0,0:0:0:30:hihat.wav
64,192,12591,1,0,0:0:0:30:hihat.wav
192,192,12663,1,0,0:0:0:30:hihat.wav
448,192,12735,1,0,0:0:0:30:hihat.wav
320,192,12807,1,0,0:0:0:30:hihat.wav
192,192,12879,1,0,0:0:0:70:cymbol.wav
64,192,12879,1,0,0:0:0:70:drum.wav
448,192,12951,1,0,0:0:0:30:hihat.wav
320,192,13023,1,0,0:0:0:30:hihat.wav
192,192,13095,1,0,0:0:0:30:hihat.wav
64,192,13167,1,0,0:0:0:30:hihat.wav
320,192,13239,1,0,0:0:0:30:hihat.wav
192,192,13311,1,0,0:0:0:30:hihat.wav
320,192,13383,1,0,0:0:0:30:hihat.wav
448,192,13455,1,0,0:0:0:30:hihat.wav
64,192,13527,1,0,0:0:0:30:hihat.wav
192,192,13599,1,0,0:0:0:30:hihat.wav
320,192,13671,1,0,0:0:0:30:hihat.wav
448,192,13742,1,0,0:0:0:70:drum.wav
64,192,13742,1,0,0:0:0:70:cymbol.wav
192,192,13814,1,0,0:0:0:30:hihat.wav
320,192,13886,1,0,0:0:0:30:hihat.wav
448,192,13958,1,0,0:0:0:30:hihat.wav
320,192,14030,1,0,0:0:0:30:hihat.wav
192,192,14102,1,0,0:0:0:30:hihat.wav
448,192,14174,1,0,0:0:0:30:hihat.wav
320,192,14246,1,0,0:0:0:30:hihat.wav
64,192,14318,1,0,0:0:0:30:hihat.wav
192,192,14390,1,0,0:0:0:30:hihat.wav
320,192,14462,1,0,0:0:0:30:hihat.wav
448,192,14534,1,0,0:0:0:30:hihat.wav
192,192,14606,1,0,0:0:0:70:cymbol.wav
64,192,14606,1,0,0:0:0:70:drum.wav
320,192,14678,1,0,0:0:0:30:hihat.wav
448,192,14750,1,0,0:0:0:30:hihat.wav
64,192,14822,1,0,0:0:0:30:hihat.wav
192,192,14894,1,0,0:0:0:30:hihat.wav
320,192,14965,1,0,0:0:0:30:hihat.wav
448,192,15037,1,0,0:0:0:70:drum.wav
64,192,15037,1,0,0:0:0:70:cymbol.wav
192,192,15109,1,0,0:0:0:30:hihat.wav
320,192,15181,1,0,0:0:0:30:hihat.wav
448,192,15253,1,0,0:0:0:30:hihat.wav
64,192,15325,1,0,0:0:0:30:hihat.wav
192,192,15397,1,0,0:0:0:30:hihat.wav
320,192,15469,1,0,0:0:0:70:cymbol.wav
448,192,15469,1,0,0:0:0:70:drum.wav
64,192,15685,1,0,0:0:0:65:snare.wav
192,192,15685,1,0,0:0:0:0:
448,192,15901,1,0,0:0:0:65:drum.wav
192,192,16117,1,0,0:0:0:65:snare.wav
64,192,16117,1,0,0:0:0:0:
448,192,16332,1,0,0:0:0:65:drum.wav
64,192,16332,1,0,0:0:0:0:
320,192,16548,1,0,0:0:0:65:snare.wav
448,192,16548,1,0,0:0:0:0:
64,192,16764,1,0,0:0:0:65:drum.wav
320,192,16980,1,0,0:0:0:65:snare.wav
448,192,16980,1,0,0:0:0:0:
192,192,17196,1,0,0:0:0:70:cymbol.wav
64,192,17196,1,0,0:0:0:70:drum.wav
448,192,17268,1,0,0:0:0:35:hihat.wav
320,192,17340,1,0,0:0:0:35:hihat.wav
192,192,17412,1,0,0:0:0:65:snare.wav
64,192,17412,1,0,0:0:0:0:
320,192,17627,1,0,0:0:0:70:drum.wav
448,192,17627,1,0,0:0:0:70:cymbol.wav
64,192,17699,1,0,0:0:0:35:hihat.wav
192,192,17771,1,0,0:0:0:35:hihat.wav
320,192,17843,1,0,0:0:0:65:snare.wav
448,192,17843,1,0,0:0:0:0:
192,192,18059,1,0,0:0:0:70:cymbol.wav
64,192,18059,1,0,0:0:0:70:drum.wav
448,192,18131,1,0,0:0:0:35:hihat.wav
320,192,18203,1,0,0:0:0:35:hihat.wav
192,192,18275,1,0,0:0:0:65:snare.wav
64,192,18275,1,0,0:0:0:0:
320,192,18491,1,0,0:0:0:70:drum.wav
448,192,18491,1,0,0:0:0:70:cymbol.wav
64,192,18563,1,0,0:0:0:35:hihat.wav
192,192,18635,1,0,0:0:0:35:hihat.wav
320,192,18706,1,0,0:0:0:65:snare.wav
448,192,18706,1,0,0:0:0:0:
64,192,18922,1,0,0:0:0:40:bass.wav
192,192,18922,1,0,0:0:0:0:
320,192,19030,1,0,0:0:0:40:bass.wav
448,192,19030,1,0,0:0:0:0:
64,192,19138,1,0,0:0:0:40:bass.wav
192,192,19138,1,0,0:0:0:0:
448,192,19246,1,0,0:0:0:40:bass.wav
320,192,19246,1,0,0:0:0:0:
64,192,19354,1,0,0:0:0:40:bass.wav
192,192,19354,1,0,0:0:0:0:
320,192,19462,1,0,0:0:0:40:bass.wav
448,192,19462,1,0,0:0:0:0:
192,192,19570,1,0,0:0:0:40:bass.wav
64,192,19570,1,0,0:0:0:0:
320,192,19678,1,0,0:0:0:40:bass.wav
448,192,19678,1,0,0:0:0:0:
64,192,19786,1,0,0:0:0:40:bass.wav
192,192,19786,1,0,0:0:0:40:kick.wav
448,192,19786,1,0,0:0:0:0:
64,192,20217,1,0,0:0:0:70:drum.wav
192,192,20217,1,0,0:0:0:70:cymbol.wav
448,192,20217,1,0,0:0:0:0:
320,192,20433,1,0,0:0:0:70:cymbol.wav
448,192,20433,1,0,0:0:0:70:drum.wav
64,192,20433,1,0,0:0:0:0:
192,192,20649,1,0,0:0:0:70:crash.wav
64,192,20649,1,0,0:0:0:70:drum.wav
320,192,20649,1,0,0:0:0:70:cymbol.wav
448,192,20649,1,0,0:0:0:0:
320,192,20757,1,0,0:0:0:50:bass.wav
448,192,20757,1,0,0:0:0:0:
192,192,20865,1,0,0:0:0:50:bass.wav
64,192,20865,1,0,0:0:0:60:kickdrum.wav
320,192,20973,1,0,0:0:0:50:bass.wav
448,192,21081,1,0,0:0:0:70:drum.wav
64,192,21081,1,0,0:0:0:70:cymbol.wav
192,192,21188,1,0,0:0:0:50:bass.wav
320,192,21296,1,0,0:0:0:60:kickdrum.wav
448,192,21296,1,0,0:0:0:50:bass.wav
192,192,21404,1,0,0:0:0:50:bass.wav
64,192,21512,1,0,0:0:0:70:cymbol.wav
448,192,21512,1,0,0:0:0:70:drum.wav
320,192,21620,1,0,0:0:0:60:kickdrum.wav
192,192,21620,1,0,0:0:0:50:bass.wav
320,192,21836,1,0,0:0:0:60:kickdrum.wav
192,192,21836,1,0,0:0:0:0:
448,192,21944,1,0,0:0:0:70:drum.wav
64,192,21944,1,0,0:0:0:70:cymbol.wav
320,192,22052,1,0,0:0:0:50:bass.wav
192,192,22160,1,0,0:0:0:60:kickdrum.wav
448,192,22160,1,0,0:0:0:50:bass.wav
64,192,22268,1,0,0:0:0:50:bass.wav
320,192,22376,1,0,0:0:0:70:cymbol.wav
448,192,22376,1,0,0:0:0:70:drum.wav
192,192,22483,1,0,0:0:0:50:bass.wav
64,192,22591,1,0,0:0:0:60:kickdrum.wav
448,192,22591,1,0,0:0:0:50:bass.wav
320,192,22699,1,0,0:0:0:50:bass.wav
192,192,22807,1,0,0:0:0:70:drum.wav
448,192,22807,1,0,0:0:0:70:cymbol.wav
64,192,22915,1,0,0:0:0:50:bass.wav
320,192,23023,1,0,0:0:0:60:kickdrum.wav
448,192,23023,1,0,0:0:0:50:bass.wav
192,192,23131,1,0,0:0:0:50:bass.wav
320,192,23239,1,0,0:0:0:70:cymbol.wav
448,192,23239,1,0,0:0:0:70:drum.wav
64,192,23347,1,0,0:0:0:60:kickdrum.wav
192,192,23347,1,0,0:0:0:50:bass.wav
192,192,23563,1,0,0:0:0:60:kickdrum.wav
64,192,23563,1,0,0:0:0:50:bass.wav
448,192,23671,1,0,0:0:0:70:drum.wav
320,192,23671,1,0,0:0:0:70:cymbol.wav
192,192,23778,1,0,0:0:0:50:bass.wav
448,192,23886,1,0,0:0:0:60:kickdrum.wav
64,192,23886,1,0,0:0:0:50:bass.wav
320,192,23994,1,0,0:0:0:50:bass.wav
448,192,24102,1,0,0:0:0:70:cymbol.wav
64,192,24102,1,0,0:0:0:70:drum.wav
192,192,24210,1,0,0:0:0:50:bass.wav
320,192,24318,1,0,0:0:0:60:kickdrum.wav
64,192,24318,1,0,0:0:0:50:bass.wav
448,192,24426,1,0,0:0:0:50:bass.wav
192,192,24534,1,0,0:0:0:70:drum.wav
64,192,24534,1,0,0:0:0:70:cymbol.wav
320,192,24642,1,0,0:0:0:50:bass.wav
448,192,24750,1,0,0:0:0:60:kickdrum.wav
64,192,24750,1,0,0:0:0:50:bass.wav
320,192,24965,1,0,0:0:0:70:cymbol.wav
64,192,24965,1,0,0:0:0:70:drum.wav
448,192,25073,1,0,0:0:0:60:kickdrum.wav
192,192,25073,1,0,0:0:0:50:bass.wav
448,192,25289,1,0,0:0:0:60:kickdrum.wav
192,192,25289,1,0,0:0:0:0:
64,192,25397,1,0,0:0:0:70:drum.wav
320,192,25397,1,0,0:0:0:70:cymbol.wav
192,192,25505,1,0,0:0:0:50:bass.wav
320,192,25613,1,0,0:0:0:60:kickdrum.wav
448,192,25613,1,0,0:0:0:50:bass.wav
192,192,25829,1,0,0:0:0:55:crash.wav
64,192,25829,1,0,0:0:0:70:cymbol.wav
448,192,25829,1,0,0:0:0:70:drum.wav
192,192,26153,1,0,0:0:0:55:crash.wav
320,192,26153,1,0,0:0:0:70:drum.wav
320,192,26476,1,0,0:0:0:55:crash.wav
448,192,26476,1,0,0:0:0:70:cymbol.wav
192,192,26692,1,0,0:0:0:75:crash.wav
64,192,26692,1,0,0:0:0:70:drum.wav
448,192,26692,1,0,0:0:0:70:cymbol.wav
64,192,27555,128,0,27771:0:0:0:40:kick.wav
448,192,27555,1,0,0:0:0:40:snare.wav
448,192,27771,1,0,0:0:0:40:kick.wav
192,192,27879,1,0,0:0:0:40:kick.wav
64,192,27879,1,0,0:0:0:0:
320,192,27987,1,0,0:0:0:50:snaredrum.wav
448,192,27987,1,0,0:0:0:40:kick.wav
64,192,28095,1,0,0:0:0:0:
192,192,28311,1,0,0:0:0:40:kick.wav
448,192,28311,1,0,0:0:0:40:snare.wav
448,192,28527,1,0,0:0:0:40:snare.wav
192,192,28527,1,0,0:0:0:40:kick.wav
64,192,28635,1,0,0:0:0:0:
448,192,28742,1,0,0:0:0:40:kick.wav
320,192,28850,1,0,0:0:0:50:snaredrum.wav
64,192,28850,1,0,0:0:0:0:
320,192,29066,1,0,0:0:0:40:kick.wav
448,192,29066,1,0,0:0:0:40:snare.wav
64,192,29282,128,0,29714:0:0:0:40:snare.wav
192,192,29282,1,0,0:0:0:40:kick.wav
320,192,29606,1,0,0:0:0:0:
192,192,29714,1,0,0:0:0:50:snaredrum.wav
448,192,29714,1,0,0:0:0:0:
320,192,29822,1,0,0:0:0:0:
192,192,30037,1,0,0:0:0:40:snare.wav
64,192,30037,1,0,0:0:0:40:kick.wav
192,192,30253,1,0,0:0:0:40:kick.wav
64,192,30253,1,0,0:0:0:40:snare.wav
448,192,30361,128,0,30469:0:0:0:15:down.wav
320,192,30361,1,0,0:0:0:0:
64,192,30415,1,0,0:0:0:15:down.wav
448,192,30577,128,0,30685:0:0:0:50:snaredrum.wav
320,192,30577,1,0,0:0:0:0:
64,192,30631,1,0,0:0:0:15:down.wav
192,192,30793,1,0,0:0:0:40:kick.wav
448,192,30793,1,0,0:0:0:40:snare.wav
192,192,31009,1,0,0:0:0:40:kick.wav
64,192,31009,1,0,0:0:0:40:snare.wav
320,192,31224,1,0,0:0:0:40:kick.wav
64,192,31440,128,0,31656:0:0:0:50:snaredrum.wav
448,192,31440,1,0,0:0:0:40:snare.wav
320,192,31764,1,0,0:0:0:40:snare.wav
192,192,31764,1,0,0:0:0:40:kick.wav
320,192,31980,1,0,0:0:0:40:kick.wav
192,192,31980,1,0,0:0:0:40:snare.wav
320,192,32196,1,0,0:0:0:40:snare.wav
192,192,32196,1,0,0:0:0:40:kick.wav
64,192,32304,128,0,32735:0:0:0:50:snaredrum.wav
448,192,32304,1,0,0:0:0:0:
320,192,32519,1,0,0:0:0:40:kick.wav
192,192,32735,1,0,0:0:0:40:kick.wav
64,192,32951,1,0,0:0:0:40:kick.wav
448,192,32951,1,0,0:0:0:40:snare.wav
64,192,33167,128,0,33491:0:0:0:50:snaredrum.wav
320,192,33167,1,0,0:0:0:40:snare.wav
192,192,33491,1,0,0:0:0:40:snare.wav
448,192,33491,1,0,0:0:0:40:kick.wav
448,192,33706,1,0,0:0:0:40:kick.wav
192,192,33706,1,0,0:0:0:40:snare.wav
320,192,33814,128,0,34030:0:0:0:0:
64,192,33814,1,0,0:0:0:0:
64,192,34030,128,0,34246:0:0:0:50:snaredrum.wav
192,192,34030,1,0,0:0:0:0:
320,192,34246,1,0,0:0:0:40:kick.wav
448,192,34246,1,0,0:0:0:40:snare.wav
192,192,34462,1,0,0:0:0:40:snare.wav
64,192,34462,1,0,0:0:0:40:kick.wav
64,192,34678,128,0,34786:0:0:0:15:down.wav
320,192,34678,1,0,0:0:0:0:
448,192,34732,1,0,0:0:0:15:down.wav
64,192,34894,128,0,35001:0:0:0:50:snaredrum.wav
320,192,34894,1,0,0:0:0:0:
448,192,34947,1,0,0:0:0:15:down.wav
192,192,35109,128,0,35217:0:0:0:15:down.wav
64,192,35109,1,0,0:0:0:0:
448,192,35163,1,0,0:0:0:15:down.wav
320,192,35325,128,0,35541:0:0:0:15:down.wav
192,192,35325,1,0,0:0:0:0:
64,192,35379,1,0,0:0:0:15:down.wav
448,192,35541,1,0,0:0:0:0:
320,192,35649,1,0,0:0:0:40:kick.wav
192,192,35757,1,0,0:0:0:50:snaredrum.wav
64,192,35757,1,0,0:0:0:0:
320,192,35865,1,0,0:0:0:0:
448,192,35973,1,0,0:0:0:40:snare.wav
64,192,35973,1,0,0:0:0:40:kick.wav
64,192,36188,1,0,0:0:0:40:snare.wav
192,192,36188,128,0,36332:0:0:0:0:
192,192,36404,128,0,36548:0:0:0:0:
320,192,36620,1,0,0:0:0:50:snaredrum.wav
448,192,36620,1,0,0:0:0:40:snare.wav
64,192,36728,1,0,0:0:0:0:
64,192,36944,1,0,0:0:0:40:kick.wav
320,192,36944,1,0,0:0:0:40:snare.wav
320,192,37160,1,0,0:0:0:40:snare.wav
64,192,37160,1,0,0:0:0:40:kick.wav
448,192,37268,1,0,0:0:0:0:
192,192,37376,1,0,0:0:0:40:kick.wav
320,192,37483,1,0,0:0:0:50:snaredrum.wav
448,192,37483,1,0,0:0:0:0:
192,192,37699,1,0,0:0:0:40:snare.wav
320,192,37699,1,0,0:0:0:40:kick.wav
192,192,37915,1,0,0:0:0:40:kick.wav
64,192,37915,1,0,0:0:0:40:snare.wav
448,192,38131,1,0,0:0:0:40:kick.wav
64,192,38347,128,0,38563:0:0:0:50:snaredrum.wav
320,192,38347,1,0,0:0:0:40:snare.wav
192,192,38563,1,0,0:0:0:40:snare.wav
64,192,38778,1,0,0:0:0:40:kick.wav
448,192,38778,1,0,0:0:0:40:snare.wav
320,192,38994,1,0,0:0:0:35:drum.wav
64,192,39210,128,0,39426:0:0:0:50:snaredrum.wav
192,192,39210,1,0,0:0:0:40:snare.wav
448,192,39426,1,0,0:0:0:35:drum.wav
64,192,39534,1,0,0:0:0:0:
320,192,39642,128,0,39858:0:0:0:40:snare.wav
448,192,39642,1,0,0:0:0:40:kick.wav
192,192,40073,128,0,40289:0:0:0:40:kick.wav
320,192,40073,1,0,0:0:0:40:snare.wav
64,192,40505,128,0,40721:0:0:0:40:snare.wav
192,192,40505,1,0,0:0:0:40:kick.wav
448,192,40937,1,0,0:0:0:45:down.wav
192,192,40991,1,0,0:0:0:45:down.wav
448,192,41045,1,0,0:0:0:45:down.wav
64,192,41368,1,0,0:0:0:25:drum.wav
64,192,41669,1,0,0:0:0:25:drum.wav
192,192,41971,128,0,42121:0:0:0:25:drum.wav
320,192,42272,128,0,43177:0:0:0:25:drum.wav
64,192,43177,1,0,0:0:0:25:drum.wav
192,192,43327,1,0,0:0:0:0:
448,192,43478,1,0,0:0:0:25:drum.wav
320,192,43629,1,0,0:0:0:25:drum.wav
64,192,43780,1,0,0:0:0:25:drum.wav
192,192,43930,1,0,0:0:0:0:
320,192,44081,128,0,44986:0:0:0:25:drum.wav
448,192,44081,1,0,0:0:0:0:
192,192,44986,1,0,0:0:0:25:drum.wav
64,192,44986,1,0,0:0:0:25:kickdrum.wav
448,192,45287,1,0,0:0:0:25:drum.wav
320,192,45438,1,0,0:0:0:25:drum.wav
192,192,45589,128,0,45739:0:0:0:25:drum.wav
192,192,45890,1,0,0:0:0:25:drum.wav
448,192,45890,128,0,46795:0:0:0:0:
64,192,46493,128,0,47096:0:0:0:25:drum.wav
192,192,46795,128,0,47096:0:0:0:25:drum.wav
448,192,47096,1,0,0:0:0:25:drum.wav
320,192,47247,1,0,0:0:0:25:drum.wav
64,192,47398,1,0,0:0:0:25:drum.wav
192,192,47548,1,0,0:0:0:0:
320,192,47699,1,0,0:0:0:25:drum.wav
448,192,47699,128,0,48001:0:0:0:0:
320,192,48001,128,0,48302:0:0:0:25:drum.wav
192,192,48001,1,0,0:0:0:0:
192,192,48302,128,0,48604:0:0:0:25:drum.wav
64,192,48302,1,0,0:0:0:0:
64,192,48604,128,0,49508:0:0:0:25:drum.wav
448,192,48604,1,0,0:0:0:0:
448,192,48905,1,0,0:0:0:25:drum.wav
192,192,49056,1,0,0:0:0:25:drum.wav
448,192,49207,1,0,0:0:0:25:drum.wav
448,192,49508,128,0,50413:0:0:0:25:drum.wav
64,192,49810,1,0,0:0:0:25:drum.wav
320,192,49960,1,0,0:0:0:25:drum.wav
64,192,50111,1,0,0:0:0:25:drum.wav
64,192,50413,128,0,51317:0:0:0:25:drum.wav
192,192,50413,1,0,0:0:0:0:
320,192,50563,1,0,0:0:0:25:drum.wav
448,192,50714,1,0,0:0:0:25:drum.wav
192,192,50865,1,0,0:0:0:25:drum.wav
448,192,51016,1,0,0:0:0:25:drum.wav
320,192,51166,1,0,0:0:0:25:drum.wav
192,192,51317,1,0,0:0:0:25:drum.wav
448,192,51317,1,0,0:0:0:0:
64,192,51748,128,0,52180:0:0:0:50:snaredrum.wav
448,192,51748,1,0,0:0:0:0:
192,192,51964,128,0,52180:0:0:0:50:snaredrum.wav
448,192,51964,1,0,0:0:0:0:
320,192,52180,1,0,0:0:0:50:bass.wav
448,192,52180,1,0,0:0:0:65:crash.wav
192,192,52288,1,0,0:0:0:50:bass.wav
448,192,52396,1,0,0:0:0:50:bass.wav
64,192,52396,1,0,0:0:0:65:cymbol.wav
320,192,52504,1,0,0:0:0:50:bass.wav
192,192,52611,1,0,0:0:0:55:kick.wav
64,192,52611,1,0,0:0:0:0:
448,192,52719,1,0,0:0:0:50:bass.wav
64,192,52827,1,0,0:0:0:50:bass.wav
320,192,52827,1,0,0:0:0:65:cymbol.wav
192,192,52935,1,0,0:0:0:50:bass.wav
320,192,53043,1,0,0:0:0:55:kick.wav
448,192,53043,1,0,0:0:0:0:
64,192,53151,1,0,0:0:0:50:bass.wav
192,192,53259,1,0,0:0:0:65:cymbol.wav
448,192,53259,1,0,0:0:0:50:bass.wav
320,192,53367,1,0,0:0:0:50:bass.wav
192,192,53475,1,0,0:0:0:55:kick.wav
64,192,53475,1,0,0:0:0:0:
448,192,53583,1,0,0:0:0:50:bass.wav
192,192,53691,1,0,0:0:0:65:cymbol.wav
320,192,53691,1,0,0:0:0:50:bass.wav
448,192,53799,1,0,0:0:0:50:bass.wav
64,192,53906,1,0,0:0:0:55:kick.wav
192,192,53906,1,0,0:0:0:0:
320,192,54014,1,0,0:0:0:50:bass.wav
448,192,54122,1,0,0:0:0:50:bass.wav
64,192,54122,1,0,0:0:0:65:cymbol.wav
192,192,54230,1,0,0:0:0:50:bass.wav
448,192,54338,1,0,0:0:0:55:kick.wav
320,192,54338,1,0,0:0:0:0:
192,192,54446,1,0,0:0:0:50:bass.wav
64,192,54554,1,0,0:0:0:50:bass.wav
448,192,54554,1,0,0:0:0:65:cymbol.wav
320,192,54662,1,0,0:0:0:50:bass.wav
64,192,54770,1,0,0:0:0:55:kick.wav
192,192,54770,1,0,0:0:0:0:
320,192,54878,1,0,0:0:0:50:bass.wav
64,192,54986,1,0,0:0:0:65:cymbol.wav
448,192,54986,1,0,0:0:0:50:bass.wav
192,192,55093,1,0,0:0:0:50:bass.wav
64,192,55201,1,0,0:0:0:55:kick.wav
448,192,55201,1,0,0:0:0:0:
320,192,55309,1,0,0:0:0:50:bass.wav
448,192,55417,1,0,0:0:0:65:cymbol.wav
64,192,55417,1,0,0:0:0:50:bass.wav
192,192,55525,1,0,0:0:0:50:bass.wav
448,192,55633,1,0,0:0:0:55:kick.wav
320,192,55633,1,0,0:0:0:0:
192,192,55741,1,0,0:0:0:50:bass.wav
448,192,55849,1,0,0:0:0:50:bass.wav
64,192,55849,1,0,0:0:0:65:cymbol.wav
320,192,55957,1,0,0:0:0:50:bass.wav
192,192,56065,1,0,0:0:0:55:kick.wav
64,192,56065,1,0,0:0:0:0:
320,192,56173,1,0,0:0:0:50:bass.wav
64,192,56281,1,0,0:0:0:50:bass.wav
448,192,56281,1,0,0:0:0:65:cymbol.wav
192,192,56388,1,0,0:0:0:50:bass.wav
320,192,56496,1,0,0:0:0:65:snare.wav
448,192,56496,1,0,0:0:0:65:kick.wav
64,192,56604,1,0,0:0:0:65:kick.wav
192,192,56604,1,0,0:0:0:65:snare.wav
448,192,56712,1,0,0:0:0:65:kick.wav
320,192,56712,1,0,0:0:0:65:snare.wav
192,192,56820,1,0,0:0:0:65:kick.wav
64,192,56820,1,0,0:0:0:65:snare.wav
448,192,56928,1,0,0:0:0:65:snare.wav
320,192,56928,1,0,0:0:0:65:kick.wav
64,192,57036,1,0,0:0:0:65:kick.wav
192,192,57036,1,0,0:0:0:65:snare.wav
448,192,57144,1,0,0:0:0:65:kick.wav
320,192,57144,1,0,0:0:0:65:snare.wav
192,192,57360,1,0,0:0:0:0:
64,192,57360,128,0,58115:0:0:0:0:
320,192,57575,1,0,0:0:0:35:crash.wav
448,192,57575,1,0,0:0:0:55:kick.wav
320,192,57791,1,0,0:0:0:65:cymbol.wav
448,192,57791,1,0,0:0:0:55:kick.wav
320,192,58007,1,0,0:0:0:35:crash.wav
448,192,58007,1,0,0:0:0:65:cymbol.wav
192,192,58223,128,0,59086:0:0:0:35:crash.wav
320,192,58223,1,0,0:0:0:55:kick.wav
448,192,58223,1,0,0:0:0:65:cymbol.wav
448,192,59086,1,0,0:0:0:65:cymbol.wav
64,192,59086,1,0,0:0:0:70:crash.wav
320,192,59158,1,0,0:0:0:35:hihat.wav
192,192,59230,1,0,0:0:0:35:hihat.wav
64,192,59302,1,0,0:0:0:65:cymbol.wav
448,192,59302,1,0,0:0:0:50:bass.wav
320,192,59374,1,0,0:0:0:35:hihat.wav
192,192,59446,1,0,0:0:0:35:hihat.wav
64,192,59518,1,0,0:0:0:45:kick.wav
448,192,59590,1,0,0:0:0:35:hihat.wav
320,192,59662,1,0,0:0:0:35:hihat.wav
192,192,59734,1,0,0:0:0:65:cymbol.wav
64,192,59734,1,0,0:0:0:50:bass.wav
448,192,59806,1,0,0:0:0:35:hihat.wav
320,192,59878,1,0,0:0:0:35:hihat.wav
192,192,59950,1,0,0:0:0:45:kick.wav
64,192,59950,1,0,0:0:0:0:
320,192,60022,1,0,0:0:0:35:hihat.wav
448,192,60093,1,0,0:0:0:35:hihat.wav
192,192,60165,1,0,0:0:0:65:cymbol.wav
64,192,60165,1,0,0:0:0:50:bass.wav
320,192,60237,1,0,0:0:0:35:hihat.wav
448,192,60309,1,0,0:0:0:35:hihat.wav
64,192,60381,1,0,0:0:0:45:kick.wav
192,192,60453,1,0,0:0:0:35:hihat.wav
320,192,60525,1,0,0:0:0:35:hihat.wav
448,192,60597,1,0,0:0:0:65:cymbol.wav
64,192,60597,1,0,0:0:0:50:bass.wav
192,192,60669,1,0,0:0:0:35:hihat.wav
320,192,60741,1,0,0:0:0:35:hihat.wav
448,192,60813,1,0,0:0:0:45:kick.wav
64,192,60813,1,0,0:0:0:0:
192,192,60885,1,0,0:0:0:35:hihat.wav
320,192,60957,1,0,0:0:0:35:hihat.wav
448,192,61029,1,0,0:0:0:50:bass.wav
64,192,61029,1,0,0:0:0:65:cymbol.wav
320,192,61101,1,0,0:0:0:35:hihat.wav
192,192,61173,1,0,0:0:0:35:hihat.wav
64,192,61245,1,0,0:0:0:45:kick.wav
448,192,61316,1,0,0:0:0:35:hihat.wav
320,192,61388,1,0,0:0:0:35:hihat.wav
64,192,61460,1,0,0:0:0:50:bass.wav
192,192,61460,1,0,0:0:0:65:cymbol.wav
448,192,61532,1,0,0:0:0:35:hihat.wav
320,192,61604,1,0,0:0:0:35:hihat.wav
192,192,61676,1,0,0:0:0:45:kick.wav
64,192,61676,1,0,0:0:0:0:
448,192,61748,1,0,0:0:0:35:hihat.wav
320,192,61820,1,0,0:0:0:35:hihat.wav
192,192,61892,1,0,0:0:0:65:cymbol.wav
64,192,61892,1,0,0:0:0:50:bass.wav
320,192,61964,1,0,0:0:0:35:hihat.wav
448,192,62036,1,0,0:0:0:35:hihat.wav
64,192,62108,1,0,0:0:0:45:kick.wav
192,192,62180,1,0,0:0:0:35:hihat.wav
320,192,62252,1,0,0:0:0:35:hihat.wav
448,192,62324,1,0,0:0:0:65:cymbol.wav
64,192,62324,1,0,0:0:0:50:bass.wav
192,192,62396,1,0,0:0:0:35:hihat.wav
320,192,62468,1,0,0:0:0:35:hihat.wav
448,192,62540,1,0,0:0:0:0:
64,192,62540,1,0,0:0:0:0:
64,192,62755,128,0,62971:0:0:0:65:cymbol.wav
192,192,62755,128,0,62971:0:0:0:55:crash.wav
448,192,62971,1,0,0:0:0:50:bass.wav
64,192,63187,128,0,63403:0:0:0:55:crash.wav
192,192,63187,128,0,63403:0:0:0:65:cymbol.wav
448,192,63403,1,0,0:0:0:25:hihat.wav
64,192,63619,128,0,63834:0:0:0:65:cymbol.wav
192,192,63619,128,0,63834:0:0:0:55:crash.wav
448,192,63834,1,0,0:0:0:50:bass.wav
64,192,64050,128,0,64266:0:0:0:55:crash.wav
192,192,64050,128,0,64266:0:0:0:65:cymbol.wav
448,192,64266,1,0,0:0:0:0:
448,192,64482,128,0,64806:0:0:0:65:cymbol.wav
192,192,64482,128,0,64806:0:0:0:55:crash.wav
64,192,64482,128,0,64806:0:0:0:55:snare.wav
64,192,64914,1,0,0:0:0:70:bass.wav
448,192,64914,1,0,0:0:0:70:kick.wav
192,192,64914,1,0,0:0:0:0:
448,192,65129,1,0,0:0:0:70:bass.wav
64,192,65129,1,0,0:0:0:70:kick.wav
192,192,65237,1,0,0:0:0:70:kick.wav
448,192,65345,1,0,0:0:0:70:bass.wav
320,192,65345,1,0,0:0:0:70:drum.wav
192,192,65453,1,0,0:0:0:0:
64,192,65561,1,0,0:0:0:85:drum.wav
448,192,65561,1,0,0:0:0:0:
320,192,65633,1,0,0:0:0:0:
192,192,65705,1,0,0:0:0:0:
448,192,65777,1,0,0:0:0:0:
64,192,65777,1,0,0:0:0:0:
320,192,65849,1,0,0:0:0:0:
192,192,65921,1,0,0:0:0:0:
64,192,65993,1,0,0:0:0:70:crash.wav
448,192,65993,1,0,0:0:0:65:cymbol.wav
320,192,66065,1,0,0:0:0:35:hihat.wav
192,192,66137,1,0,0:0:0:35:hihat.wav
64,192,66209,1,0,0:0:0:45:kick.wav
448,192,66281,1,0,0:0:0:35:hihat.wav
320,192,66352,1,0,0:0:0:35:hihat.wav
64,192,66424,1,0,0:0:0:65:cymbol.wav
192,192,66424,1,0,0:0:0:0:
320,192,66496,1,0,0:0:0:35:hihat.wav
448,192,66568,1,0,0:0:0:35:hihat.wav
64,192,66640,1,0,0:0:0:45:kick.wav
192,192,66712,1,0,0:0:0:35:hihat.wav
320,192,66784,1,0,0:0:0:35:hihat.wav
448,192,66856,1,0,0:0:0:50:bass.wav
64,192,66856,1,0,0:0:0:65:cymbol.wav
192,192,66928,1,0,0:0:0:35:hihat.wav
320,192,67000,1,0,0:0:0:35:hihat.wav
448,192,67072,1,0,0:0:0:45:kick.wav
320,192,67144,1,0,0:0:0:35:hihat.wav
192,192,67216,1,0,0:0:0:35:hihat.wav
64,192,67288,1,0,0:0:0:50:bass.wav
448,192,67288,1,0,0:0:0:0:
320,192,67360,1,0,0:0:0:35:hihat.wav
192,192,67432,1,0,0:0:0:35:hihat.wav
64,192,67504,1,0,0:0:0:45:kick.wav
448,192,67575,1,0,0:0:0:35:hihat.wav
320,192,67647,1,0,0:0:0:35:hihat.wav
64,192,67719,1,0,0:0:0:70:crash.wav
192,192,67719,1,0,0:0:0:65:cymbol.wav
320,192,67791,1,0,0:0:0:35:hihat.wav
448,192,67863,1,0,0:0:0:35:hihat.wav
64,192,67935,1,0,0:0:0:45:kick.wav
192,192,68007,1,0,0:0:0:35:hihat.wav
320,192,68079,1,0,0:0:0:35:hihat.wav
64,192,68151,1,0,0:0:0:70:crash.wav
448,192,68151,1,0,0:0:0:0:
192,192,68223,1,0,0:0:0:35:hihat.wav
320,192,68295,1,0,0:0:0:35:hihat.wav
448,192,68367,1,0,0:0:0:45:kick.wav
320,192,68439,1,0,0:0:0:35:hihat.wav
192,192,68511,1,0,0:0:0:35:hihat.wav
64,192,68583,1,0,0:0:0:50:bass.wav
448,192,68583,1,0,0:0:0:65:cymbol.wav
320,192,68655,1,0,0:0:0:35:hihat.wav
192,192,68727,1,0,0:0:0:35:hihat.wav
64,192,68799,1,0,0:0:0:45:kick.wav
448,192,68870,1,0,0:0:0:35:hihat.wav
320,192,68942,1,0,0:0:0:35:hihat.wav
192,192,69014,1,0,0:0:0:50:bass.wav
64,192,69014,1,0,0:0:0:0:
448,192,69086,1,0,0:0:0:35:hihat.wav
320,192,69158,1,0,0:0:0:35:hihat.wav
64,192,69230,1,0,0:0:0:0:
192,192,69230,1,0,0:0:0:0:
320,192,69302,1,0,0:0:0:65:kick.wav
448,192,69302,1,0,0:0:0:0:
192,192,69374,1,0,0:0:0:65:kick.wav
64,192,69374,1,0,0:0:0:0:
320,192,69446,1,0,0:0:0:0:
448,192,69446,1,0,0:0:0:0:
64,192,69662,128,0,69878:0:0:0:65:cymbol.wav
192,192,69662,128,0,69878:0:0:0:55:crash.wav
448,192,69878,1,0,0:0:0:50:bass.wav
64,192,70093,128,0,70309:0:0:0:55:crash.wav
192,192,70093,128,0,70309:0:0:0:65:cymbol.wav
448,192,70309,1,0,0:0:0:0:
64,192,70525,128,0,70741:0:0:0:55:crash.wav
192,192,70525,128,0,70741:0:0:0:65:cymbol.wav
448,192,70741,1,0,0:0:0:50:bass.wav
64,192,70957,128,0,71173:0:0:0:65:cymbol.wav
192,192,70957,128,0,71173:0:0:0:55:crash.wav
448,192,71173,128,0,71820:0:0:0:65:kick.wav
320,192,71173,1,0,0:0:0:0:
192,192,71388,1,0,0:0:0:50:bass.wav
64,192,71388,1,0,0:0:0:65:cymbol.wav
192,192,71820,1,0,0:0:0:65:cymbol.wav
64,192,71820,1,0,0:0:0:50:bass.wav
448,192,72036,1,0,0:0:0:75:kick.wav
320,192,72036,1,0,0:0:0:75:snare.wav
192,192,72144,1,0,0:0:0:75:snare.wav
64,192,72144,1,0,0:0:0:75:kick.wav
448,192,72252,1,0,0:0:0:75:snare.wav
320,192,72252,1,0,0:0:0:75:kick.wav
192,192,72468,1,0,0:0:0:75:kick.wav
64,192,72468,1,0,0:0:0:75:snare.wav
320,192,72683,1,0,0:0:0:75:snare.wav
448,192,72683,1,0,0:0:0:75:kick.wav
192,192,72791,1,0,0:0:0:75:snare.wav
64,192,72791,1,0,0:0:0:75:kick.wav
320,192,72899,1,0,0:0:0:45:kick.wav
64,192,72899,1,0,0:0:0:65:crash.wav
448,192,72899,128,0,73115:0:0:0:65:cymbol.wav
192,192,73007,1,0,0:0:0:50:bass.wav
64,192,73115,128,0,73331:0:0:0:65:cymbol.wav
320,192,73115,1,0,0:0:0:50:bass.wav
448,192,73223,1,0,0:0:0:50:bass.wav
448,192,73331,128,0,73547:0:0:0:45:kick.wav
192,192,73331,1,0,0:0:0:0:
320,192,73439,1,0,0:0:0:50:bass.wav
64,192,73547,1,0,0:0:0:50:bass.wav
192,192,73655,1,0,0:0:0:50:bass.wav
64,192,73763,128,0,73978:0:0:0:45:kick.wav
448,192,73763,1,0,0:0:0:0:
320,192,73870,1,0,0:0:0:50:bass.wav
448,192,73978,128,0,74194:0:0:0:50:bass.wav
192,192,73978,1,0,0:0:0:65:cymbol.wav
320,192,74086,1,0,0:0:0:50:bass.wav
64,192,74194,128,0,74410:0:0:0:45:kick.wav
192,192,74194,1,0,0:0:0:0:
320,192,74302,1,0,0:0:0:50:bass.wav
448,192,74410,1,0,0:0:0:50:bass.wav
192,192,74518,1,0,0:0:0:50:bass.wav
320,192,74626,1,0,0:0:0:45:kick.wav
448,192,74626,1,0,0:0:0:0:
320,192,74734,1,0,0:0:0:50:bass.wav
64,192,74842,1,0,0:0:0:50:bass.wav
192,192,74842,1,0,0:0:0:65:cymbol.wav
64,192,74950,1,0,0:0:0:50:bass.wav
448,192,75058,1,0,0:0:0:45:kick.wav
320,192,75058,1,0,0:0:0:0:
448,192,75165,1,0,0:0:0:50:bass.wav
192,192,75273,128,0,75489:0:0:0:50:bass.wav
64,192,75273,128,0,75489:0:0:0:65:cymbol.wav
320,192,75489,1,0,0:0:0:65:snare.wav
448,192,75489,1,0,0:0:0:65:kick.wav
192,192,75597,1,0,0:0:0:65:snare.wav
64,192,75705,1,0,0:0:0:65:kick.wav
448,192,75705,1,0,0:0:0:65:snare.wav
64,192,75921,1,0,0:0:0:65:snare.wav
448,192,75921,1,0,0:0:0:65:kick.wav
320,192,76029,1,0,0:0:0:45:bass.wav
192,192,76137,1,0,0:0:0:70:drum.wav
64,192,76137,1,0,0:0:0:0:
320,192,76191,1,0,0:0:0:70:drum.wav
448,192,76245,1,0,0:0:0:70:drum.wav
64,192,76352,1,0,0:0:0:45:crash.wav
192,192,76352,1,0,0:0:0:45:cymbol.wav
448,192,77000,1,0,0:0:0:55:kickdrum.wav
320,192,77108,1,0,0:0:0:55:kickdrum.wav
192,192,77216,1,0,0:0:0:55:kickdrum.wav
64,192,77216,1,0,0:0:0:45:cymbol.wav
192,192,77432,1,0,0:0:0:45:kick.wav
448,192,77647,1,0,0:0:0:70:snare.wav
64,192,77647,1,0,0:0:0:70:drum.wav
192,192,77647,1,0,0:0:0:70:crash.wav
320,192,77647,1,0,0:0:0:70:cymbol.wav
192,192,78079,1,0,0:0:0:65:cymbol.wav
64,192,78079,1,0,0:0:0:45:kick.wav
448,192,78133,1,0,0:0:0:55:hihat.wav
320,192,78187,1,0,0:0:0:55:hihat.wav
192,192,78241,1,0,0:0:0:55:hihat.wav
64,192,78295,1,0,0:0:0:65:cymbol.wav
448,192,78295,1,0,0:0:0:50:bass.wav
320,192,78349,1,0,0:0:0:55:hihat.wav
192,192,78403,1,0,0:0:0:55:hihat.wav
64,192,78457,1,0,0:0:0:55:hihat.wav
320,192,78511,1,0,0:0:0:55:hihat.wav
448,192,78511,1,0,0:0:0:45:kick.wav
192,192,78565,1,0,0:0:0:55:hihat.wav
64,192,78619,1,0,0:0:0:55:hihat.wav
448,192,78673,1,0,0:0:0:55:hihat.wav
320,192,78727,1,0,0:0:0:65:cymbol.wav
192,192,78727,1,0,0:0:0:50:bass.wav
64,192,78781,1,0,0:0:0:55:hihat.wav
448,192,78834,1,0,0:0:0:55:hihat.wav
320,192,78888,1,0,0:0:0:55:hihat.wav
192,192,78942,1,0,0:0:0:45:kick.wav
64,192,78942,1,0,0:0:0:0:
320,192,79050,1,0,0:0:0:55:bass.wav
64,192,79158,1,0,0:0:0:65:cymbol.wav
192,192,79158,1,0,0:0:0:50:bass.wav
448,192,79158,1,0,0:0:0:0:
320,192,79266,1,0,0:0:0:55:bass.wav
64,192,79374,1,0,0:0:0:45:kick.wav
448,192,79374,1,0,0:0:0:0:
192,192,79482,1,0,0:0:0:55:bass.wav
320,192,79590,1,0,0:0:0:65:cymbol.wav
448,192,79590,1,0,0:0:0:50:bass.wav
64,192,79590,1,0,0:0:0:0:
192,192,79698,1,0,0:0:0:55:bass.wav
448,192,79806,1,0,0:0:0:45:kick.wav
320,192,79806,1,0,0:0:0:0:
64,192,79914,1,0,0:0:0:55:bass.wav
192,192,79914,1,0,0:0:0:0:
320,192,80022,1,0,0:0:0:50:bass.wav
448,192,80022,1,0,0:0:0:65:cymbol.wav
64,192,80129,1,0,0:0:0:55:bass.wav
192,192,80129,1,0,0:0:0:0:
320,192,80237,1,0,0:0:0:45:kick.wav
448,192,80237,1,0,0:0:0:0:
64,192,80345,1,0,0:0:0:55:bass.wav
192,192,80453,1,0,0:0:0:50:bass.wav
448,192,80453,1,0,0:0:0:65:cymbol.wav
320,192,80453,1,0,0:0:0:0:
64,192,80561,1,0,0:0:0:55:bass.wav
448,192,80669,1,0,0:0:0:45:kick.wav
320,192,80669,128,0,80885:0:0:0:0:
192,192,80777,1,0,0:0:0:55:bass.wav
448,192,80885,1,0,0:0:0:65:cymbol.wav
64,192,80885,128,0,81101:0:0:0:50:bass.wav
192,192,80993,1,0,0:0:0:55:bass.wav
448,192,81101,128,0,81316:0:0:0:45:kick.wav
320,192,81101,1,0,0:0:0:0:
192,192,81209,1,0,0:0:0:55:bass.wav
320,192,81316,1,0,0:0:0:55:drum.wav
64,192,81316,1,0,0:0:0:55:snare.wav
448,192,81388,1,0,0:0:0:55:drum.wav
320,192,81460,1,0,0:0:0:55:drum.wav
64,192,81532,1,0,0:0:0:55:crash.wav
192,192,81532,128,0,81964:0:0:0:55:cymbol.wav
448,192,81820,1,0,0:0:0:55:drum.wav
320,192,81892,1,0,0:0:0:55:drum.wav
448,192,81964,128,0,82396:0:0:0:55:crash.wav
320,192,82252,1,0,0:0:0:55:drum.wav
192,192,82324,1,0,0:0:0:55:drum.wav
64,192,82396,128,0,82827:0:0:0:55:cymbol.wav
448,192,82683,1,0,0:0:0:55:drum.wav
192,192,82755,1,0,0:0:0:55:drum.wav
320,192,82827,128,0,83259:0:0:0:55:crash.wav
192,192,83115,1,0,0:0:0:55:drum.wav
64,192,83187,1,0,0:0:0:55:drum.wav
192,192,83259,128,0,83691:0:0:0:55:crash.wav
448,192,83547,1,0,0:0:0:55:drum.wav
320,192,83619,1,0,0:0:0:55:drum.wav
448,192,83691,128,0,84122:0:0:0:55:cymbol.wav
320,192,83978,1,0,0:0:0:55:drum.wav
192,192,84050,1,0,0:0:0:55:drum.wav
64,192,84122,128,0,84554:0:0:0:55:crash.wav
448,192,84410,1,0,0:0:0:55:drum.wav
192,192,84482,1,0,0:0:0:55:drum.wav
320,192,84554,128,0,84986:0:0:0:55:cymbol.wav
64,192,84842,1,0,0:0:0:55:drum.wav
192,192,84914,1,0,0:0:0:55:drum.wav
64,192,84986,128,0,86281:0:0:0:55:crash.wav
448,192,84986,1,0,0:0:0:55:cymbol.wav
192,192,85777,1,0,0:0:0:55:drum.wav
448,192,85849,1,0,0:0:0:55:kick.wav
192,192,86065,1,0,0:0:0:55:kick.wav
448,192,86065,1,0,0:0:0:55:snare.wav
192,192,86173,1,0,0:0:0:55:snare.wav
448,192,86173,1,0,0:0:0:55:kick.wav
320,192,86281,1,0,0:0:0:50:bass.wav
448,192,86334,1,0,0:0:0:50:bass.wav
64,192,86388,1,0,0:0:0:50:bass.wav
192,192,86442,1,0,0:0:0:50:bass.wav
320,192,86496,1,0,0:0:0:50:bass.wav
448,192,86496,1,0,0:0:0:0:
64,192,86550,1,0,0:0:0:50:bass.wav
192,192,86604,1,0,0:0:0:50:bass.wav
320,192,86658,1,0,0:0:0:50:bass.wav
448,192,86712,1,0,0:0:0:55:kick.wav
64,192,86712,1,0,0:0:0:65:cymbol.wav
64,192,86928,1,0,0:0:0:0:
192,192,86928,1,0,0:0:0:0:
320,192,87036,128,0,87575:0:0:0:65:cymbol.wav
448,192,87036,1,0,0:0:0:0:
64,192,87360,128,0,87575:0:0:0:65:cymbol.wav
192,192,87575,1,0,0:0:0:65:cymbol.wav
448,192,87575,1,0,0:0:0:85:crash.wav
448,192,88007,1,0,0:0:0:30:hihat.wav
320,192,88043,1,0,0:0:0:30:hihat.wav
192,192,88079,1,0,0:0:0:30:hihat.wav
64,192,88115,1,0,0:0:0:30:hihat.wav
448,192,88151,1,0,0:0:0:30:hihat.wav
320,192,88187,1,0,0:0:0:30:hihat.wav
192,192,88223,1,0,0:0:0:30:hihat.wav
64,192,88259,1,0,0:0:0:30:hihat.wav
448,192,88295,1,0,0:0:0:30:hihat.wav
320,192,88331,1,0,0:0:0:30:hihat.wav
192,192,88367,1,0,0:0:0:30:hihat.wav
64,192,88403,1,0,0:0:0:30:hihat.wav
320,192,88439,1,0,0:0:0:30:hihat.wav
448,192,88439,1,0,0:0:0:0:
