osu file format v10

[General]
AudioFilename: DIAVOLO.mp3
AudioLeadIn: 1500
PreviewTime: 18236
Countdown: 1
SampleSet: Normal
StackLeniency: 0.5
Mode: 0
LetterboxInBreaks: 1

[Editor]
Bookmarks: 18332,30329,41582,77582,83582,103832,106457
DistanceSpacing: 1
BeatDivisor: 4
GridSize: 8

[Metadata]
Title:DIAVOLO
TitleUnicode:
Artist:Dokyou Kyoudai
ArtistUnicode:
Creator:yongtw123
Version:Advanced
Source:beatmania IIDX
Tags:konami bemani led l.e.d. wac transcendental etudes jubeat saucer franz liszt themes variations a minor
BeatmapID:170245
BeatmapSetID:52833

[Difficulty]
HPDrainRate:5
CircleSize:4
OverallDifficulty:5
ApproachRate:7
SliderMultiplier:1.4
SliderTickRate:1

[Events]
//Background and Video events
0,0,"stairs.jpg"
//Break Periods
2,30532,32432
//Storyboard Layer 0 (Background)
//Storyboard Layer 1 (Fail)
//Storyboard Layer 2 (Pass)
//Storyboard Layer 3 (Foreground)
//Storyboard Sound Samples
//Background Colour Transformations
3,100,163,162,255

[TimingPoints]
332.809279526864,375,4,2,0,60,1,0
6332,-100,4,1,1,70,0,0
10832,-100,4,1,1,80,0,0
24520,-100,4,1,1,70,0,0
30520,-100,4,2,0,70,0,0
35535,-100,4,1,1,70,0,0
41489,-100,4,1,1,90,0,0
47520,-100,4,1,1,60,0,0
48207,-100,4,1,1,90,0,0
53707,-100,4,1,1,80,0,0
54426,-100,4,1,1,70,0,0
83582,-83.3333333333333,4,1,1,70,0,0
89582,-100,4,1,1,70,0,0
95582,-83.3333333333333,4,1,1,70,0,0

[Colours]
Combo1 : 224,145,255
Combo2 : 255,128,0

[HitObjects]
56,320,332,1,2,0:0:0
192,280,707,1,2,0:0:0
264,272,895,1,0,0:0:0
328,304,1082,2,0,B|384:320|432:288,1,105,2|2,0:0|0:0,0:0:0
464,296,1457,6,0,B|472:272|472:272|456:192,1,105
464,160,1832,1,2,0:0:0
352,80,2207,1,2,0:0:0
352,80,2395,1,0,0:0:0
352,80,2582,2,0,B|280:56|200:96,2,140,2|0|2,0:0|0:0|0:0,0:0:0
296,208,3707,5,2,0:0:0
224,200,3895,1,0,0:0:0
160,232,4082,2,0,B|104:248|48:224,1,105,2|2,0:0|0:0,0:0:0
32,256,4457,2,0,B|48:192|32:136,1,105
24,120,4832,1,2,0:0:0
160,104,5207,5,2,0:0:0
232,112,5395,1,0,0:0:0
296,80,5582,2,0,B|368:56|432:96,1,140,2|0,0:0|0:0,0:0:0
472,232,6332,6,0,B|400:256|336:216,1,140,4|0,0:0|0:0,0:0:0
272,248,6895,1,0,0:0:0
272,248,7082,2,0,B|232:224|232:224|160:232,1,105,4|0,0:0|0:0,0:0:0
144,296,7551,2,0,B|80:304|80:304|40:280,1,105,0|4,0:0|0:0,0:0:0
72,144,8207,5,0,0:0:0
72,144,8395,1,0,0:0:0
72,144,8582,2,0,B|128:160|176:136,1,105,4|0,0:0|0:0,0:0:0
240,104,9051,2,0,B|296:88|344:120,1,105,0|4,0:0|0:0,0:0:0
480,96,9707,5,0,0:0:0
376,192,10082,1,0,0:0:0
456,304,10457,2,0,B|424:328|424:328|384:328,1,70,0|0,0:0|0:0,0:0:0
328,296,10832,5,4,0:0:0
256,280,11020,1,0,0:0:0
184,280,11207,1,0,0:0:0
112,296,11395,1,0,0:0:0
48,328,11582,1,4,0:0:0
48,256,11770,6,0,B|40:224|40:224|56:184,1,70
104,136,12145,2,0,B|112:104|112:104|96:64,1,70,0|4,0:0|0:0,0:0:0
232,96,12707,5,8,0:0:0
200,232,13082,1,0,0:0:0
336,192,13457,1,8,0:0:0
336,192,13645,2,0,B|416:192,1,70
448,328,14207,5,8,0:0:0
312,304,14582,1,0,0:0:0
312,304,14770,2,0,B|224:304,1,70,0|8,0:0|0:0,0:0:0
168,304,15145,1,0,0:0:0
168,304,15332,5,0,0:0:0
56,224,15707,1,8,0:0:0
136,112,16082,1,0,0:0:0
248,192,16457,1,8,0:0:0
248,192,16645,2,0,B|328:192,1,70
392,72,17207,5,8,0:0:0
464,192,17582,1,0,0:0:0
464,192,17770,2,0,B|392:192,1,70,0|8,0:0|0:0,0:0:0
360,256,18145,1,0,0:0:0
328,320,18332,6,0,B|256:296|192:328,1,140,4|8,0:0|0:0,0:0:0
120,312,18895,1,0,0:0:0
48,320,19082,2,0,B|32:248|56:168,1,140,0|8,0:0|0:0,0:0:0
72,112,19645,2,0,B|120:104,1,35
144,104,19832,6,0,B|224:136|280:88,1,140,0|8,0:0|0:0,0:0:0
344,64,20395,1,0,0:0:0
360,136,20582,2,0,B|440:120|496:176,1,140,0|8,0:0|0:0,0:0:0
464,240,21145,2,0,B|472:280,1,35
456,304,21332,6,0,B|376:320|320:264,1,140,0|8,0:0|0:0,0:0:0
264,232,21895,1,0,0:0:0
232,296,22082,2,0,B|160:272|88:320,1,140,0|8,0:0|0:0,0:0:0
56,256,22645,2,0,B|48:216,1,35
56,192,22832,6,0,B|32:120|64:56,1,140,0|8,0:0|0:0,0:0:0
136,56,23395,2,0,B|144:96,1,35
136,128,23582,2,0,B|160:200|128:264,1,140,0|8,0:0|0:0,0:0:0
136,336,24145,1,0,0:0:0
136,336,24332,5,4,0:0:0
264,280,24707,1,0,0:0:0
400,312,25082,1,0,0:0:0
464,192,25457,1,0,0:0:0
328,160,25832,1,0,0:0:0
200,216,26207,1,0,0:0:0
64,176,26582,1,0,0:0:0
64,176,26957,1,0,0:0:0
64,176,27332,5,4,0:0:0
96,312,27707,1,0,0:0:0
96,312,27895,1,0,0:0:0
96,312,28082,1,4,0:0:0
200,216,28457,1,0,0:0:0
200,216,28645,1,0,0:0:0
200,216,28832,6,0,B|240:224|240:224|272:208,1,70,4|0,0:0|0:0,0:0:0
320,256,29207,2,0,B|352:240|352:240|368:200,1,70,4|0,0:0|0:0,0:0:0
432,232,29582,2,0,B|448:200|448:200|440:160,1,70,4|0,0:0|0:0,0:0:0
424,96,29957,1,4,0:0:0
352,80,30145,1,0,0:0:0
280,64,30332,1,4,0:0:0
232,336,33332,6,0,B|248:304|248:304|240:256,1,70,0|2,0:0|0:0,0:0:0
104,288,33895,1,2,0:0:0
160,160,34270,1,2,0:0:0
160,160,34457,5,8,0:0:0
104,112,34645,1,2,0:0:0
104,112,34832,1,0,0:0:0
88,184,35020,1,2,0:0:0
224,200,35395,1,0,0:0:0
296,192,35582,5,0,0:0:0
368,200,35770,1,0,0:0:0
432,232,35957,2,0,B|456:200|456:200|432:136|432:136|456:104,1,140,0|4,0:0|0:0,0:0:0
320,72,36707,5,8,0:0:0
248,88,36895,1,0,0:0:0
248,88,37082,2,0,B|208:96|168:80,1,70
112,112,37457,2,0,B|72:104|32:120,2,70,8|0|0,0:0|0:0|0:0,0:0:0
88,248,38207,5,8,0:0:0
160,232,38395,1,0,0:0:0
160,232,38582,2,0,B|200:240|240:224,1,70
296,248,38957,2,0,B|336:240|368:256,1,70,8|0,0:0|0:0,0:0:0
432,232,39332,6,0,B|472:200|472:136|456:80|384:64,1,210
336,112,40082,2,0,B|304:152|240:152|184:136|168:64,1,210
100,56,40832,1,0,0:0:0
52,108,41020,2,0,B|60:188,1,70
48,248,41395,1,0,0:0:0
32,320,41582,6,0,B|64:336|64:336|128:320,1,93.3333333333333,0|0,0:0|0:0,0:0:0
168,328,41957,2,0,B|223:314|223:314|255:330,1,93.3333333333333,0|0,0:0|0:0,0:0:0
304,328,42332,1,4,0:0:0
440,304,42707,1,0,0:0:0
312,248,43082,1,0,0:0:0
448,224,43457,1,0,0:0:0
320,168,43832,1,0,0:0:0
456,144,44207,1,0,0:0:0
328,88,44582,1,4,0:0:0
328,88,45332,5,0,0:0:0
192,112,45707,1,0,0:0:0
192,112,46082,1,0,0:0:0
64,64,46457,2,0,B|56:96|56:96|72:168,1,93.3333333333333
80,200,46832,6,0,B|88:248|64:296,1,93.3333333333333
48,336,47207,2,0,B|88:304|144:328,1,93.3333333333333
176,304,47582,2,0,B|224:312|224:312|272:288,2,93.3333333333333,2|2|2,0:0|0:0|0:0,0:0:0
216,216,48332,6,0,B|255:196|255:196|303:204,1,93.3333333333333
344,224,48707,2,0,B|392:240|448:216,1,93.3333333333333
480,232,49082,2,0,B|472:128,1,93.3333333333333
456,96,49457,6,0,B|408:80|352:104,1,93.3333333333333
320,112,49832,2,0,B|248:136|176:96,1,140
96,72,50457,1,0,0:0:0
96,72,50582,1,0,0:0:0
48,152,50832,1,0,0:0:0
48,152,50957,6,0,B|56:200|56:200|40:240|40:240|48:296,1,140
176,336,51707,2,0,B|192:288|192:288|176:232,1,93.3333333333333
192,200,52082,1,0,0:0:0
336,200,52457,2,0,B|320:152|320:152|336:96,1,93.3333333333333
320,64,52832,2,0,B|472:64,2,140
184,64,53957,6,0,B|192:104,6,23.3333333333333,0|0|0|0|0|0|4,0:0|0:0|0:0|0:0|0:0|0:0|0:0,0:0:0
48,64,54707,1,8,0:0:0
64,200,55082,2,0,B|48:232|56:272,1,70
120,312,55457,2,0,B|136:280|128:240,1,70,8|0,0:0|0:0,0:0:0
192,200,55832,6,0,B|232:208|272:192,1,70
296,120,56207,2,0,B|256:112|216:128,2,70,8|0|0,0:0|0:0|0:0,0:0:0
368,80,56770,2,0,B|400:56,2,35,0|0|8,0:0|0:0|0:0,0:0:0
368,168,57145,2,0,B|392:216,2,35
408,304,57707,5,8,0:0:0
328,288,57895,1,0,0:0:0
256,328,58082,1,0,0:0:0
224,160,58457,1,8,0:0:0
144,176,58645,1,0,0:0:0
72,136,58832,1,0,0:0:0
64,304,59207,6,0,B|48:336,2,35,8|0|0,0:0|0:0|0:0,0:0:0
136,264,59582,1,0,0:0:0
216,256,59770,1,0,0:0:0
296,264,59957,1,8,0:0:0
376,248,60145,1,0,0:0:0
440,200,60332,6,0,B|472:224,2,35
400,128,60707,2,0,B|320:136,1,70,8|0,0:0|0:0,0:0:0
256,96,61082,2,0,B|184:88,2,70,0|0|8,0:0|0:0|0:0,0:0:0
96,152,61832,6,0,B|48:160,2,35,0|0|0,0:0|0:0|0:0,0:0:0
72,320,62395,1,2,0:0:0
72,320,62489,1,0,0:0:0
72,320,62582,2,0,B|152:304,1,70
144,224,62957,2,0,B|232:208,1,70,8|0,0:0|0:0,0:0:0
296,232,63332,5,0,0:0:0
296,232,63520,2,0,B|368:208|440:248,1,140,2|2,0:0|0:0,0:0:0
472,168,64082,1,0,0:0:0
432,96,64270,1,0,0:0:0
352,120,64457,1,8,0:0:0
280,72,64645,1,0,0:0:0
200,96,64832,2,0,B|160:104|160:104|120:80,1,70,0|2,0:0|0:0,0:0:0
48,232,65395,5,2,0:0:0
48,232,65489,1,0,0:0:0
48,232,65582,2,0,B|88:224|88:224|128:248,1,70
200,224,65957,1,0,0:0:0
200,224,66145,1,0,0:0:0
176,304,66332,6,0,B|248:360|408:368|480:256|456:120,1,420,4|4,0:0|0:0,0:0:0
448,56,67645,1,0,0:0:0
448,56,67832,1,4,0:0:0
280,88,68207,6,0,B|229:48|128:48|64:112|64:192,1,280,0|4,0:0|0:0,0:0:0
64,264,69145,2,0,B|56:304,2,35,0|0|4,0:0|0:0|0:0,0:0:0
224,224,69707,1,0,0:0:0
376,288,70082,1,0,0:0:0
376,288,70176,1,0,0:0:0
376,288,70270,1,0,0:0:0
440,232,70457,2,0,B|440:192|432:152,1,70
416,80,70832,5,0,0:0:0
416,80,71020,1,0,0:0:0
336,112,71207,1,0,0:0:0
336,112,71395,1,0,0:0:0
248,88,71582,1,4,0:0:0
248,88,71770,1,0,0:0:0
152,120,71957,1,4,0:0:0
152,120,72145,1,0,0:0:0
64,64,72332,5,4,0:0:0
40,232,72707,1,0,0:0:0
120,212,72895,1,0,0:0:0
204,212,73082,1,0,0:0:0
284,236,73270,1,0,0:0:0
356,280,73457,1,4,0:0:0
356,280,73645,1,0,0:0:0
356,280,73832,1,4,0:0:0
464,152,74207,5,0,0:0:0
384,128,74395,1,0,0:0:0
300,124,74582,1,0,0:0:0
216,140,74770,1,0,0:0:0
140,176,74957,1,4,0:0:0
140,176,75145,2,0,B|68:168,1,70,0|4,0:0|0:0,0:0:0
200,56,75707,5,0,0:0:0
232,224,76082,2,0,B|224:256|224:256|232:304,2,70,4|0|0,0:0|0:0|0:0,0:0:0
368,328,76832,2,0,B|376:296|376:296|368:248,1,70,4|0,0:0|0:0,0:0:0
448,224,77207,2,0,B|440:176|440:176|456:136|456:136|448:72,1,140,0|4,0:0|0:0,0:0:0
368,64,77770,5,2,0:0:0
304,120,77957,1,0,0:0:0
232,72,78145,1,2,0:0:0
168,128,78332,1,0,0:0:0
96,80,78520,1,2,0:0:0
32,136,78707,2,0,B|40:208,1,70,0|2,0:0|0:0,0:0:0
32,288,79082,5,0,0:0:0
112,320,79270,1,2,0:0:0
168,256,79457,1,0,0:0:0
248,288,79645,1,2,0:0:0
304,224,79832,2,0,B|376:208|448:240,2,140
256,152,80770,6,0,B|264:72,2,70,0|8|0,0:0|0:0|0:0,0:0:0
176,168,81332,2,0,B|184:80,2,70,0|0|8,0:0|0:0|0:0,0:0:0
96,192,81895,1,0,0:0:0
152,256,82082,6,0,B|144:336,2,70,0|0|8,0:0|0:0|0:0,0:0:0
224,232,82645,1,0,0:0:0
296,256,82832,2,0,B|288:336,2,70,0|0|8,0:0|0:0|0:0,0:0:0
368,232,83395,1,0,0:0:0
352,160,83582,6,0,B|355:112|390:66|439:53|478:64,2,167.999994873047,4|8|0,0:0|0:0|0:0,0:0:0
208,120,84707,1,8,0:0:0
208,120,84895,1,0,0:0:0
208,120,85082,6,0,B|176:152|96:160|48:136,2,167.999994873047,0|8|0,0:0|0:0|0:0,0:0:0
276,88,86020,1,0,0:0:0
348,88,86207,1,4,0:0:0
416,112,86395,1,0,0:0:0
464,168,86582,6,0,B|456:336,2,167.999994873047,4|8|0,0:0|0:0|0:0,0:0:0
328,216,87707,1,8,0:0:0
328,216,87895,1,0,0:0:0
328,216,88082,6,0,B|336:32,2,167.999994873047,0|8|0,0:0|0:0|0:0,0:0:0
272,264,89020,1,0,0:0:0
200,248,89207,1,8,0:0:0
136,288,89395,1,0,0:0:0
64,272,89582,5,0,0:0:0
48,120,89957,2,0,B|80:104|80:104|128:112,2,70,4|0|4,0:0|0:0|0:0,0:0:0
192,136,90707,2,0,B|228:140|228:140|264:120,2,70
328,80,91457,2,0,B|363:76|363:76|405:101,1,70,4|0,0:0|0:0,0:0:0
448,144,91832,1,4,0:0:0
424,280,92207,1,0,0:0:0
424,280,92395,1,0,0:0:0
424,280,92582,5,0,0:0:0
288,296,92957,1,8,0:0:0
392,208,93332,1,0,0:0:0
256,224,93707,1,8,0:0:0
368,136,94082,6,0,B|344:112|344:112|336:72,1,70,4|0,0:0|0:0,0:0:0
264,88,94457,2,0,B|232:72|232:72|192:72,1,70,4|0,0:0|0:0,0:0:0
136,112,94832,1,4,0:0:0
136,112,95020,1,0,0:0:0
64,88,95207,1,4,0:0:0
64,88,95395,1,0,0:0:0
48,168,95582,5,4,0:0:0
64,240,95770,2,0,B|160:224|232:280,1,167.999994873047,2|2,0:0|0:0,0:0:0
296,248,96332,1,0,0:0:0
320,320,96520,2,0,B|368:344|448:328|472:280,1,167.999994873047,2|2,0:0|0:0,0:0:0
456,208,97082,1,0,0:0:0
440,136,97270,6,0,B|384:152|336:96|272:112,1,167.999994873047,2|2,0:0|0:0,0:0:0
200,104,97832,2,0,B|192:48,2,41.9999987182618,4|0|0,0:0|0:0|0:0,0:0:0
128,128,98207,2,0,B|120:168,2,41.9999987182618,4|0|0,0:0|0:0|0:0,0:0:0
56,104,98582,1,4,0:0:0
32,176,98770,6,0,B|8:216|16:312|56:344,1,167.999994873047,2|2,0:0|0:0,0:0:0
112,296,99332,1,0,0:0:0
184,312,99520,2,0,B|264:272|352:304,1,167.999994873047,2|2,0:0|0:0,0:0:0
376,232,100082,1,0,0:0:0
448,256,100270,6,0,B|488:168|456:88,1,167.999994873047,2|2,0:0|0:0,0:0:0
384,72,100832,1,4,0:0:0
384,72,100926,1,0,0:0:0
384,72,101020,1,0,0:0:0
316,112,101207,2,0,B|308:160,2,41.9999987182618,4|0|0,0:0|0:0|0:0,0:0:0
248,80,101582,6,0,B|192:112|120:88,1,125.999996154785,4|0,0:0|0:0,0:0:0
96,72,101957,2,0,B|64:136|96:208,1,125.999996154785
56,208,102332,2,0,B|80:264|56:336,1,125.999996154785
96,336,102707,2,0,B|152:296|224:320,1,125.999996154785
256,328,103082,2,0,B|328:352|384:304,1,125.999996154785
416,320,103457,5,0,0:0:0
424,240,103645,1,0,0:0:0
432,160,103832,1,4,0:0:0
272,104,104207,1,8,0:0:0
440,80,104582,6,0,B|400:72|400:72|360:96,1,83.9999974365235
336,176,104957,2,0,B|304:200|304:200|248:192,1,83.9999974365235,8|0,0:0|0:0,0:0:0
184,152,105332,1,0,0:0:0
184,240,105520,6,0,B|176:272,3,27.9999991455078
96,296,105895,2,0,B|104:336,3,27.9999991455078
64,160,106457,1,4,0:0:0
