osu file format v9

[General]
AudioFilename: DIAVOLO.mp3
AudioLeadIn: 0
PreviewTime: 13548
Countdown: 0
SampleSet: Soft
StackLeniency: 0.2
Mode: 0
LetterboxInBreaks: 1

[Editor]
Bookmarks: 29587,50846,60483,70120,87410
DistanceSpacing: 0.5
BeatDivisor: 4
GridSize: 16

[Metadata]
Title:DIAVOLO
Artist:Dokyo Kyodai
Creator:Rigeru
Version:Another
Source:Beatmania IIDX
Tags:LED L.E.D dj taka 19 lincle onemore extra

[Difficulty]
HPDrainRate:7
CircleSize:4
OverallDifficulty:6
ApproachRate:9
SliderMultiplier:1.6
SliderTickRate:1

[Events]
//Background and Video events
0,0,"18159153.jpg"
//Break Periods
//Storyboard Layer 0 (Background)
//Storyboard Layer 1 (Fail)
//Storyboard Layer 2 (Pass)
//Storyboard Layer 3 (Foreground)
//Storyboard Sound Samples
//Background Colour Transformations
3,100,163,162,255

[TimingPoints]
1455,375,4,2,1,40,1,0
7361,-50,4,2,1,70,0,0
12798,-100,4,2,1,70,0,0
13548,-66.6666666666667,4,2,1,70,0,0
13580,-66.6666666666667,4,2,1,50,0,0
19392,-66.6666666666667,4,2,1,70,0,0
23142,-100,4,2,1,70,0,0
23517,-66.6666666666667,4,2,1,70,0,0
34330,-66.6666666666667,4,2,1,40,0,0
36642,-66.6666666666667,4,2,1,70,0,0
42611,-100,4,2,1,55,0,0
47142,-66.6666666666667,4,2,1,55,0,0
49330,-100,4,2,1,55,0,0
49767,-66.6666666666667,4,2,1,55,0,0
50142,-100,4,2,1,55,0,0
51330,-66.6666666666667,4,2,1,55,0,0
51642,-100,4,2,1,55,0,0
54642,-66.6666666666667,4,2,1,55,0,0
55267,-100,4,2,1,70,0,0
55580,-100,4,2,1,40,0,0
55892,-100,4,2,1,70,0,0
56330,-100,4,2,1,60,0,0
56642,-100,4,2,1,70,0,0
56705,-100,4,2,1,75,0,0
57455,-66.6666666666667,4,2,1,70,0,0
78830,-66.6666666666667,4,2,1,40,0,0
81642,-66.6666666666667,4,2,1,60,0,0
84642,-66.6666666666667,4,2,1,40,0,0
85455,-66.6666666666667,4,2,1,70,0,0
86205,-66.6666666666667,4,2,1,40,0,0
86955,-66.6666666666667,4,2,1,70,0,0
87705,-66.6666666666667,4,2,1,40,0,0
88455,-66.6666666666667,4,2,1,70,0,0
89205,-66.6666666666667,4,2,1,40,0,0
89955,-66.6666666666667,4,2,1,70,0,0
95111,-50,4,2,1,70,0,0
96611,-66.6666666666667,4,2,1,45,0,0
98908,-66.6666666666667,4,2,1,70,0,0
99658,-66.6666666666667,4,2,1,45,0,0
101908,-66.6666666666667,4,2,1,70,0,0
102658,-66.6666666666667,4,2,1,35,0,0
104955,-66.6666666666667,4,2,1,50,0,0
105658,-66.6666666666667,4,2,1,60,0,0
107205,-66.6666666666667,4,2,1,70,0,0

[Colours]
Combo1 : 0,0,255
Combo2 : 255,0,0

[HitObjects]
114,152,1455,1,0
255,280,1829,1,0
255,280,1923,1,0
255,280,2017,1,0
255,280,2110,1,0
255,280,2204,1,0
310,108,2486,1,0
336,96,2580,2,0,B|400:71,4,40
120,151,3330,1,0
120,151,3423,1,0
120,151,3517,1,0
120,151,3611,1,0
120,151,3705,1,0
120,151,4080,5,0
281,306,4455,1,0
119,151,4830,1,0
124,157,4923,1,0
130,163,5017,1,0
136,168,5111,1,0
143,172,5205,1,0
310,108,5486,1,0
318,126,5580,1,0
322,145,5673,1,0
316,163,5767,1,0
305,179,5861,1,0
291,193,5955,1,0
160,310,6330,1,0
160,310,6423,1,0
160,310,6517,1,0
160,310,6611,1,0
160,310,6705,1,0
291,193,7080,5,0
101,225,7455,2,0,B|95:75|175:25|338:58,1,320,4|0
226,228,8205,1,4
451,163,8955,6,0,B|457:313|377:363|214:330,1,320,4|0
323,158,9705,1,4
160,160,10455,6,0,B|208:128|208:128|352:128,1,160,4|0
352,224,10830,2,0,B|304:256|304:256|160:256,1,160,4|0
96,224,11205,2,0,B|32:160|96:64,1,160,4|0
416,160,11580,2,0,B|480:224|416:320,1,160,4|0
315,341,11955,5,4
192,192,12142,1,0
320,32,12330,2,0,B|422:33|416:160,1,160,4|0
288,256,12705,1,0
320,128,12892,2,0,B|336:112,4,20
160,320,13267,2,0,B|144:336,4,20
265,309,13642,5,0
355,256,13830,1,0
400,163,14017,1,0
354,69,14205,1,0
250,67,14392,1,0
177,150,14580,1,0
176,253,14767,2,0,B|249:366,1,119.999996423721,2|0
352,304,15142,5,0
432,208,15330,1,0
352,112,15517,1,0
224,112,15705,1,0
144,208,15892,1,0
208,304,16080,2,0,B|262:311|322:249,1,119.999996423721,2|0
287,90,16455,5,2
287,233,16642,1,0
288,377,16830,1,0
288,160,17017,1,0
288,305,17205,1,0
413,234,17392,1,0
164,236,17580,1,0
287,233,17767,2,0,B|287:79,1,119.999996423721,2|0
287,113,18142,5,0
226,244,18330,1,0
369,246,18517,1,0
287,113,18705,1,0
226,244,18892,1,0
85,245,19080,1,2
164,114,19267,1,0
287,113,19455,6,0,B|378:74|479:113,1,179.999994635582,2|0
454,154,19830,1,2
428,194,19923,1,0
396,230,20017,1,0
359,261,20111,1,0
320,289,20205,2,0,B|194:316|142:242,1,179.999994635582,2|0
126,214,20580,1,2
148,172,20673,1,0
121,131,20767,1,0
150,92,20861,1,0
129,50,20955,2,0,B|267:33|313:104,1,179.999994635582,2|0
327,125,21330,1,2
290,155,21423,1,0
265,196,21517,1,0
248,241,21611,1,0
243,288,21705,2,0,B|350:353|418:285,1,179.999994635582,2|0
426,198,22080,5,2
392,231,22173,1,0
357,265,22267,1,0
324,300,22361,1,0
287,331,22455,2,0,B|163:340|127:266,1,179.999994635582,2|0
192,198,22829,1,2
175,215,22923,1,0
158,232,23017,1,0
141,249,23111,1,0
124,266,23205,2,0,B|37:306|19:171,1,119.999996423721,2|0
31,199,23580,2,0,B|84:145,4,59.9999982118607,2|0|0|0|0
138,329,24142,5,0
138,329,24236,1,0
138,329,24330,1,2
210,178,24517,1,0
210,178,24611,1,0
210,178,24705,2,0,B|224:184|224:184|216:192|216:192|232:192|232:192|224:200|224:200|240:200|240:200|232:208|232:208|248:208|248:208|240:216|240:216|256:216|256:216|248:224|248:224|264:224|264:224|256:232|256:232|272:232|272:232|280:248|280:248|344:312,1,239.999992847443,2|2
192,192,25455,6,0,B|192:96|320:128,1,119.999996423721,4|0
320,192,25830,2,0,B|320:288|192:256,1,119.999996423721
184,184,26205,2,0,B|184:88|312:120,1,119.999996423721
328,200,26580,2,0,B|328:296|200:264,1,119.999996423721
176,176,26955,2,0,B|176:80|304:112,1,119.999996423721
336,208,27330,2,0,B|336:304|208:272,1,119.999996423721
168,168,27705,2,0,B|168:72|296:104,1,119.999996423721
344,216,28080,2,0,B|344:312|216:280,1,119.999996423721
280,104,28455,6,0,B|376:104|344:232,1,119.999996423721,4|0
232,280,28830,2,0,B|136:280|168:152,1,119.999996423721
300,84,29205,2,0,B|396:84|364:212,1,119.999996423721,4|0
212,300,29580,2,0,B|116:300|148:172,1,119.999996423721
320,64,29955,2,0,B|416:64|384:192,1,119.999996423721,4|0
192,320,30330,2,0,B|96:320|128:192,1,119.999996423721,4|0
80,112,30705,6,0,B|80:16|208:48,1,119.999996423721,4|0
432,272,31080,2,0,B|432:368|304:336,1,119.999996423721,4|0
324,344,31314,2,0,B|296:344,4,29.9999991059304,0|0|0|0|4
449,123,34455,5,0
434,174,34548,1,0
406,220,34642,1,0
363,253,34736,1,0
312,272,34830,1,0
259,284,34923,1,0
205,291,35017,1,0
150,291,35111,1,0
100,268,35205,2,0,B|60:259|56:204,3,59.9999982118607
37,175,35580,2,0,B|22:140|60:85,3,59.9999982118607
74,73,35955,5,0
125,56,36048,1,0
170,85,36142,1,0
204,126,36236,1,0
216,178,36330,1,0
206,230,36423,1,0
172,272,36517,1,0
125,299,36611,1,0
78,270,36705,2,0,B|15:238|33:159,1,119.999996423721
78,270,37080,2,0,B|129:270|129:271,8,29.9999991059304
156,344,37642,5,2
228,263,37830,1,0
293,348,38017,1,0
365,267,38205,2,0,B|439:211|405:131,1,119.999996423721,2|0
246,28,38580,2,0,B|172:84|206:164,1,119.999996423721,2|0
300,161,38955,5,2
393,254,39142,1,0
300,348,39330,1,0
204,257,39517,1,0
111,161,39705,2,0,B|225:72,1,119.999996423721,2|0
206,86,40080,2,0,B|313:170,1,119.999996423721,2|0
452,121,40455,6,0,B|513:174|421:274,1,119.999996423721
420,262,40830,6,0,B|367:323|267:231,1,119.999996423721,2|0
280,229,41205,6,0,B|219:176|311:76,1,119.999996423721
310,86,41580,6,0,B|363:25|463:117,1,119.999996423721,2|0
484,196,41955,5,2
352,197,42142,1,0
219,198,42330,1,2
87,198,42517,1,0
87,198,42705,6,0,B|226:198,1,106.666666666667
219,198,43080,2,0,B|295:197,2,53.3333333333333
273,197,43455,6,0,B|256:260|311:303,1,106.666666666667,4|0
471,200,43830,2,0,B|488:137|428:92,1,106.666666666667,0|0
341,276,44205,2,0,B|280:256|316:177,1,106.666666666667,4|0
406,126,44580,2,0,B|467:146|431:225,1,106.666666666667,0|0
438,258,44955,6,0,B|408:316|333:329,1,106.666666666667,4|0
255,338,45330,2,0,B|191:349|131:307,1,106.666666666667
81,238,45705,2,0,B|12:147|105:76,1,160,4|0
320,128,46455,6,0,B|256:176|352:256,1,106.666666666667,4|0
192,128,46830,2,0,B|256:176|160:256,1,106.666666666667
384,96,47205,6,0,B|464:176|336:288,1,159.999995231629,4|0
128,96,47580,2,0,B|48:176|176:288,1,159.999995231629
256,320,47955,1,0
256,272,48080,1,0
256,224,48205,1,0
256,176,48330,1,0
256,128,48455,1,0
256,80,48580,1,0
112,304,48705,5,2
400,304,48955,1,2
256,80,49205,1,2
148,72,49455,6,0,B|140:140|200:156,1,106.666666666667,0|0
232,172,49830,2,0,B|328:136|384:232,1,159.999995231629
376,240,50205,2,0,B|332:320|240:336,1,160,0|4
87,180,50955,6,0,B|103:112|159:68,1,106.666666666667
261,52,51330,2,0,B|341:52|405:156,1,159.999995231629
335,273,51705,2,0,B|284:323|160:296,1,160,0|4
56,232,52455,5,0
71,277,52580,1,0
104,311,52705,1,0
149,325,52830,1,0
194,310,52955,1,0
221,270,53080,1,0
239,214,53205,5,0
250,156,53330,1,0
275,103,53455,1,0
323,70,53580,1,0
381,72,53705,1,0
427,107,53830,1,0
414,164,53955,2,0,B|417:193|376:221,2,53.3333333333333
353,254,54330,2,0,B|335:288|288:288,2,53.3333333333333
259,306,54705,2,0,B|202:316|139:321|87:261|95:154,1,239.999992847443,0|4
128,288,55455,5,0
208,240,55642,2,2,B|252:240,3,26.6666666666667,0|0|0|0
304,176,56017,1,0
312,176,56080,1,0
320,176,56142,1,0
328,176,56205,1,0
388,100,56392,2,0,B|432:100,3,26.6666666666667,2|0|0|0
448,188,56767,5,0
440,200,56830,1,0
432,208,56892,1,0
420,212,56955,1,0
356,284,57142,1,2
348,300,57205,1,0
332,304,57267,1,0
316,300,57330,1,0
244,236,57517,1,0
256,228,57580,1,0
264,212,57642,1,0
268,196,57705,2,0,B|200:152|92:208|96:340,1,239.999992847443,2|2
88,112,58455,5,2
276,84,58830,1,0
288,84,58892,1,0
300,84,58955,1,0
312,84,59017,2,0,B|356:84,3,39.9999988079071,2|0|0|0
224,228,59580,5,0
236,236,59642,1,0
248,244,59705,1,0
260,252,59767,2,0,B|307:281,3,39.9999988079071,2|0|0|0
440,152,60330,5,0
440,168,60392,1,0
440,184,60455,1,0
440,200,60517,2,0,B|440:248,2,39.9999988079071,2|0|0
432,256,60705,2,0,B|384:288,5,39.9999988079071,4|0|0|0|0|0
384,288,61080,2,0,B|336:288,5,39.9999988079071,2|0|0|0|0|0
320,288,61455,2,0,B|256:288,3,39.9999988079071
128,232,61830,5,0
120,104,62017,1,0
256,80,62205,1,0
295,93,62298,1,0
311,131,62392,1,0
351,141,62486,1,0
353,183,62580,1,0
390,200,62673,1,0
391,242,62767,1,0
418,274,62861,1,0
407,314,62955,2,0,B|381:336|329:336,2,59.9999982118607
238,317,63330,5,0
139,212,63517,1,0
194,78,63705,1,0
246,67,63798,1,0
297,84,63892,1,0
336,120,63986,1,0
362,167,64080,1,0
374,218,64173,1,0
370,272,64267,1,0
335,313,64361,1,0
287,338,64455,2,0,B|246:348|201:319,2,59.9999982118607
128,280,64830,6,0,B|72:238|99:146,1,119.999996423721
260,156,65205,2,0,B|300:165|261:252|281:254,2,59.9999982118607
75,310,65580,6,0,B|30:269|25:161,1,119.999996423721
318,127,65955,2,0,B|333:162|333:217,2,59.9999982118607
314,295,66330,5,0
258,317,66423,1,0
199,301,66517,1,0
158,256,66611,1,0
131,201,66705,1,0
131,141,66798,1,0
152,84,66892,1,0
197,44,66986,1,0
255,32,67080,1,0
312,45,67173,1,0
352,89,67267,1,0
380,141,67361,1,0
380,201,67455,2,0,B|374:276|308:296,1,119.999996423721,2|0
256,188,67830,5,0
240,226,67923,1,0
215,260,68017,1,0
175,274,68111,1,0
133,267,68205,1,0
96,246,68298,1,0
76,208,68392,1,0
66,166,68486,1,0
66,123,68580,2,0,B|59:88|104:62,1,59.9999982118607,6|0
122,45,68767,2,0,B|153:24|194:32,1,59.9999982118607,6|0
224,48,68955,2,0,B|279:85|181:117|244:208,1,119.999996423721,6|0
335,174,69330,5,0
363,219,69423,1,0
372,272,69517,1,0
361,325,69611,1,0
318,358,69705,1,0
264,363,69798,1,0
212,346,69892,1,0
177,304,69986,1,0
161,252,70080,2,0,B|139:209|159:147,3,59.9999982118607,6|0|0|0
158,140,70455,2,0,B|174:66|244:40|243:41,1,119.999996423721,2|0
344,80,70830,5,0
360,112,70923,1,0
344,144,71017,1,0
360,176,71111,1,0
344,208,71205,1,0
360,240,71298,1,0
344,272,71392,1,0
360,304,71486,1,0
320,320,71580,1,0
280,304,71673,1,0
248,320,71767,1,0
216,304,71861,1,0
184,320,71955,1,0
152,304,72048,1,0
120,320,72142,1,0
80,304,72236,1,0
64,272,72330,1,0
80,240,72423,1,0
64,208,72517,1,0
80,176,72611,1,0
64,144,72705,2,0,B|64:96|64:56,3,59.9999982118607,6|0|6|0
88,64,73080,2,0,B|184:64,3,59.9999982118607,6|0|6|0
160,88,73455,6,0,B|200:160|288:136,1,119.999996423721,2|0
312,168,73830,2,0,B|352:160|376:216,3,59.9999982118607,2|0|0|0
368,248,74205,2,0,B|376:288|320:312,3,59.9999982118607,0|0|0|0
288,304,74580,2,4,B|248:312|224:256,3,59.9999982118607
224,224,74955,2,0,B|232:152|320:168,1,119.999996423721
408,88,75330,6,0,B|408:160,1,59.9999982118607,2|0
464,120,75517,2,0,B|400:152,1,59.9999982118607,0|0
456,184,75705,2,0,B|408:144,1,59.9999982118607,2|0
408,208,75892,2,0,B|408:136,1,59.9999982118607,0|0
360,184,76080,2,4,B|416:144,1,59.9999982118607
352,120,76267,2,4,B|424:160,1,59.9999982118607
404,149,76455,2,0,B|408:240|336:256,1,119.999996423721
256,320,76830,6,0,B|192:288,1,59.9999982118607
160,352,77017,2,0,B|192:288,1,59.9999982118607
224,256,77205,2,0,B|160:224,1,59.9999982118607,6|0
128,288,77392,2,0,B|160:224,1,59.9999982118607
192,192,77580,2,0,B|128:160,1,59.9999982118607
96,224,77767,2,0,B|128:160,1,59.9999982118607
160,128,77955,2,0,B|96:96,1,59.9999982118607,6|0
64,160,78142,2,0,B|96:96,1,59.9999982118607,4|0
128,64,78330,2,0,B|192:64,1,59.9999982118607,4|0
256,96,78517,2,0,B|352:96,1,59.9999982118607,4|0
384,128,78705,1,0
458,221,78892,5,0
447,249,78986,1,0
418,257,79080,1,0
412,286,79173,1,0
382,293,79267,1,0
375,322,79361,1,0
344,321,79455,1,0
331,347,79548,1,0
301,339,79642,1,0
278,358,79736,1,0
251,343,79830,1,0
224,357,79923,1,0
202,336,80017,1,0
176,351,80111,1,0
159,325,80205,1,0
132,339,80298,5,0
119,311,80392,1,0
88,309,80486,1,0
90,279,80580,1,0
61,270,80673,1,0
70,241,80767,1,0
49,218,80861,1,0
64,192,80955,1,0
42,171,81048,1,0
60,147,81142,1,0
47,119,81236,1,0
70,100,81330,1,0
64,70,81423,1,0
91,56,81517,1,0
99,27,81611,1,0
128,30,81705,5,0
224,96,81892,1,0
320,32,82080,1,0
416,128,82267,1,0
320,224,82455,1,0
224,320,82642,1,0
128,224,82830,1,0
32,128,83017,1,0
128,32,83205,5,0
224,96,83392,1,0
320,32,83580,1,0
224,96,83767,1,0
320,160,83955,1,0
224,96,84142,1,0
128,160,84330,1,0
224,96,84517,1,0
344,120,84705,6,0,B|392:144,1,29.9999991059304
392,144,84798,2,0,B|440:168,1,29.9999991059304,0|0
440,168,84892,2,0,B|488:192,1,29.9999991059304,0|0
464,200,84986,6,0,B|416:224,1,29.9999991059304
416,224,85079,2,0,B|368:248,1,29.9999991059304,0|0
368,248,85173,2,0,B|320:272,1,29.9999991059304,0|0
320,248,85267,6,0,B|272:224,1,29.9999991059304
272,224,85360,2,0,B|224:200,1,29.9999991059304,0|0
224,200,85454,6,0,B|168:168,1,59.9999982118607,0|0
120,240,85642,2,0,B|152:184,1,59.9999982118607,0|0
96,128,85830,2,0,B|152:160,1,59.9999982118607,0|0
200,88,86017,2,0,B|168:144,1,59.9999982118607,0|0
224,200,86205,6,0,B|192:232,1,29.9999991059304
184,240,86298,2,0,B|152:272,1,29.9999991059304,0|0
144,280,86392,2,0,B|112:312,1,29.9999991059304,0|0
104,280,86486,6,0,B|72:248,1,29.9999991059304
64,240,86579,2,0,B|32:208,1,29.9999991059304,0|0
24,200,86673,2,0,B|-8:168,1,29.9999991059304,0|0
24,160,86767,6,0,B|56:128,1,29.9999991059304
64,120,86860,2,0,B|96:88,1,29.9999991059304,0|0
104,80,86955,6,0,B|152:32,1,59.9999982118607
208,40,87142,2,0,B|256:88,1,59.9999982118607
312,80,87330,2,0,B|360:32,1,59.9999982118607
416,40,87517,2,0,B|464:88,1,59.9999982118607
440,144,87705,6,0,B|440:192,1,29.9999991059304
440,144,87798,2,0,B|400:176,1,29.9999991059304
440,144,87892,2,0,B|400:144,1,29.9999991059304
440,144,87986,2,0,B|400:112,1,29.9999991059304
440,144,88080,2,0,B|440:107,1,29.9999991059304
440,144,88173,2,0,B|480:112,1,29.9999991059304
440,144,88267,2,0,B|496:144,1,29.9999991059304
440,144,88361,2,0,B|480:176,1,29.9999991059304
440,144,88455,6,0,B|368:224,1,59.9999982118607
320,192,88642,2,0,B|392:112,1,59.9999982118607
288,144,88830,2,0,B|216:224,1,59.9999982118607
168,192,89017,2,0,B|240:112,1,59.9999982118607
248,208,89205,6,0,B|248:256,1,29.9999991059304
272,216,89298,2,0,B|232:248,1,29.9999991059304
280,240,89392,2,0,B|240:240,1,29.9999991059304
272,256,89486,2,0,B|232:224,1,29.9999991059304
248,264,89580,2,0,B|248:227,1,29.9999991059304
224,256,89673,2,0,B|264:224,1,29.9999991059304
216,240,89767,2,0,B|272:240,1,29.9999991059304
224,216,89861,2,0,B|264:248,1,29.9999991059304
248,208,89955,6,0,B|248:136,1,59.9999982118607,0|0
176,152,90142,2,0,B|176:80,1,59.9999982118607
320,152,90330,2,0,B|320:80,1,59.9999982118607
248,16,90517,2,0,B|248:80,1,59.9999982118607
248,152,90705,6,0,B|192:160,1,29.9999991059304
257,176,90798,2,0,B|217:192,1,29.9999991059304
272,196,90892,2,0,B|240:212,1,29.9999991059304
286,212,90986,2,0,B|254:236,1,29.9999991059304
299,222,91080,2,0,B|267:246,1,29.9999991059304
314,229,91173,2,0,B|282:261,1,29.9999991059304
330,232,91267,2,0,B|309:266,1,29.9999991059304
347,233,91361,2,0,B|333:277,1,29.9999991059304
366,232,91455,6,0,B|384:263|356:294,3,59.9999982118607
293,337,91830,2,0,B|263:347|231:327,3,59.9999982118607
160,288,92205,6,0,B|136:264,1,29.9999991059304
160,256,92298,2,0,B|184:232,1,29.9999991059304
160,224,92392,2,0,B|136:200,1,29.9999991059304
160,192,92486,2,0,B|184:168,1,29.9999991059304
160,160,92579,2,0,B|136:136,1,29.9999991059304
160,128,92673,2,0,B|184:104,1,29.9999991059304
160,96,92767,2,0,B|136:72,1,29.9999991059304
160,64,92861,2,0,B|184:40,1,29.9999991059304
208,16,92955,6,0,B|272:16,3,59.9999982118607
272,96,93330,2,0,B|336:128,3,59.9999982118607
304,208,93705,6,0,B|224:272|160:240,1,119.999996423721
96,208,94080,2,0,B|176:144|240:176,1,119.999996423721
304,208,94455,2,0,B|352:80|288:48,1,119.999996423721
96,208,94830,2,0,B|48:336|112:368,1,119.999996423721
208,208,95205,6,0,B|169:106|169:106|214:31,1,160,4|0
304,208,95580,2,0,B|343:106|343:106|298:31,1,160,4|0
76,154,95955,2,0,B|124:138|124:138|220:218,1,160,4|0
436,154,96330,2,0,B|388:138|388:138|292:218,1,160,4|0
257,331,96705,6,0,B|208:282,5,39.9999988079071
229,234,97080,2,0,B|278:283,5,39.9999988079071
307,215,97455,6,0,B|258:166,5,39.9999988079071
279,118,97830,2,0,B|328:167,5,39.9999988079071
366,180,98205,6,0,B|415:229,5,39.9999988079071
394,275,98580,2,0,B|345:226,5,39.9999988079071
329,305,98955,6,0,B|261:305,1,59.9999982118607,4|0
229,341,99142,2,0,B|161:341,1,59.9999982118607,4|0
154,288,99330,2,0,B|76:288,1,59.9999982118607,4|0
62,332,99517,2,0,B|0:332,1,59.9999982118607,4|0
31,252,99705,6,0,B|40:202,5,39.9999988079071
92,197,100080,2,0,B|101:147,5,39.9999988079071
150,134,100455,2,0,B|159:84,5,39.9999988079071
222,134,100830,6,0,B|213:84,5,39.9999988079071
280,197,101205,2,0,B|271:147,5,39.9999988079071
341,251,101580,2,0,B|332:201,5,39.9999988079071
386,191,101955,6,0,B|395:116,1,59.9999982118607,4|0
477,127,102142,2,0,B|402:118,1,59.9999982118607,4|0
337,147,102330,2,0,B|346:72,1,59.9999982118607,4|0
428,83,102517,2,0,B|353:74,1,59.9999982118607,4|0
288,80,102705,6,0,B|240:80,1,29.9999991059304,4|0
240,80,102798,2,0,B|192:80,1,29.9999991059304
192,80,102892,2,0,B|144:80,1,29.9999991059304
144,80,102985,2,0,B|96:80,1,29.9999991059304
96,80,103080,2,0,B|96:128,1,29.9999991059304,4|0
96,128,103173,2,0,B|96:176,1,29.9999991059304
96,176,103267,2,0,B|96:224,1,29.9999991059304
96,224,103360,2,0,B|96:272,1,29.9999991059304
96,272,103455,6,0,B|144:272,1,29.9999991059304,4|0
144,272,103548,2,0,B|192:272,1,29.9999991059304
192,272,103642,2,0,B|240:272,1,29.9999991059304
240,272,103735,2,0,B|288:272,1,29.9999991059304
288,272,103830,2,0,B|288:224,1,29.9999991059304,4|0
288,224,103923,2,0,B|288:176,1,29.9999991059304
288,176,104017,2,0,B|288:128,1,29.9999991059304
288,128,104110,2,0,B|240:128,1,29.9999991059304
240,128,104205,6,0,B|192:128,1,29.9999991059304,4|0
192,128,104298,2,0,B|144:128,1,29.9999991059304
160,144,104392,2,0,B|160:192,1,29.9999991059304
160,192,104486,2,0,B|160:224,1,29.9999991059304
176,224,104580,2,0,B|224:224,1,29.9999991059304,4|0
224,224,104673,2,0,B|256:224,1,29.9999991059304
256,208,104767,2,0,B|256:160,1,29.9999991059304
240,176,104861,2,0,B|192:176,1,29.9999991059304
192,176,104955,6,0,B|160:160|112:208,7,59.9999982118607,4|0|0|0|0|0|0|0
112,224,105705,2,0,B|96:256|144:304,7,59.9999982118607
160,304,106455,2,0,B|179:323|208:288,11,39.9999988079071
195,301,107205,1,0
256,144,107580,1,4
