osu file format v5

[General]
AudioFilename: DDMS - Forget Not Tomorrow.mp3
AudioLeadIn: 0
PreviewTime: -1
Countdown: 1
SampleSet: Normal
StackLeniency: 0.7
Mode: 0

[Metadata]
Title:Forget Not Tomorrow
Artist:Doki Doki Majo Shinpan OST
Creator:neo@lex
Version:Normal
Source:
Tags:

[Difficulty]
HPDrainRate:5
CircleSize:5
OverallDifficulty:5
SliderMultiplier:1.4
SliderTickRate:1

[Events]
//Background and Video events
0,0,"DokiMajo.png"
//Break Periods
2,34850,40261
2,65074,74316
2,85932,91343
2,170004,183289
//Storyboard Layer 0 (Background)
//Storyboard Layer 1 (Failing)
//Storyboard Layer 2 (Passing)
//Storyboard Layer 3 (Foreground)
//Storyboard Sound Samples
//Background Colour Transformations
3,100,11,130,136

[TimingPoints]
610,425.682866264633,4,1,0,50
99368,425.682866264633,4,2,0,51
106178,425.682866264633,4,1,0,50

[Colours]
Combo1 : 170,170,255
Combo2 : 255,128,255
Combo3 : 128,255,255
Combo4 : 255,191,255

[HitObjects]
96,160,7420,2,0,B|160:112|240:160,1,140
256,192,8059,1,2
288,32,9123,2,0,B|336:96|288:176,1,140
256,192,9762,1,2
416,224,10826,2,0,B|352:272|272:224,1,140
256,192,11464,1,2
224,352,12529,2,0,B|176:288|224:208,1,140
256,192,13167,2,2,L|254:113|183:99|98:139|96:192,1,280
96,224,14231,6,0,B|160:272|240:224,1,140
256,192,14870,1,4
288,352,15934,2,0,B|336:288|288:208,1,140
256,192,16573,1,4
416,160,17637,2,0,B|352:112|272:160,1,140
256,192,18275,1,4
224,32,19340,2,0,B|176:96|224:176,1,140
256,192,19978,2,2,L|256:254|317:281|399:260|416:192,1,280
416,160,21042,6,2,B|352:112|272:160,1,140
256,192,21681,1,4
224,32,22745,2,2,B|176:96|224:176,1,140
256,192,23384,1,4
96,224,24448,2,2,B|160:272|240:224,1,140
256,192,25086,1,4
288,352,26150,2,2,B|336:288|288:208,1,140
256,192,26789,1,4
256,64,27853,6,0,L|361:64|416:99|416:224,1,280
384,320,29130,1,0
256,320,29556,2,0,L|151:320|96:285|96:160,1,280
128,64,30833,1,0
256,64,31259,2,0,L|361:64|416:99|416:224,1,280
384,320,32536,1,0
256,192,32961,12,0,34664
208,112,41475,6,0,B|224:36|352:48,1,140
288,96,42114,2,0,B|272:172|144:160,1,140
256,192,43178,12,0,44455
304,272,44881,6,0,B|288:348|160:336,1,140
224,288,45519,2,0,B|240:212|368:224,1,140
256,192,46583,12,0,47860
336,144,48286,6,0,B|412:160|400:288,1,140
352,224,48925,2,0,B|276:208|288:80,1,140
256,192,49989,12,0,51266
352,192,51691,2,4,B|256:373|144:192,2,280
256,192,53501,12,0,54671
304,112,55097,6,2,B|288:36|160:48,1,140
224,96,55735,2,2,B|240:172|368:160,1,140
256,192,56800,12,0,58077
208,272,58502,6,2,B|224:348|352:336,1,140
288,288,59141,2,2,B|272:212|144:224,1,140
256,192,60205,12,0,61482
176,144,61908,6,6,B|100:160|112:288,1,140
160,224,62546,2,6,B|236:208|224:80,1,140
368,192,63611,6,0,B|288:192,6,70
256,192,75530,6,0,B|256:112|384:144,1,140
320,176,76168,2,2,B|320:256|192:224,1,140
256,192,76807,2,0,B|256:112|128:144,1,140
192,176,77445,2,2,B|192:256|320:224,1,140
256,192,78084,2,0,B|256:32,1,140
256,192,78935,6,0,B|256:272|384:240,1,140
320,208,79574,2,2,B|320:128|192:160,1,140
256,192,80212,2,0,B|256:272|128:240,1,140
192,208,80851,2,4,B|192:128|320:160,1,140
256,192,81489,2,2,B|352:208|384:144|336:96|240:112,1,210
208,112,82341,2,4,B|53:228|224:272,1,210
256,192,84043,12,0,84682
256,192,85320,1,4
256,192,85746,1,4
128,176,92557,6,0,B|192:128|272:192,3,140
256,64,94260,2,0,B|304:128|256:208,3,140
384,192,95962,2,0,B|320:240|240:192,3,140
256,320,97665,2,0,B|208:256|256:176,3,140
128,176,99368,6,0,B|192:128|272:192,3,140
256,64,101070,2,0,B|304:128|256:208,3,140
384,192,102773,2,0,B|320:240|240:192,3,140
256,320,104476,2,0,B|304:256|304:160,3,140
416,160,106178,6,0,B|352:112|272:160,1,140
256,192,106816,1,2
224,32,107880,2,0,B|176:96|224:176,1,140
256,192,108519,1,2
96,224,109583,2,0,B|160:272|240:224,1,140
256,192,110221,1,2
288,352,111286,2,0,B|336:288|288:208,1,140
256,192,111924,1,2
416,224,112988,6,0,B|352:272|272:224,1,140
256,192,113627,1,4
224,352,114691,2,0,B|176:288|224:208,1,140
256,192,115330,1,4
96,160,116394,2,0,B|160:112|240:160,1,140
256,192,117032,1,4
288,32,118097,2,0,B|336:96|288:176,1,140
256,192,118735,1,2
384,272,119799,5,0
288,336,120225,1,0
224,336,120438,1,0
128,272,120864,1,0
256,192,121502,12,0,122779
128,112,123205,5,0
224,48,123630,1,0
288,48,123843,1,0
384,112,124269,1,0
256,192,124908,12,0,126185
384,272,126610,5,2
288,336,127036,1,2
224,336,127249,1,2
128,272,127674,1,2
256,192,128313,12,0,129590
256,192,130016,12,0,131718
256,192,131825,12,0,132996
304,112,133421,6,0,B|288:36|160:48,1,140
224,96,134060,2,0,B|240:172|368:160,1,140
112,96,135337,1,0
272,96,135975,1,0
304,208,136401,1,0
208,272,136827,6,0,B|224:348|352:336,1,140
288,288,137465,2,0,B|272:212|144:224,1,140
384,288,138742,1,0
208,288,139381,1,0
272,192,139806,1,0
176,144,140232,6,0,B|100:160|112:288,1,140
160,224,140871,2,0,B|236:208|224:80,1,140
256,128,142786,6,2,L|254:113|183:99|98:139|96:192,1,210
96,224,143638,6,0,B|160:272|240:224,1,140
256,192,144276,1,4
288,352,145340,2,0,B|336:288|288:208,1,140
256,192,145979,1,4
416,160,147043,2,0,B|352:112|272:160,1,140
256,192,147682,1,4
224,32,148746,2,0,B|176:96|224:176,1,140
256,192,149384,2,2,L|258:271|329:285|414:245|416:192,1,280
416,160,150449,6,0,B|352:112|272:160,1,140
256,192,151087,1,4
224,32,152151,2,0,B|176:96|224:176,1,140
256,192,152790,1,4
96,224,153854,2,0,B|160:272|240:224,1,140
256,192,154493,1,4
288,352,155557,2,0,B|336:288|288:208,1,140
256,192,156195,1,4
256,64,157259,6,0,L|361:64|416:99|416:224,1,280
384,320,158536,1,0
256,320,158962,2,0,L|151:320|96:285|96:160,1,280
128,64,160239,1,0
256,64,160665,2,0,L|361:64|416:99|416:224,1,280
384,320,161942,1,0
256,192,162368,12,0,164070
256,192,164709,1,4
224,32,165773,2,0,B|176:96|224:176,1,140
256,192,166412,2,2,L|258:271|329:285|414:245|416:192,1,280
416,160,167476,6,2,B|352:112|272:160,1,140
256,192,168114,1,4
224,32,169179,2,2,B|176:96|224:176,1,140
256,192,169817,1,4
208,112,184503,6,2,B|224:36|352:48,1,140
288,96,185142,2,2,B|272:172|144:160,1,140
178,161,185780,1,4
256,192,186206,12,0,187483
304,272,187909,6,2,B|288:348|160:336,1,140
224,288,188547,2,2,B|240:212|368:224,1,140
333,222,189186,1,4
256,192,189611,12,0,190888
336,144,191314,6,2,B|412:160|400:288,1,140
352,224,191953,2,2,B|276:208|288:80,1,140
286,114,192591,1,4
176,128,193017,6,0,B|96:128,5,70
256,192,194720,6,0,B|176:192|208:64,1,140
240,128,195358,2,2,B|320:128|288:256,1,140
256,192,195997,2,0,B|176:192|208:320,1,140
240,256,196635,2,2,B|320:256|288:128,1,140
256,192,197274,2,0,B|96:192,1,140
256,192,198125,6,0,B|336:192|304:64,1,140
272,128,198764,2,2,B|192:128|224:256,1,140
256,192,199402,2,0,B|336:192|304:320,1,140
272,256,200041,2,4,B|192:256|224:128,1,140
256,192,200679,2,2,B|272:96|208:64|160:112|176:208,1,210
176,240,201530,2,4,B|292:395|336:224,1,210
256,192,203233,12,0,203872
256,192,204510,1,4
256,192,204936,2,0,B|336:192|304:320,1,140
272,256,205574,2,2,B|192:256|224:128,1,140
256,192,206213,2,0,B|336:192|304:64,1,140
272,128,206851,2,2,B|192:128|224:256,1,140
256,192,207490,2,0,B|416:192,1,140
256,192,208341,6,0,B|176:192|208:320,1,140
240,256,208980,2,2,B|320:256|288:128,1,140
256,192,209618,2,0,B|176:192|208:64,1,140
240,128,210257,2,4,B|320:128|288:256,1,140
256,192,210895,2,2,B|240:288|304:320|352:272|336:176,1,210
336,144,211747,2,4,B|220:-11|176:160,1,210
256,192,213450,12,0,214088
256,192,214727,1,4
256,192,215152,1,4
256,192,215259,12,0,218558
256,192,218664,12,0,220261
256,192,220367,12,4,221963
