osu file format v14

[General]
AudioFilename: Pump It Up PRIME Leakage Voltage BGA.mp3
AudioLeadIn: 0
PreviewTime: 66879
Countdown: 0
SampleSet: Normal
StackLeniency: 0.7
Mode: 0
LetterboxInBreaks: 0
WidescreenStoryboard: 0

[Editor]
Bookmarks: 12213,61962
DistanceSpacing: 1.3
BeatDivisor: 4
GridSize: 4
TimelineZoom: 1.9

[Metadata]
Title:Leakage Voltage
TitleUnicode:Leakage Voltage
Artist:Doin
ArtistUnicode:Doin
Creator:Sangzin
Version:Hard
Source:Pump It Up Prime
Tags:PIU 2015 14th dance floor
BeatmapID:648789
BeatmapSetID:287554

[Difficulty]
HPDrainRate:6
CircleSize:3.7
OverallDifficulty:6
ApproachRate:7.5
SliderMultiplier:1.2
SliderTickRate:1

[Events]
//Background and Video events
0,0,"Leakage voltage.png",0,0
Video,150,"bga.avi"
//Break Periods
2,31079,35388
2,56413,60721
//Storyboard Layer 0 (Background)
//Storyboard Layer 1 (Fail)
//Storyboard Layer 2 (Pass)
//Storyboard Layer 3 (Foreground)
//Storyboard Sound Samples

[TimingPoints]
1547,333.333333333333,4,1,0,70,1,0
22880,-133.333333333333,4,2,0,60,0,0
23046,-133.333333333333,4,2,0,40,0,0
24213,-133.333333333333,4,2,0,60,0,0
24380,-133.333333333333,4,2,0,40,0,0
25546,-133.333333333333,4,2,0,60,0,0
25713,-133.333333333333,4,2,0,40,0,0
26880,-133.333333333333,4,2,0,60,0,0
28380,-133.333333333333,4,2,0,40,0,0
29546,-133.333333333333,4,2,0,60,0,0
29713,-133.333333333333,4,2,0,40,0,0
30880,-133.333333333333,4,2,0,60,0,0
36213,250,4,3,0,70,1,0
36213,-133.333333333333,4,3,0,70,0,0
38213,-133.333333333333,4,3,0,70,0,0
40213,-133.333333333333,4,3,0,70,0,0
47213,-133.333333333333,4,1,0,70,0,0
48213,-133.333333333333,4,3,0,70,0,0
55213,-133.333333333333,4,1,0,70,0,0
56213,333.333333333333,4,1,0,70,1,0
61546,-100,4,2,0,70,0,0
66879,-100,4,1,0,70,0,1
97546,-100,4,2,0,50,0,0
98879,-100,4,1,0,70,0,1
105212,-100,4,3,0,60,0,1
106379,-100,4,1,0,70,0,1
109379,-100,4,1,0,60,0,1
109546,-100,4,1,0,50,0,0
109879,-100,4,2,0,60,0,0
110212,-100,4,2,0,50,0,0
110546,-100,4,2,0,40,0,0
110879,-100,4,2,0,30,0,0
111212,-100,4,2,0,20,0,0
111546,-100,4,2,0,10,0,0
111879,-100,4,2,0,5,0,0

[Colours]
Combo1 : 0,91,121
Combo2 : 121,134,159
Combo3 : 0,79,174

[HitObjects]
132,128,12213,5,0,0:0:0:0:
68,260,12546,2,0,B|112:316|112:316|176:312,1,120,0|0,0:0|0:0,0:0:0:0:
240,304,13046,1,8,0:0:0:0:
372,260,13380,1,0,0:0:0:0:
372,260,13546,1,0,0:0:0:0:
432,116,13880,2,0,B|384:76|384:76|320:84,1,120,0|0,0:0|0:0,0:0:0:0:
252,104,14380,1,8,0:0:0:0:
176,228,14713,1,0,0:0:0:0:
176,228,14880,5,0,0:0:0:0:
248,364,15213,2,0,L|396:376,1,120,0|0,0:0|0:0,0:0:0:0:
432,332,15713,1,8,0:0:0:0:
388,176,16046,1,0,0:0:0:0:
388,176,16213,1,0,0:0:0:0:
344,28,16546,2,0,L|196:16,1,120,0|0,0:0|0:0,0:0:0:0:
156,52,17046,1,8,0:0:0:0:
160,204,17379,1,0,0:0:0:0:
92,248,17546,6,0,P|36:220|32:140,1,120
84,24,18213,1,0,0:0:0:0:
156,52,18380,1,8,0:0:0:0:
312,112,18713,1,0,0:0:0:0:
372,64,18880,2,0,B|412:104|412:104|444:212,1,120,0|0,0:0|0:0,0:0:0:0:
316,272,19546,1,0,0:0:0:0:
236,276,19713,1,8,0:0:0:0:
312,112,20046,1,0,0:0:0:0:
312,112,20213,6,0,B|248:80|224:128|176:112,2,120,0|0|0,0:0|0:0|0:0,0:0:0:0:
312,112,21046,1,8,0:0:0:0:
412,200,21380,1,0,0:0:0:0:
412,200,21546,2,0,B|380:264|428:288|412:336,2,120,0|0|0,0:0|0:0|0:0,0:0:0:0:
412,200,22380,1,8,0:0:0:0:
284,284,22713,1,0,0:0:0:0:
284,284,22880,6,0,P|184:256|148:176,1,180.000006866455,2|0,0:2|0:0,0:0:0:0:
168,96,23880,1,0,0:0:0:0:
252,44,24213,2,0,P|352:72|388:152,1,180.000006866455,2|0,0:0|0:0,0:0:0:0:
388,232,25213,1,0,0:0:0:0:
364,328,25546,2,0,P|312:352|188:360,1,180.000006866455,2|0,0:0|0:0,0:0:0:0:
56,216,26880,5,2,0:0:0:0:
152,24,27546,1,2,0:0:0:0:
364,68,28213,6,0,P|472:112|492:184,1,180.000006866455,2|0,0:0|0:0,0:0:0:0:
280,204,29546,2,0,P|216:256|376:288,1,360.000013732911,2|2,0:0|0:0,0:0:0:0:
172,96,36213,5,0,0:0:0:0:
172,96,36463,2,0,L|252:180,1,90.0000034332277,8|0,0:0|0:0,0:0:0:0:
335,98,36963,1,8,0:0:0:0:
335,98,37213,2,0,L|255:182,1,90.0000034332277,0|8,0:0|0:0,0:0:0:0:
256,280,37713,2,0,L|256:180,1,90.0000034332277,0|8,0:0|0:0,0:0:0:0:
204,84,38213,6,0,L|300:84,1,90.0000034332277,0|8,0:0|0:0,0:0:0:0:
324,220,38713,2,0,L|204:220,1,90.0000034332277,0|8,0:0|0:0,0:0:0:0:
192,72,39213,2,0,L|296:72,1,90.0000034332277,4|8,0:0|0:0,0:0:0:0:
332,236,39713,2,0,L|220:236,1,90.0000034332277,8|8,0:0|0:0,0:0:0:0:
144,168,40213,5,4,0:0:0:0:
72,76,40463,1,8,0:0:0:0:
36,200,40713,1,0,0:0:0:0:
44,232,40838,1,0,0:0:0:0:
56,260,40963,2,0,P|132:312|144:312,1,90.0000034332277,8|0,0:0|0:0,0:0:0:0:
240,240,41463,2,0,L|196:228,2,45.0000017166138
356,224,41963,1,0,0:0:0:0:
364,108,42213,5,4,0:0:0:0:
288,20,42463,1,8,0:0:0:0:
177,58,42713,2,0,P|155:80|145:109,2,45.0000017166138,0|0|8,0:0|0:0|0:0,0:0:0:0:
260,144,43213,1,0,0:0:0:0:
228,256,43463,1,8,0:0:0:0:
200,280,43588,1,0,0:0:0:0:
168,300,43713,2,0,L|128:320,2,45.0000017166138,0|0|8,0:0|0:0|0:0,0:0:0:0:
320,200,44213,6,0,P|380:184|400:148,1,90.0000034332277,4|8,0:0|0:0,0:0:0:0:
392,48,44713,1,0,0:0:0:0:
276,72,44963,1,8,0:0:0:0:
276,72,45088,1,0,0:0:0:0:
276,72,45213,2,0,P|228:60|176:76,1,90.0000034332277,0|8,0:0|0:0,0:0:0:0:
152,96,45588,1,0,0:0:0:0:
116,124,45713,2,0,P|72:132|29:120,1,90.0000034332277,0|8,0:0|0:0,0:0:0:0:
108,232,46213,6,0,P|136:272|184:284,1,90.0000034332277,4|8,0:0|0:0,0:0:0:0:
204,252,46588,1,0,0:0:0:0:
232,216,46713,2,0,L|232:116,1,90.0000034332277,0|8,0:0|0:0,0:0:0:0:
320,60,47213,5,4,0:0:0:0:
426,41,47463,1,4,0:0:0:0:
475,138,47713,1,4,0:0:0:0:
398,215,47963,1,4,0:0:0:0:
302,165,48213,6,0,L|212:216,1,90.0000034332277
270,316,48713,2,0,L|315:290,2,45.0000017166138
398,215,49213,1,0,0:0:0:0:
348,128,49463,2,0,L|312:80,1,45.0000017166138,8|0,0:0|0:0,0:0:0:0:
283,46,49713,1,0,0:0:0:0:
153,81,49963,1,8,0:0:0:0:
82,174,50213,6,0,P|31:230|26:261,2,90.0000034332277,0|8|0,0:0|0:0|0:0,0:0:0:0:
135,278,50963,1,8,0:0:0:0:
240,272,51213,2,0,L|336:240,1,90.0000034332277,0|8,0:0|0:0,0:0:0:0:
349,267,51588,1,0,0:0:0:0:
372,290,51713,2,0,L|468:258,1,90.0000034332277,0|8,0:0|0:0,0:0:0:0:
424,140,52213,6,0,L|372:52,1,90.0000034332277,4|8,0:0|0:0,0:0:0:0:
256,116,52713,1,0,0:0:0:0:
133,62,52963,2,0,L|88:140,1,90.0000034332277,8|0,0:0|0:0,0:0:0:0:
112,260,53463,1,8,0:0:0:0:
112,260,53588,1,0,0:0:0:0:
112,260,53713,2,0,B|160:264|176:292|208:284,1,90.0000034332277,0|8,0:0|0:0,0:0:0:0:
308,248,54213,5,4,0:0:0:0:
336,136,54463,2,0,L|272:136,2,45.0000017166138,8|0|0,0:0|0:0|0:0,0:0:0:0:
232,48,54963,1,8,0:0:0:0:
120,120,55213,5,4,0:0:0:0:
44,231,55463,1,4,0:0:0:0:
128,338,55713,1,4,0:0:0:0:
255,292,55963,1,4,0:0:0:0:
256,160,56213,1,4,1:0:0:0:
368,197,61546,6,0,L|405:251,2,60,0|0|2,0:0|0:0|0:0,0:0:0:0:
288,199,62046,2,0,L|222:204,2,60,0|0|2,0:0|0:0|0:0,0:0:0:0:
324,128,62546,2,0,L|352:68,1,60
272,64,62879,2,0,P|192:72|160:120,1,120,2|2,0:0|0:0,0:0:0:0:
176,176,63379,1,2,0:0:0:0:
224,304,63712,2,0,L|304:240,2,60,0|2|0,0:0|0:0|0:0,0:0:0:0:
152,268,64212,6,0,P|104:204|120:124,1,120,0|2,0:0|0:0,0:0:0:0:
108,88,64712,2,0,P|168:32|224:32,1,120,0|2,0:0|0:0,0:0:0:0:
280,28,65212,1,0,0:0:0:0:
352,60,65379,1,0,0:0:0:0:
396,124,65546,2,0,P|400:188|372:240,1,120,2|0,0:0|0:0,0:0:0:0:
316,280,66046,1,0,0:0:0:0:
160,264,66379,1,0,0:0:0:0:
224,128,66712,1,0,0:0:0:0:
224,128,66879,6,0,P|280:64|332:68,1,120,4|0,0:0|0:0,0:0:0:0:
304,140,67379,2,0,P|248:204|196:200,1,120,0|0,0:0|0:0,0:0:0:0:
196,280,67879,2,0,P|244:328|308:328,1,120,0|0,0:0|0:0,0:0:0:0:
368,308,68379,1,0,0:0:0:0:
396,236,68546,2,0,L|348:164,1,60,0|0,0:0|0:0,0:0:0:0:
232,96,69046,2,0,L|120:128,2,60
308,76,69546,6,0,B|368:52|432:76,1,120,4|0,0:3|0:0,0:0:0:0:
456,148,70046,1,0,0:0:0:0:
472,224,70212,2,0,L|464:304,1,60
388,304,70546,2,0,P|336:296|320:276,1,60
336,216,70879,6,0,P|336:120|256:96,1,180
192,92,71546,2,0,L|96:92,1,60,0|0,0:0|0:0,0:0:0:0:
80,166,71879,1,0,0:0:0:0:
164,204,72046,1,0,0:0:0:0:
164,204,72129,1,0,0:0:0:0:
164,204,72212,6,0,P|212:220|260:284,1,120,4|0,0:0|0:0,0:0:0:0:
332,264,72712,2,0,P|388:216|388:160,1,120,0|0,0:0|0:0,0:0:0:0:
320,144,73212,2,0,L|192:128,2,120,0|0|0,0:0|0:0|0:0,0:0:0:0:
320,144,74046,1,0,0:0:0:0:
196,52,74379,1,0,0:0:0:0:
120,60,74546,1,0,0:0:0:0:
84,128,74712,1,0,0:0:0:0:
92,204,74879,6,0,L|232:240,1,120,4|0,0:3|0:0,0:0:0:0:
296,252,75379,2,0,P|356:264|424:252,1,120,0|0,0:0|0:0,0:0:0:0:
452,324,75879,1,0,0:0:0:0:
376,348,76046,1,0,0:0:0:0:
296,332,76212,2,0,P|248:316|216:252,1,120,0|0,0:0|0:0,0:0:0:0:
192,184,76712,1,0,0:0:0:0:
188,104,76879,2,0,L|208:20,1,60,0|0,0:0|0:0,0:0:0:0:
287,16,77212,1,0,0:0:0:0:
357,72,77379,1,0,0:0:0:0:
357,72,77462,1,0,0:0:0:0:
357,72,77546,5,4,0:0:0:0:
381,158,77712,2,0,L|404:228,2,60
308,211,78212,2,0,L|296:295,2,60
217,213,78712,1,0,0:0:0:0:
256,128,78879,6,0,L|311:105,2,60,0|0|0,0:0|0:0|0:0,0:0:0:0:
216,60,79379,2,0,P|124:44|68:92,1,120,0|0,0:0|0:0,0:0:0:0:
76,124,79879,1,0,0:0:0:0:
104,196,80046,1,0,0:0:0:0:
176,224,80212,6,0,L|288:288,1,120,4|0,0:3|0:0,0:0:0:0:
321,217,80712,2,0,L|321:89,1,120,0|0,0:0|0:0,0:0:0:0:
356,28,81212,1,0,0:0:0:0:
432,52,81379,1,0,0:0:0:0:
460,120,81546,2,0,P|416:188|400:248,1,120,0|0,0:0|0:0,0:0:0:0:
356,288,82046,1,0,0:0:0:0:
284,316,82212,2,0,P|224:308|180:280,1,60,0|0,0:0|0:0,0:0:0:0:
148,316,82546,1,0,0:0:0:0:
76,284,82712,1,0,0:0:0:0:
104,208,82879,6,0,P|136:164|200:148,1,120,4|0,0:0|0:0,0:0:0:0:
180,224,83379,1,0,0:0:0:0:
256,228,83546,2,0,L|336:228,1,60,0|0,0:0|0:0,0:0:0:0:
360,152,83879,2,0,L|295:152,1,60
212,152,84212,2,0,P|244:88|300:68,1,120,0|0,2:0|0:0,0:0:0:0:
376,72,84712,1,0,0:0:0:0:
368,232,85046,2,0,L|368:304,2,60,0|0|0,0:0|0:0|0:0,0:0:0:0:
272,272,85546,6,0,P|200:244|200:188,1,120,4|0,0:3|0:0,0:0:0:0:
192,132,86046,1,0,0:0:0:0:
108,252,86379,2,0,L|108:340,1,60
188,352,86712,2,0,L|188:276,1,60
268,248,87046,1,0,0:0:0:0:
268,160,87212,2,0,L|268:100,2,60,0|0|0,0:0|0:0|0:0,0:0:0:0:
184,188,87712,1,0,0:0:0:0:
144,108,87879,2,0,P|124:64|128:28,1,60
216,28,88212,6,0,L|348:16,1,120,4|0,0:0|0:0,0:0:0:0:
400,80,88712,2,0,L|444:216,1,120,0|0,0:0|0:0,0:0:0:0:
428,272,89212,1,0,0:0:0:0:
364,316,89379,1,0,0:0:0:0:
288,332,89546,2,0,L|229:317,1,60,0|0,0:0|0:0,0:0:0:0:
156,288,89879,1,0,0:0:0:0:
100,232,90046,2,0,P|76:168|104:116,1,120,0|0,0:0|0:0,0:0:0:0:
144,48,90546,1,0,0:0:0:0:
188,124,90712,1,0,0:0:0:0:
277,127,90879,6,0,P|318:167|313:225,1,120,4|0,0:3|0:0,0:0:0:0:
236,239,91379,2,0,P|260:291|336:299,1,120,0|0,0:0|0:0,0:0:0:0:
392,280,91879,2,0,P|428:256|440:208,1,60
472,172,92212,2,0,P|470:112|428:48,1,120
364,64,92712,1,0,0:0:0:0:
316,124,92879,2,0,L|312:204,1,60
316,264,93212,1,0,0:0:0:0:
316,264,93296,1,0,0:0:0:0:
316,264,93379,1,0,0:0:0:0:
236,236,93546,6,0,B|152:252|120:180,1,120,4|0,0:0|0:0,0:0:0:0:
192,152,94046,2,0,P|272:136|288:64,1,120,0|0,0:0|0:0,0:0:0:0:
308,24,94546,1,0,0:0:0:0:
164,76,94879,2,0,L|224:76,1,60
308,24,95212,1,0,0:0:0:0:
308,24,95379,2,0,P|392:60|404:112,1,120,0|0,0:0|0:0,0:0:0:0:
420,156,95879,1,0,0:0:0:0:
400,232,96046,1,0,0:0:0:0:
348,288,96212,6,0,P|276:328|220:312,1,120,4|0,0:3|0:0,0:0:0:0:
168,296,96712,2,0,P|121:259|106:202,1,120,0|0,0:0|0:0,0:0:0:0:
128,128,97212,1,0,0:0:0:0:
176,68,97379,1,0,0:0:0:0:
256,68,97546,6,2,L|328:104,1,60,2|2,0:0|0:0,0:0:0:0:
384,144,97879,2,2,L|384:228,1,60,2|2,0:0|0:0,0:0:0:0:
384,236,98129,1,2,0:0:0:0:
384,264,98212,2,0,L|384:352,1,60,2|2,0:0|0:0,0:0:0:0:
284,340,98546,2,0,L|284:252,1,60,2|2,0:0|0:0,0:0:0:0:
224,208,98879,6,0,B|176:208|160:160|96:160,1,120,4|0,0:0|0:0,0:0:0:0:
115,83,99379,2,0,B|163:83|179:35|243:35,1,120,0|0,0:0|0:0,0:0:0:0:
304,72,99879,1,0,0:0:0:0:
380,124,100046,1,0,0:0:0:0:
404,212,100212,2,0,L|424:284,1,60
360,336,100546,1,0,0:0:0:0:
272,360,100712,2,0,P|216:360|160:312,1,120
168,244,101212,1,0,0:0:0:0:
232,200,101379,1,0,0:0:0:0:
232,200,101462,1,0,0:0:0:0:
232,200,101546,6,0,L|352:112,1,120,4|0,0:3|0:0,0:0:0:0:
420,136,102046,2,0,B|460:176|468:252,1,120,0|0,0:0|0:0,0:0:0:0:
392,292,102546,1,0,0:0:0:0:
304,304,102712,1,0,0:0:0:0:
224,260,102879,2,0,P|212:224|220:120,1,120,0|0,0:0|0:0,0:0:0:0:
248,72,103379,1,0,0:0:0:0:
336,96,103546,2,0,L|392:152,1,60
420,216,103879,1,0,0:0:0:0:
420,216,103962,1,0,0:0:0:0:
420,216,104046,1,0,0:0:0:0:
380,296,104212,6,0,L|277:368,1,120,4|0,0:0|0:0,0:0:0:0:
200,340,104712,2,0,P|208:276|268:224,1,120,0|0,0:0|0:0,0:0:0:0:
308,204,105212,2,0,L|394:188,1,60,0|0,0:0|0:0,0:0:0:0:
402,187,105462,1,0,0:0:0:0:
437,181,105546,2,0,L|503:169,1,60,4|0,0:0|0:0,0:0:0:0:
508,260,105879,1,0,0:0:0:0:
508,260,105962,1,0,0:0:0:0:
508,260,106046,1,0,0:0:0:0:
284,276,106379,2,0,P|248:296|208:304,2,60,0|0|0,0:0|0:0|0:0,0:0:0:0:
212,212,106879,6,0,P|120:136|108:132,1,120,4|0,0:0|0:0,0:0:0:0:
32,152,107379,2,0,P|12:269|14:282,1,120,0|0,0:0|0:0,0:0:0:0:
100,216,107879,2,0,L|130:267,1,60
188,336,108212,1,0,0:0:0:0:
276,328,108379,1,0,0:0:0:0:
356,292,108546,2,0,L|416:260,2,60,0|0|0,0:0|0:0|0:0,0:0:0:0:
292,228,109046,2,0,L|232:260,1,60,0|0,0:0|0:0,0:0:0:0:
180,188,109379,1,0,0:0:0:0:
180,188,109462,1,0,0:0:0:0:
180,188,109546,1,4,0:0:0:0:
256,192,109712,12,0,112212,0:0:0:0:
