osu file format v14

[General]
AudioFilename: Pump It Up PRIME Leakage Voltage BGA.mp3
AudioLeadIn: 0
PreviewTime: 66879
Countdown: 0
SampleSet: Normal
StackLeniency: 0.7
Mode: 0
LetterboxInBreaks: 0
WidescreenStoryboard: 0

[Editor]
Bookmarks: 12213
DistanceSpacing: 1.1
BeatDivisor: 4
GridSize: 4
TimelineZoom: 1.7

[Metadata]
Title:Leakage Voltage
TitleUnicode:Leakage Voltage
Artist:Doin
ArtistUnicode:Doin
Creator:Sangzin
Version:Easy
Source:Pump It Up Prime
Tags:PIU 2015 14th dance floor
BeatmapID:648788
BeatmapSetID:287554

[Difficulty]
HPDrainRate:2
CircleSize:2.5
OverallDifficulty:3
ApproachRate:3
SliderMultiplier:0.8
SliderTickRate:1

[Events]
//Background and Video events
0,0,"Leakage voltage.png",0,0
Video,150,"bga.avi"
//Break Periods
2,31079,34773
2,56413,65439
//Storyboard Layer 0 (Background)
//Storyboard Layer 1 (Fail)
//Storyboard Layer 2 (Pass)
//Storyboard Layer 3 (Foreground)
//Storyboard Sound Samples

[TimingPoints]
1547,333.333333333333,4,1,0,70,1,0
22880,-100,4,2,0,60,0,0
23046,-100,4,2,0,40,0,0
24213,-100,4,2,0,60,0,0
24380,-100,4,2,0,40,0,0
25546,-100,4,2,0,60,0,0
25713,-100,4,2,0,40,0,0
26880,-100,4,2,0,60,0,0
28380,-100,4,2,0,40,0,0
29546,-100,4,2,0,60,0,0
29713,-100,4,2,0,40,0,0
30880,-100,4,2,0,60,0,0
36213,250,4,3,0,70,1,0
47213,-100,4,1,0,80,0,0
48213,-100,4,3,0,70,0,0
55213,-100,4,1,0,80,0,0
56213,333.333333333333,4,1,0,70,1,0
66879,-100,4,1,0,70,0,1
97546,-100,4,2,0,50,0,0
98879,-100,4,1,0,70,0,1
105212,-100,4,3,0,60,0,1
106546,-100,4,1,0,70,0,1
109212,-100,4,1,0,70,0,1
109546,-100,4,1,0,50,0,0
109879,-100,4,2,0,60,0,0
110212,-100,4,2,0,50,0,0
110546,-100,4,2,0,40,0,0
110879,-100,4,2,0,30,0,0
111212,-100,4,2,0,20,0,0
111546,-100,4,2,0,10,0,0
111879,-100,4,2,0,5,0,0

[Colours]
Combo1 : 0,91,121
Combo2 : 121,134,159
Combo3 : 0,79,174

[HitObjects]
128,48,12213,6,0,P|84:132|96:216,1,160,0|0,0:0|0:0,0:0:0:0:
192,336,13546,2,0,P|285:348|360:308,1,160,0|0,0:0|0:0,0:0:0:0:
452,180,14880,2,0,P|452:100|412:33,1,160
256,116,16213,2,0,L|256:276,1,160,0|0,0:0|0:0,0:0:0:0:
84,244,17546,6,0,L|44:72,1,160,0|0,0:0|0:0,0:0:0:0:
220,56,18880,2,0,P|316:88|332:168,1,160,0|0,0:0|0:0,0:0:0:0:
220,268,20213,2,0,P|258:335|334:348,1,160,0|0,0:0|0:0,0:0:0:0:
388,180,21546,2,0,P|416:68|400:20,1,160,0|0,0:0|0:0,0:0:0:0:
236,80,22880,6,0,P|176:44|80:168,1,240,2|0,0:2|0:0,0:0:0:0:
76,236,24213,2,0,L|296:332,1,240,2|0,0:0|0:0,0:0:0:0:
384,324,25546,2,0,P|396:156|300:40,1,320,2|2,0:0|0:0,0:0:0:0:
132,36,27546,1,2,0:0:0:0:
64,208,28213,6,0,B|31:249|47:313|112:336|112:336|144:304|192:288|240:304|256:336,2,320,2|2|2,0:0|0:0|0:0,0:0:0:0:
164,123,36213,6,0,L|164:350,1,160,0|0,0:0|0:0,0:0:0:0:
340,284,37213,2,0,L|339:56,1,160,0|0,0:0|0:0,0:0:0:0:
188,32,38213,1,0,0:0:0:0:
40,124,38713,2,0,L|40:292,1,160,0|4,0:0|0:0,0:0:0:0:
200,356,39713,1,8,0:0:0:0:
367,301,40213,6,0,B|419:241|419:241|419:153,2,160,4|0|0,0:0|0:0|0:0,0:0:0:0:
192,276,41713,1,0,0:0:0:0:
28,216,42213,2,0,P|120:108|296:128,1,320,4|0,0:0|0:0,0:0:0:0:
448,184,43713,1,0,0:0:0:0:
348,328,44213,6,0,L|160:328,2,160,4|0|0,0:0|0:0|0:0,0:0:0:0:
448,184,45713,1,0,0:0:0:0:
312,72,46213,2,0,L|136:72,1,160,4|0,0:0|0:0,0:0:0:0:
108,244,47213,2,4,L|288:316,1,160
420,232,48213,6,0,B|380:52|168:52,1,320,4|0,0:0|0:0,0:0:0:0:
52,168,49713,1,0,0:0:0:0:
56,340,50213,2,0,L|220:340,1,160,4|0,0:0|0:0,0:0:0:0:
352,228,51213,2,0,L|192:228,1,160,0|0,0:0|0:0,0:0:0:0:
76,100,52213,6,0,P|204:32|380:120,1,320,4|0,0:0|0:0,0:0:0:0:
472,224,53713,1,0,0:0:0:0:
332,332,54213,6,0,P|248:340|176:316,1,160,4|0,0:0|0:0,0:0:0:0:
96,160,55213,1,4,0:0:0:0:
256,84,55713,1,4,0:0:0:0:
416,160,56213,1,4,1:0:0:0:
120,100,66879,6,0,L|212:72,2,80,4|0|0,0:0|0:0|0:0,0:0:0:0:
68,172,67879,1,0,0:0:0:0:
76,260,68212,2,0,P|128:336|184:344,2,120,0|0|0,0:0|0:0|0:0,0:0:0:0:
164,256,69546,6,0,L|328:152,1,160,4|0,0:3|0:0,0:0:0:0:
384,140,70546,1,0,0:0:0:0:
452,196,70879,2,0,P|440:284|356:336,1,160,0|0,0:0|0:0,0:0:0:0:
300,328,71879,1,0,0:0:0:0:
216,308,72212,6,0,L|128:164,1,160,4|0,0:0|0:0,0:0:0:0:
148,84,73212,1,0,0:0:0:0:
232,60,73546,2,0,P|296:36|376:48,2,120,0|0|0,0:0|0:0|0:0,0:0:0:0:
208,144,74879,6,0,P|236:232|308:300,1,160,4|0,0:3|0:0,0:0:0:0:
361,316,75879,1,0,0:0:0:0:
440,276,76212,2,0,P|472:204|480:116,1,160
460,40,77212,1,0,0:0:0:0:
372,44,77546,6,0,B|324:48|289:102|289:102|264:140|164:132,1,240,4|0,0:0|0:0,0:0:0:0:
108,64,78879,2,0,B|68:96|60:144|96:192|96:192|72:240|72:240|112:280,1,240
176,320,80212,6,0,L|264:320,1,80,4|0,0:3|0:0,0:0:0:0:
292,240,80879,2,0,L|416:240,1,80
424,164,81546,2,0,P|372:96|280:100,1,160,0|0,0:0|0:0,0:0:0:0:
224,132,82546,1,0,0:0:0:0:
156,188,82879,6,0,L|40:280,2,120,4|0|0,0:0|0:0|0:0,0:0:0:0:
216,252,84212,2,0,B|276:208|312:296|372:240,1,160
424,180,85212,1,0,0:0:0:0:
420,92,85546,6,0,P|312:56|156:76,1,240,4|0,0:3|0:0,0:0:0:0:
104,100,86879,2,0,B|96:176|64:212|64:212|96:240|108:328,1,240,0|0,0:0|0:0,0:0:0:0:
192,320,88212,6,0,B|224:320|268:296|268:296|312:320|352:320,1,160,4|0,0:0|0:0,0:0:0:0:
416,272,89212,1,0,0:0:0:0:
424,184,89546,2,0,P|350:91|238:51,1,240,0|0,0:0|0:0,0:0:0:0:
160,92,90879,6,0,L|76:168,1,80,4|0,0:3|0:0,0:0:0:0:
40,208,91546,2,0,L|92:308,1,80,0|0,0:0|0:0,0:0:0:0:
152,324,92212,2,0,L|332:324,1,160,0|0,0:0|0:0,0:0:0:0:
388,280,93212,1,0,0:0:0:0:
384,192,93546,6,0,P|332:108|184:104,1,240,4|0,0:0|0:0,0:0:0:0:
120,132,94879,2,0,L|244:344,1,240
328,316,96212,2,0,P|408:252|424:208,2,120,4|0|0,0:3|0:0|0:0,0:0:0:0:
242,339,97546,2,0,P|162:303|238:119,1,320,2|4,0:0|0:0,0:0:0:0:
392,100,99546,6,0,L|416:180,1,80
425,263,100212,2,0,P|344:323|202:323,1,240
128,288,101546,2,0,B|88:224|88:224|88:128,1,160,4|0,0:3|0:0,0:0:0:0:
156,84,102546,1,0,0:0:0:0:
240,80,102879,2,0,B|304:80|344:120|344:120|384:160|464:160,1,240
448,248,104212,6,0,P|342:306|213:292,1,240,4|0,0:0|0:0,0:0:0:0:
144,268,105546,2,0,L|84:104,1,160,4|0,0:0|0:0,0:0:0:0:
172,88,106546,1,0,0:0:0:0:
256,60,106879,6,0,L|404:60,2,120,4|0|0,0:0|0:0|0:0,0:0:0:0:
172,88,108212,2,0,P|120:148|188:284,1,240,0|0,0:0|0:0,0:0:0:0:
264,296,109546,1,4,0:0:0:0:
256,192,109879,12,0,112212,0:0:0:0:
