osu file format v9

[General]
AudioFilename: Pump It Up - Cleaner.mp3
AudioLeadIn: 0
PreviewTime: 85122
Countdown: 0
SampleSet: Normal
StackLeniency: 0.6
Mode: 1
LetterboxInBreaks: 0

[Editor]
Bookmarks: 1305,13760,17045,43361,54532,59647,62728,75958,92720,96912,105213
DistanceSpacing: 0.7
BeatDivisor: 4
GridSize: 16

[Metadata]
Title:Cleaner
Artist:Doin
Creator:XK2238
Version:Xaiko
Source:Pump It Up Fiesta EX
Tags:j4yj4ys3z

[Difficulty]
HPDrainRate:5
CircleSize:5
OverallDifficulty:5
ApproachRate:5
SliderMultiplier:1.40000000596046
SliderTickRate:4

[Events]
//Background and Video events
0,0,"BG.jpg"
//Break Periods
//Storyboard Layer 0 (Background)
//Storyboard Layer 1 (Fail)
//Storyboard Layer 2 (Pass)
//Storyboard Layer 3 (Foreground)
//Storyboard Sound Samples
//Background Colour Transformations
3,100,0,0,0

[TimingPoints]
4728,295.566502463054,4,1,0,70,1,0
54532,-100,4,1,0,60,0,0
55566,-100,4,2,0,70,0,0
66206,-100,4,1,0,70,0,0
71231,-100,4,2,0,70,0,0
75665,-100,4,1,0,70,0,0
80393,-100,4,1,0,70,0,0
87487,-90.9090909090909,4,1,0,70,0,1
92510,-83.3333333333333,4,1,0,70,0,0
92511,-83.3333333333333,4,1,0,70,0,1
96944,-83.3333333333333,4,1,0,70,0,0
96945,-83.3333333333333,4,1,0,70,0,1
106403,-83.3333333333333,4,1,0,70,0,0
107881,-100,4,1,0,70,0,0

[Colours]
Combo1 : 0,128,255
Combo2 : 255,128,0

[HitObjects]
32,32,4729,21,8
64,32,4802,1,8
96,32,4876,5,0
160,32,5024,1,0
224,32,5172,5,8
256,32,5246,1,8
288,32,5320,5,0
352,32,5467,1,0
416,32,5615,5,8
448,32,5689,5,0
480,32,5763,1,0
480,96,5911,5,8
480,128,5985,1,8
480,160,6059,5,0
480,224,6206,5,8
480,256,6280,1,8
480,288,6354,5,0
480,352,6502,1,0
416,352,6650,5,8
352,352,6798,5,0
288,352,6945,1,0
224,352,7093,5,8
192,352,7167,1,8
160,352,7241,5,0
96,352,7389,1,0
32,352,7536,5,8
32,320,7610,5,0
32,288,7684,1,0
32,224,7832,5,8
32,160,7980,5,0
32,96,8128,5,8
32,32,8275,1,8
64,32,8349,1,8
96,32,8423,1,8
128,32,8497,1,8
160,32,8571,5,0
192,32,8645,1,0
224,32,8719,5,8
256,32,8793,1,8
288,32,8866,5,0
352,32,9014,1,0
416,32,9162,1,0
480,32,9310,1,0
480,96,9458,5,12
480,160,9605,5,0
480,224,9753,1,0
480,288,9901,5,8
480,352,10049,5,0
416,352,10197,1,0
352,352,10344,5,8
288,352,10492,5,0
224,352,10640,5,8
192,352,10714,1,8
160,352,10788,5,0
96,352,10935,5,8
32,352,11083,5,0
32,320,11157,1,0
32,288,11231,5,8
32,256,11305,5,0
32,224,11379,1,0
32,160,11527,5,8
32,128,11600,1,8
32,96,11674,5,0
32,64,11748,5,8
32,32,11822,1,8
96,32,11970,5,0
160,32,12118,5,8
192,32,12192,1,8
224,32,12266,5,0
288,32,12414,1,0
352,32,12562,5,8
384,32,12636,5,0
416,32,12709,1,0
480,32,12857,1,0
480,96,13004,5,8
480,128,13078,1,8
480,160,13152,5,0
480,192,13226,1,0
480,224,13300,5,8
480,256,13374,5,0
480,288,13448,5,8
480,320,13522,1,8
480,352,13596,5,0
416,352,13743,5,8
352,352,13891,1,8
288,352,14039,5,0
224,352,14187,5,12
160,352,14334,1,8
96,352,14482,1,8
32,352,14630,5,0
32,288,14778,5,8
32,224,14926,5,0
32,160,15073,1,0
32,96,15221,5,8
32,32,15370,1,8
64,32,15444,5,0
96,32,15518,1,0
128,32,15591,1,0
160,32,15665,5,8
192,32,15739,5,0
224,32,15813,1,0
256,32,15887,1,0
288,32,15961,5,8
320,32,16035,1,8
352,32,16109,1,8
384,32,16183,1,8
416,32,16257,5,0
448,32,16330,5,8
480,32,16404,1,8
480,64,16478,1,8
480,96,16552,5,0
480,224,16847,1,0
480,288,16995,5,8
480,352,17142,1,12
352,352,17438,5,0
288,352,17586,5,8
224,352,17733,5,4
96,352,18029,1,0
32,352,18177,5,8
32,288,18325,5,0
32,224,18472,5,8
32,192,18546,1,8
32,160,18620,5,0
32,128,18694,1,0
32,96,18768,1,0
32,32,18916,5,12
96,32,19064,5,0
160,32,19211,1,0
224,32,19359,5,8
288,32,19507,1,8
320,32,19581,5,0
352,32,19655,1,0
384,32,19729,1,0
416,32,19802,5,8
448,32,19876,1,8
480,32,19950,5,0
480,96,20098,5,12
480,224,20394,1,8
480,288,20541,5,0
480,352,20689,5,8
352,352,20985,1,8
288,352,21133,5,0
224,352,21280,5,8
192,352,21354,1,8
96,352,21576,1,8
64,352,21650,1,8
32,352,21724,5,0
32,320,21798,5,8
32,288,21871,5,0
32,256,21945,5,8
32,224,22019,1,8
32,192,22093,5,0
32,160,22167,5,8
32,128,22241,5,0
32,96,22315,1,0
32,32,22463,1,4
160,32,22758,5,8
288,32,23053,5,0
320,32,23127,5,8
352,32,23201,1,8
384,32,23275,1,8
416,32,23349,5,0
448,32,23423,5,8
480,32,23497,1,8
480,64,23571,1,8
480,96,23645,5,0
480,160,23793,1,0
480,224,23940,5,8
480,288,24088,1,8
480,352,24236,5,0
448,352,24310,1,0
416,352,24384,5,8
384,352,24458,1,8
352,352,24532,5,0
320,352,24605,1,0
288,352,24679,5,8
224,352,24827,5,4
160,352,24975,1,0
96,352,25123,1,0
32,352,25270,5,8
32,288,25418,5,0
32,224,25566,5,8
32,192,25640,5,0
32,160,25714,1,0
32,128,25788,1,0
32,96,25862,1,0
256,192,26009,12,12,28078
32,32,28374,5,8
64,32,28448,1,8
96,32,28522,1,8
128,32,28596,1,8
160,32,28669,5,0
224,32,28817,1,0
288,32,28965,1,0
320,32,29039,1,0
352,32,29113,1,0
384,32,29187,1,0
416,32,29261,5,8
480,32,29408,5,0
480,96,29556,5,8
480,128,29630,5,0
480,160,29704,5,8
480,224,29852,1,8
480,288,29999,1,8
480,352,30147,5,0
448,352,30221,1,0
416,352,30295,5,8
384,352,30369,1,8
352,352,30443,1,8
288,352,30591,1,8
224,352,30738,5,0
192,352,30812,1,0
160,352,30886,1,0
128,352,30960,1,0
96,352,31034,5,8
32,352,31182,5,0
32,288,31330,1,0
32,256,31403,1,0
32,224,31477,1,0
32,192,31551,5,8
32,160,31625,1,8
32,96,31773,1,8
32,32,31921,5,0
64,32,31995,1,0
96,32,32068,1,0
160,32,32216,5,8
224,32,32364,5,8
288,32,32512,5,8
320,32,32586,1,8
352,32,32660,5,0
384,32,32733,1,0
416,32,32807,5,8
480,32,32955,1,8
480,96,33103,1,8
480,160,33251,1,8
480,224,33399,1,12
480,288,33546,5,0
480,352,33693,5,8
448,352,33767,1,8
416,352,33841,1,8
384,352,33915,1,8
352,352,33989,5,0
288,352,34137,5,8
224,352,34284,5,0
192,352,34358,1,0
160,352,34432,1,0
96,352,34580,5,8
32,352,34728,5,0
32,288,34876,5,8
32,256,34950,1,8
32,224,35024,5,0
32,192,35098,1,0
32,160,35172,5,8
32,96,35320,5,0
32,32,35467,5,8
64,32,35541,1,8
96,32,35615,1,8
128,32,35689,1,8
160,32,35763,5,0
224,32,35911,1,0
288,32,36059,5,8
320,32,36133,5,0
352,32,36206,5,8
384,32,36280,1,8
416,32,36354,1,8
480,32,36502,1,8
480,96,36650,5,0
480,128,36724,5,8
480,160,36798,5,0
480,224,36945,5,8
480,288,37093,1,8
480,352,37241,1,8
448,352,37315,5,0
416,352,37389,1,0
384,352,37463,1,0
352,352,37536,5,8
320,352,37610,1,8
288,352,37684,5,0
224,352,37832,1,0
192,352,37906,1,0
160,352,37980,5,8
96,352,38128,1,8
32,352,38275,5,0
32,288,38423,5,8
32,256,38497,1,8
32,224,38571,5,0
32,160,38719,1,0
32,96,38866,5,8
32,32,39014,1,8
64,32,39088,1,8
96,32,39162,5,0
160,32,39310,5,8
224,32,39458,5,0
288,32,39605,5,8
320,32,39679,5,0
352,32,39753,1,0
384,32,39827,1,0
416,32,39901,5,8
480,32,40049,1,8
480,96,40197,1,8
480,128,40270,5,0
480,160,40344,1,0
480,192,40418,5,8
480,224,40492,1,8
480,288,40640,1,8
480,352,40788,5,0
448,352,40862,5,8
416,352,40935,5,0
384,352,41009,5,8
352,352,41083,5,0
288,352,41231,1,0
224,352,41379,5,8
192,352,41453,1,8
160,352,41527,5,0
128,352,41600,1,0
96,352,41674,5,8
64,352,41748,1,8
32,352,41822,5,0
32,320,41896,1,0
32,288,41970,5,8
32,256,42044,1,8
32,224,42118,1,8
32,160,42266,1,12
32,96,42413,5,0
32,32,42561,5,8
96,32,42709,1,8
160,32,42857,1,8
192,32,42931,1,8
224,32,43004,5,0
256,32,43078,1,0
288,32,43152,5,8
320,32,43226,5,0
352,32,43300,1,0
416,32,43448,5,8
448,32,43522,1,8
480,32,43596,1,8
480,64,43669,5,0
480,96,43743,5,8
480,128,43817,5,0
480,160,43891,5,8
480,224,44039,1,8
480,256,44113,5,0
480,288,44187,5,8
480,320,44261,1,8
480,352,44334,5,0
448,352,44408,5,8
416,352,44482,5,0
384,352,44556,1,0
352,352,44630,5,8
320,352,44704,1,8
288,352,44778,5,0
224,352,44926,5,12
128,352,45123,5,4
32,352,45320,1,4
32,256,45517,5,12
32,160,45714,5,4
32,64,45911,1,4
112,32,46108,5,12
176,32,46256,1,12
240,32,46403,5,4
304,32,46551,5,12
368,32,46699,5,0
400,32,46773,1,0
432,32,46847,5,8
464,32,46921,1,8
496,32,46995,5,0
496,96,47142,5,12
496,160,47290,5,4
496,224,47438,1,0
496,256,47512,1,0
496,288,47586,1,0
496,352,47733,1,0
432,352,47881,1,0
400,352,47955,1,0
368,352,48029,1,0
336,352,48103,1,0
304,352,48177,5,8
272,352,48251,1,8
240,352,48325,1,8
176,352,48472,1,12
112,352,48620,5,0
48,352,48768,1,0
32,288,48916,1,0
32,256,48990,1,0
32,224,49064,1,0
32,160,49211,5,8
32,96,49359,1,8
32,32,49507,1,8
96,32,49655,5,0
128,32,49729,5,8
240,32,49950,1,8
272,32,50024,5,0
304,32,50098,1,0
336,32,50172,1,0
368,32,50246,5,8
400,32,50320,5,0
432,32,50394,5,8
464,32,50467,1,8
496,32,50541,5,0
496,64,50615,5,8
496,96,50689,1,8
496,160,50837,5,4
496,224,50985,1,0
496,288,51133,5,8
496,352,51280,5,0
432,352,51428,5,8
400,352,51502,1,8
368,352,51576,1,8
336,352,51650,1,8
304,352,51724,5,0
272,352,51798,1,0
240,352,51871,5,8
208,352,51945,1,8
176,352,52019,5,0
112,352,52167,1,0
48,352,52315,1,0
32,288,52463,5,8
32,224,52610,1,8
32,192,52684,5,0
32,160,52758,5,8
32,128,52832,5,0
32,96,52906,5,8
32,64,52980,1,8
32,32,53054,1,8
96,32,53201,1,12
160,32,53349,5,0
224,32,53497,1,0
288,32,53645,5,8
352,32,53793,5,0
416,32,53940,5,8
480,32,54088,5,0
480,64,54162,1,0
480,96,54236,1,0
480,160,54384,5,12
480,224,54532,1,8
480,288,54679,1,8
480,352,54827,5,0
416,352,54975,5,8
352,352,55123,5,0
288,352,55270,1,0
224,352,55418,1,0
256,192,55566,12,0,56453
32,32,56748,5,12
96,32,56896,1,8
160,32,57044,1,8
224,32,57192,5,0
288,32,57339,5,8
352,32,57487,5,0
416,32,57635,5,8
480,32,57783,5,0
480,96,57931,5,8
480,128,58004,1,8
480,160,58078,1,8
480,192,58152,1,8
480,224,58226,5,0
480,256,58300,1,0
480,288,58374,1,0
480,320,58448,1,0
480,352,58522,5,8
448,352,58596,1,8
416,352,58669,5,0
384,352,58743,5,8
352,352,58817,5,0
320,352,58891,1,0
288,352,58965,5,8
256,352,59039,1,8
224,352,59113,5,0
160,352,59261,5,8
96,352,59408,1,8
32,352,59556,5,4
32,288,59704,5,8
32,224,59852,1,8
32,160,59999,5,0
32,96,60147,5,8
32,32,60295,5,0
96,32,60443,5,8
128,32,60517,1,8
160,32,60591,5,0
192,32,60665,1,0
224,32,60738,5,8
256,32,60812,5,0
288,32,60886,1,0
352,32,61034,5,8
384,32,61108,1,8
416,32,61182,5,0
448,32,61256,1,0
480,32,61330,5,8
480,64,61403,5,0
480,96,61477,1,0
480,160,61625,5,8
480,192,61699,1,8
480,224,61773,5,0
480,288,61921,5,8
480,352,62068,5,0
416,352,62216,5,8
384,352,62290,1,8
352,352,62364,5,0
288,352,62512,5,8
224,352,62660,5,0
192,352,62733,1,0
160,352,62807,5,8
128,352,62881,1,8
96,352,62955,5,0
64,352,63029,1,0
32,352,63103,5,8
32,320,63177,1,8
32,288,63251,5,0
32,256,63325,1,0
32,224,63399,5,8
32,192,63472,1,8
32,160,63546,5,0
32,128,63620,5,8
32,96,63694,1,8
32,64,63768,1,8
32,32,63842,5,0
96,32,63990,5,8
160,32,64137,1,8
224,32,64285,1,8
288,32,64433,5,4
352,32,64581,1,0
416,32,64729,1,0
448,32,64802,1,0
480,32,64876,1,0
480,96,65024,5,12
480,160,65172,1,8
480,192,65246,1,8
480,224,65320,1,8
480,288,65467,1,12
480,352,65615,5,0
416,352,65763,5,8
384,352,65837,1,8
352,352,65911,5,0
320,352,65985,1,0
288,352,66059,5,8
224,352,66206,1,12
160,352,66354,5,0
96,352,66502,1,0
32,352,66650,1,0
32,288,66798,1,0
32,224,66945,1,0
32,160,67093,1,0
32,96,67241,5,8
32,64,67315,1,8
32,32,67389,1,8
96,32,67536,5,0
160,32,67684,1,0
224,32,67832,1,0
288,32,67980,1,0
352,32,68128,1,0
416,32,68275,1,0
480,32,68423,5,8
480,64,68497,1,8
480,96,68571,1,8
480,160,68719,5,0
480,224,68866,1,0
480,288,69014,1,0
480,352,69162,1,0
416,352,69310,1,0
352,352,69458,1,0
288,352,69605,5,8
256,352,69679,1,8
224,352,69753,1,8
160,352,69901,5,0
96,352,70049,1,0
32,352,70197,1,0
32,288,70344,5,8
32,256,70418,5,0
32,224,70492,1,0
32,160,70640,5,8
32,128,70714,5,0
32,96,70788,1,0
256,192,70935,12,0,73004
256,192,73300,8,0,75369
32,32,75665,5,8
96,32,75812,1,8
160,32,75960,5,0
224,32,76108,5,8
288,32,76256,1,8
352,32,76403,5,0
416,32,76551,1,4
480,32,76699,1,0
480,96,76847,5,8
480,160,76995,1,8
480,224,77142,5,0
480,288,77290,5,8
480,352,77438,1,8
416,352,77586,5,0
352,352,77733,1,4
288,352,77881,1,0
224,352,78029,5,8
160,352,78177,1,8
96,352,78325,5,0
32,352,78472,1,0
32,288,78620,5,8
32,224,78768,1,8
32,160,78916,5,0
32,96,79064,1,0
32,32,79211,5,8
64,32,79285,5,0
96,32,79359,1,0
128,32,79433,1,0
160,32,79507,5,8
192,32,79581,5,0
224,32,79655,1,0
256,32,79729,1,0
288,32,79802,5,8
320,32,79876,1,8
352,32,79950,1,8
384,32,80024,1,8
416,32,80098,1,8
480,32,80246,1,8
480,96,80394,1,12
480,160,80541,5,0
480,224,80689,5,8
480,256,80763,5,0
480,288,80837,1,0
480,352,80985,1,0
416,352,81133,5,8
384,352,81206,5,0
352,352,81280,1,0
288,352,81428,1,0
224,352,81576,5,12
160,352,81724,5,0
96,352,81871,5,8
32,352,82019,1,8
32,288,82167,5,0
32,224,82315,5,8
32,192,82389,1,8
32,160,82463,5,0
32,96,82610,1,0
32,32,82758,5,8
64,32,82832,5,0
96,32,82906,1,0
160,32,83054,1,0
192,32,83128,1,0
224,32,83201,1,0
256,32,83275,1,0
288,32,83349,5,8
320,32,83423,1,8
352,32,83497,5,0
384,32,83571,1,0
416,32,83645,5,8
480,32,83793,5,0
480,96,83940,5,8
480,128,84014,1,8
480,160,84088,5,0
480,192,84162,1,0
480,224,84236,5,8
480,256,84310,5,0
480,288,84384,1,0
480,320,84458,1,0
480,352,84532,5,8
448,352,84605,1,8
416,352,84679,5,0
384,352,84753,1,0
352,352,84827,5,8
320,352,84901,5,0
288,352,84975,1,0
224,352,85123,5,12
160,352,85270,1,8
96,352,85418,5,0
32,352,85566,1,0
32,288,85714,5,8
32,256,85788,1,8
32,224,85862,5,0
32,192,85935,1,0
32,160,86009,1,0
32,96,86157,1,0
32,32,86305,5,8
64,32,86379,5,0
96,32,86453,1,0
160,32,86600,5,8
192,32,86674,1,8
224,32,86748,5,0
288,32,86896,5,8
320,32,86970,1,8
352,32,87044,1,8
384,32,87118,5,0
416,32,87192,1,0
480,96,87487,5,8
480,128,87561,1,8
480,160,87635,5,0
480,192,87709,5,8
480,224,87783,1,8
480,288,87931,5,0
480,352,88078,5,8
448,352,88152,1,8
416,352,88226,5,0
352,352,88374,5,12
288,352,88522,5,0
224,352,88669,5,8
192,352,88743,5,0
160,352,88817,1,0
128,352,88891,5,8
96,352,88965,1,8
32,352,89113,5,0
32,320,89187,5,8
32,256,89334,1,8
32,224,89408,5,0
32,160,89556,5,8
32,128,89630,1,8
32,96,89704,5,0
32,32,89853,5,8
64,32,89926,1,8
96,32,90000,5,0
128,32,90074,5,8
160,32,90148,1,8
224,32,90296,1,8
288,32,90444,5,0
320,32,90518,1,0
352,32,90592,5,8
416,32,90739,5,0
448,32,90813,5,8
480,32,90887,5,0
480,96,91035,5,8
480,128,91109,5,0
480,192,91256,5,8
480,224,91330,5,0
480,288,91477,1,0
480,352,91625,5,8
448,352,91699,5,0
416,352,91773,1,0
384,352,91847,1,0
352,352,91921,5,8
320,352,91995,1,8
288,352,92068,1,8
224,352,92216,1,8
160,352,92364,5,0
96,352,92512,5,12
32,352,92660,5,0
32,288,92807,5,8
32,256,92881,1,8
32,224,92955,1,8
32,192,93028,1,8
32,160,93103,5,0
32,128,93176,1,0
32,96,93251,1,0
32,64,93324,1,0
32,32,93399,5,8
64,32,93472,1,8
96,32,93546,5,0
128,32,93619,1,0
160,32,93694,5,8
192,32,93768,5,0
224,32,93842,1,0
256,32,93915,1,0
288,32,93990,5,8
320,32,94064,1,8
352,32,94137,1,8
384,32,94211,1,8
416,32,94285,5,0
448,32,94358,1,0
480,32,94433,1,0
480,64,94506,1,0
480,96,94581,5,8
480,128,94655,1,8
480,160,94729,1,8
480,192,94801,1,8
480,224,94876,5,0
480,256,94950,1,0
480,288,95024,1,0
480,320,95097,1,0
480,352,95172,5,8
448,352,95246,1,8
416,352,95320,1,8
384,352,95393,1,8
352,352,95467,5,0
320,352,95541,1,0
288,352,95615,1,0
256,352,95688,1,0
224,352,95763,5,8
192,352,95837,5,0
160,352,95911,1,0
128,352,95985,1,0
96,352,96059,5,8
64,352,96133,1,8
32,352,96206,5,0
32,320,96280,1,0
32,288,96354,5,8
32,256,96428,1,8
32,224,96502,5,0
32,192,96576,1,0
32,160,96650,5,8
32,128,96724,5,0
32,96,96798,1,0
32,64,96871,1,0
32,32,96945,5,8
64,32,97019,1,8
96,32,97093,1,8
128,32,97167,1,8
160,32,97241,5,0
192,32,97315,1,0
224,32,97389,1,0
256,32,97463,1,0
288,32,97536,5,8
320,32,97610,1,8
352,32,97684,1,8
384,32,97758,1,8
416,32,97832,5,0
448,32,97906,1,0
480,32,97980,1,0
480,64,98054,1,0
480,96,98128,5,8
480,128,98201,1,8
480,160,98275,5,0
480,192,98349,1,0
480,224,98423,1,0
480,256,98497,1,0
480,288,98571,5,8
480,320,98645,5,0
480,352,98719,1,0
448,352,98793,1,0
416,352,98866,1,0
384,352,98940,1,0
352,352,99014,5,8
320,352,99088,5,0
288,352,99162,1,0
256,352,99236,1,0
224,352,99310,5,8
192,352,99384,1,8
160,352,99458,1,8
128,352,99532,1,8
96,352,99605,5,0
64,352,99679,1,0
32,352,99753,1,0
32,320,99827,1,0
32,288,99901,5,8
32,256,99975,1,8
32,224,100049,1,8
32,192,100123,1,8
32,160,100197,5,0
32,128,100270,1,0
32,96,100344,1,0
32,64,100418,1,0
32,32,100492,5,8
64,32,100566,1,8
96,32,100640,5,0
128,32,100714,1,0
160,32,100788,1,0
192,32,100862,1,0
224,32,100935,5,8
256,32,101009,5,0
288,32,101083,1,0
320,32,101157,1,0
352,32,101231,1,0
384,32,101305,1,0
416,32,101379,5,8
480,128,101674,1,12
480,240,101970,5,0
480,272,102044,1,0
480,304,102118,1,0
480,336,102192,1,0
448,336,102266,5,8
416,336,102339,1,8
384,336,102413,1,8
352,336,102487,1,8
320,336,102561,5,0
288,336,102635,1,0
256,336,102709,1,0
224,336,102783,1,0
192,336,102857,5,8
160,336,102931,1,8
128,336,103004,1,8
96,336,103078,1,8
64,336,103152,5,0
32,336,103226,1,0
32,304,103300,1,0
32,272,103374,1,0
32,240,103448,5,8
32,208,103522,1,8
32,176,103596,1,8
32,144,103669,1,8
32,112,103743,5,0
32,80,103817,1,0
32,48,103891,1,0
96,32,104039,1,4
160,32,104187,1,4
224,32,104334,5,12
288,32,104482,5,4
352,32,104630,5,12
416,32,104778,5,4
480,32,104926,5,12
480,96,105073,5,4
480,160,105221,5,8
480,192,105295,1,8
480,224,105369,1,8
480,256,105443,1,8
480,288,105517,1,8
480,320,105591,1,8
480,352,105665,1,8
448,352,105738,1,8
416,352,105812,1,8
384,352,105886,1,8
352,352,105960,1,8
320,352,106034,1,8
288,352,106108,1,8
272,352,106157,1,8
256,352,106206,1,8
240,352,106256,1,8
224,352,106305,1,8
208,352,106354,1,8
192,352,106403,5,0
256,192,107881,5,12
